#VERSION:0.83;
#TITLE:jam jam reggae;
#SUBTITLE:;
#ARTIST:jam master '73;
#TITLETRANSLIT:;
#SUBTITLETRANSLIT:;
#ARTISTTRANSLIT:;
#GENRE:Reggae;
#CREDIT:tikal.;
#MUSIC:reggae.ogg;
#BANNER:reggae-bn.png;
#BACKGROUND:reggae-bg.png;
#CDTITLE:cdtitle.png;
#SAMPLESTART:61.737;
#SAMPLELENGTH:21.338;
#SELECTABLE:YES;
#OFFSET:-3.062;
#BPMS:0.000=89.997
,40.000=89.980
;
#STOPS:;
#DISPLAYBPM:89.990;
#BGCHANGES:;
#FGCHANGES:;

//--------------- dance-single - tikal. ----------------
#NOTEDATA:;
#STEPSTYPE:dance-single;
#DESCRIPTION:tikal.;
#DIFFICULTY:Hard;
#METER:7;
#RADARVALUES:0,0,0,0,0;
#NOTES:
0000
0000
0000
0000
,
0000
0000
0000
0000
,
0001
0000
0001
0000
0010
0100
1000
0100
0000
0001
0100
0000
2000
0000
3000
0000
,
0010
0100
0010
0000
0001
0000
0000
0010
1000
0000
0100
0000
0010
0000
1001
0000
,
0002
0000
0000
2000
0000
0000
0000
3003
,
0000
0001
0100
0001
1000
0000
0000
0010
1000
0000
0100
0000
0010
0000
1001
0000
,
1000
0000
0100
0010
0001
0000
0000
0000
1000
0000
0100
0010
0001
0000
0000
0000
,
1000
0000
0010
0100
0001
0000
0100
0001
0100
0001
0100
0010
1000
0000
0001
0000
,
1000
0002
2000
0000
0000
0000
0000
3003
,
0001
0000
1000
0000
0100
0000
0100
0000
0010
0001
0100
0000
0010
0000
1001
0000
,
1000
0000
0100
0000
0001
0000
0100
0000
0100
0010
0100
0000
1000
0000
0010
0000
,
0100
0001
0100
0000
0100
0010
1000
0001
0000
1000
0100
0000
0100
0010
0001
1000
,
0001
0000
0010
0100
1000
0000
0000
0000
0001
0000
0010
0100
1000
0000
0000
0000
,
0001
0000
0100
0010
1000
0000
0010
1000
0010
1000
0010
0100
0001
0000
1000
0000
,
0001
0010
0000
0000
0011
0000
0010
0001
1000
0000
0010
0000
1010
0000
1001
0000
,
1000
0100
0000
0000
1100
0000
0100
1000
0001
0000
0100
0000
0101
0000
1001
0000
,
1000
0000
0000
1000
0100
0000
0000
0000
0010
0000
0000
0010
0001
0000
0000
0000
,
1000
0000
0000
0001
0000
0000
2002
0000
0000
0000
0000
0000
3003
0000
0000
0000
,
1000
0000
0001
1000
0100
0000
0010
0000
1000
0000
0000
0000
0001
0000
0000
0100
,
1000
0001
1000
0001
1000
0001
1000
0001
1000
0010
0000
0100
0000
0001
0000
0000
,
0001
0000
1000
0001
0100
0000
0010
0000
0001
0000
0000
0000
1000
0000
0000
0100
,
0001
1000
0001
1000
0001
1000
0001
1000
0001
0010
0000
0100
0000
1000
0010
1000
,
0001
0000
0010
0001
0010
0000
0000
0100
0010
0001
0010
0000
0100
0000
1000
0000
,
0010
0000
0000
0000
0000
0000
0100
0000
0000
0001
0000
0000
0100
0000
0000
0000
0000
0000
0000
0000
0000
0010
0000
0000
1000
0000
0000
0000
0000
0000
0001
0000
0000
0000
0000
0000
0010
0000
0000
0000
0100
0000
0010
0000
0000
0000
0001
0000
,
1000
0000
0010
1000
0010
0000
0000
0100
0010
1000
0010
0000
0100
0000
0001
0000
,
0010
0000
0000
0000
0000
0000
0100
0000
0000
1000
0000
0000
0100
0000
0000
0000
0000
0000
0000
0000
0000
0010
0000
0000
0001
0000
0000
0000
0000
0000
1000
0000
0000
0000
0000
0000
0010
0000
0000
0000
0100
0000
0010
0000
0000
0000
1000
0000
,
0001
0001
0011
0000
0001
0001
0101
0000
,
1000
0010
1000
0000
1010
0000
1000
0100
0000
0010
0001
0000
1001
0000
0001
0000
,
1000
1000
1010
0000
1000
1000
1100
0000
,
0001
0010
0001
0000
0011
0000
0001
0100
0000
0010
1000
0000
1001
0000
1000
0000
,
0110
0000
0000
0000
;

//--------------- dance-single - tikal. ----------------
#NOTEDATA:;
#STEPSTYPE:dance-single;
#DESCRIPTION:tikal.;
#DIFFICULTY:Challenge;
#METER:9;
#RADARVALUES:0,0,0,0,0;
#NOTES:
0000
0000
0000
0000
,
0000
0000
0000
0000
,
0001
0000
0100
0000
0001
0000
1000
0000
0100
0000
1000
0000
0001
0000
0000
1000
0000
0000
0100
0000
0010
0000
0100
0000
0010
0000
0000
0001
0000
0000
1000
0000
0000
0010
0000
0000
0100
0000
0000
0001
0000
0000
1000
0000
0000
0001
0000
0000
,
1000
0000
0100
0000
1000
0000
0001
0000
0100
0000
0001
0000
1000
0000
0000
0001
0000
0000
0100
0000
0010
0000
0100
0000
0010
0000
0000
1000
0000
0000
0001
0000
0000
0010
0000
0000
0100
0000
0000
1000
0000
0000
0001
0000
0000
1000
0000
0000
,
0001
0000
0000
0001
0100
0000
0000
0100
0010
0000
0000
0010
1000
0001
0010
0000
,
0001
0000
0100
0000
0001
0000
1000
0000
0100
0000
1000
0000
0001
0000
0010
0000
0001
0000
1000
0000
0010
0000
1000
0000
0001
0000
0000
0010
0000
0000
0100
0000
0000
1000
0000
0000
0001
0000
0000
0000
0000
0000
1001
0000
0000
0000
0000
0000
,
1000
0010
1000
0010
0100
0000
0001
0000
1000
0100
1000
0100
0010
0000
0001
0000
,
1000
0010
1000
0010
0100
0000
0001
0010
0001
0010
0001
0100
0010
1000
0001
0000
,
1000
0000
0000
1000
0010
0000
0000
0010
0100
0000
0000
0100
0001
1000
0100
0000
,
1000
0000
0100
1000
0001
0000
0001
0000
1000
0010
0100
0001
0100
0000
1001
0000
,
1100
0000
0110
0000
0011
0000
0110
0000
0100
0010
0100
0000
1100
0000
0101
0000
,
1000
0010
0100
0010
0100
0010
1000
0001
0000
0010
0100
0010
0100
0010
0001
1000
,
0010
1000
0001
0000
1001
0000
1000
0100
0010
0000
0100
0000
2000
0000
3000
0000
,
0001
0100
0000
0010
1000
0100
0010
0100
1000
0001
0010
0000
0002
0000
0003
0000
,
1000
0000
0100
0000
0100
0000
1000
0000
0100
0000
0100
0000
1000
0000
0001
1000
0001
0000
0100
0000
0100
0000
0001
0000
0100
0000
0100
0000
0001
0000
1000
0001
,
1000
0000
0010
0000
0010
0000
1000
0000
0010
0000
0010
0000
1000
0000
0001
1000
0001
0000
0010
0000
0010
0000
0001
0000
0010
0000
0010
0000
0001
0000
1000
0001
,
1000
0000
0000
0000
1100
0000
0100
1000
0001
1000
0001
1000
0001
0000
0100
0000
0001
0000
0000
0000
0101
0000
0100
0001
1000
0001
1000
0001
1000
0000
0100
0000
,
1000
0000
0000
0000
0100
0000
0110
0000
0000
0000
0001
0000
1001
0000
0000
0000
1000
0010
0100
0001
0100
0000
0010
1000
0001
0010
0100
1000
0001
0000
1000
0001
,
1000
0000
0001
1000
0100
0000
0010
0000
1000
0000
0010
0000
0001
0000
0001
1000
,
0100
0010
0100
0010
0100
0010
0100
0010
0100
1000
0000
0001
0000
0100
0000
0000
,
0001
0000
1000
0001
0100
0000
0010
0000
0001
0000
0010
0000
1000
0000
1000
0001
,
0100
0010
0100
0010
0100
0010
0100
0010
0100
0001
0000
1000
0000
0100
0010
0001
,
1000
0000
1000
0010
1000
0000
0001
0000
0010
0001
0010
0000
0100
0000
1000
0000
,
0001
0000
0000
0000
0000
0000
1000
0000
0000
0100
0000
0000
1000
0000
0000
0000
0000
0000
0001
0000
0000
0100
0000
0000
0010
0000
0000
0000
0000
0000
1000
0000
0000
0000
0000
0000
0001
0000
0000
0000
0010
0000
0100
0000
0000
0000
1000
0000
,
0001
0000
0001
0010
0001
0000
1000
0000
0010
1000
0010
0000
0100
0000
0001
0000
,
1000
0000
0000
0000
0000
0000
0001
0000
0000
0100
0000
0000
0001
0000
0000
0000
0000
0000
1000
0000
0000
0100
0000
0000
0010
0000
0000
0000
0000
0000
0001
0000
0000
0000
0000
0000
1000
0000
0000
0000
0010
0000
0100
0000
0000
0000
0001
0000
,
1000
0000
0000
0000
1000
0000
0000
0000
1100
0000
0000
0000
0100
0000
1000
0000
0001
0000
0000
0000
0100
0000
0000
0000
0101
0000
0000
0000
0001
0000
1000
0001
,
1000
0100
0010
0000
0011
0000
0001
0100
0000
0010
0010
1000
1010
0000
0010
1000
,
0001
0000
0000
0000
0001
0000
0000
0000
0101
0000
0000
0000
0100
0000
0001
0000
1000
0000
0000
0000
0100
0000
0000
0000
1100
0000
0000
0000
1000
0000
0001
1000
,
0001
0000
0100
0000
0010
0000
0000
0000
1010
0000
0000
0000
1000
0000
0100
0000
0000
0000
0010
0000
0010
0000
0001
0010
0001
0000
0000
0000
1000
0000
0000
0000
,
1001
0000
0000
0000
;
