#VERSION:0.83;
#TITLE:illuminate;
#SUBTITLE:;
#ARTIST:Sota Fujimori;
#TITLETRANSLIT:;
#SUBTITLETRANSLIT:;
#ARTISTTRANSLIT:;
#GENRE:Synthetic EDM;
#CREDIT:tikal.+ as "namesayer";
#MUSIC:illuminate.ogg;
#BANNER:illuminate.png;
#BACKGROUND:illuminate-bg.png;
#CDTITLE:cdtitle.png;
#SAMPLESTART:79.504;
#SAMPLELENGTH:26.301;
#SELECTABLE:YES;
#OFFSET:-0.600;
#BPMS:0.000=146.000
,56.000=73.000
,58.000=146.000
,158.000=73.000
,166.000=146.000
;
#STOPS:;
#SPEEDS:0.000=1.000=0.000=0;
#SCROLLS:0.000=1.000;
#TICKCOUNTS:0.000=4;
#TIMESIGNATURES:0.000=4=4;
#LABELS:0.000=Song Start;
#COMBOS:0.000=1;
#DISPLAYBPM:73.000:146.000;
#BGCHANGES:;
#FGCHANGES:;

//--------------- dance-single - tikal.+ as "namesayer" ----------------
#NOTEDATA:;
#STEPSTYPE:dance-single;
#DESCRIPTION:tikal.+ as "namesayer";
#DIFFICULTY:Easy;
#METER:5;
#RADARVALUES:0.31287,0.304984,0.167854,0.26377,0.023979,274,253,21,33,0,0,0,0,0,0.31287,0.304984,0.167854,0.26377,0.023979,274,253,21,33,0,0,0,0,0;
#DISPLAYBPM:73.000:146.000;
#CHARTNAME:;
#CHARTSTYLE:;
#CREDIT:tikal.+ as "namesayer";
#NOTES:
0000
0000
0000
0000
,
0000
0000
0000
0000
,
0000
0000
0000
0000
,
0000
0000
0000
0000
,
1000
0100
1000
0100
,
1000
0001
1000
0001
,
0100
0001
0100
0001
,
0020
0000
0000
0030
,
0001
0100
0001
0100
,
0010
0010
1000
1000
,
0001
0010
0001
0010
,
0100
0000
0000
0100
0000
0000
0100
0000
0000
0000
0000
0000
0000
0000
0000
0000
,
1000
0010
1000
0010
,
0100
0100
0001
0001
,
1001
0000
0100
0000
,
0010
0000
0000
0000
1001
0000
0000
0000
0001
0000
0000
0000
0020
0030
0000
0000
,
0020
0030
0000
0000
1000
0000
0000
0000
0001
0000
0000
0000
0001
0000
0000
0000
,
1000
0000
0000
0000
1000
0000
0000
0000
0001
0000
0000
0000
0200
0300
0000
0000
,
0200
0300
0000
0000
1000
0000
0000
0000
0010
0000
0000
0000
0010
0000
0000
0000
,
0100
0000
0000
0000
0001
0000
0000
0000
1000
0000
0000
0000
0200
0300
0000
0000
,
0200
0300
0000
0000
0001
0000
0000
0000
1000
0000
0000
0000
1000
0000
0000
0000
,
0001
0000
0000
0000
0001
0000
0000
0000
1000
0000
0000
0000
0020
0030
0000
0000
,
0020
0030
0000
0000
0001
0000
0000
0000
0100
0000
0000
0100
0000
0000
0100
0000
,
0000
0000
0001
1000
,
0100
1000
0010
0100
,
0010
0100
0001
1000
,
0010
1000
0100
0100
,
0100
0110
1000
0001
,
0100
0001
0010
0100
,
0010
0100
1000
0001
,
0010
0001
0100
0100
,
0100
0110
1000
0000
,
1001
1001
0001
0010
,
1000
0010
0001
0000
,
1001
1001
1000
0010
,
0001
0010
1000
0000
,
0110
0110
0001
0100
,
1000
0010
0001
0000
,
0110
0110
1000
0100
,
0001
0010
2002
0000
,
0000
3003
1000
0001
,
0001
1000
0010
0000
,
0101
0000
0000
0001
0000
1000
0000
0000
,
1100
0000
0100
0000
,
0011
0000
0000
0001
0000
1000
0000
0000
,
1010
0110
0001
0010
,
0200
2300
3010
0010
,
0100
0001
1000
0100
,
0020
0032
0103
1000
,
0100
0001
1000
0010
,
0200
0302
0013
0010
,
0100
1000
0001
0100
,
0010
0000
0000
0010
0000
0000
0010
0000
0000
0000
0000
0000
1000
0000
0000
0000
,
0001
0000
1001
0000
1000
0001
0100
0000
,
0020
0000
0000
0000
2030
0000
0000
0000
3200
0300
0000
0000
0200
0300
0000
0000
,
0001
0000
0010
0000
0001
1000
0100
0000
,
0020
0000
0000
0000
0032
0000
0000
0000
0203
0300
0000
0000
0200
0300
0000
0000
,
1000
0000
0010
0000
0100
0001
0010
0000
,
0100
0000
0000
0100
0000
0000
0100
0000
0000
0000
0000
0000
0010
0000
0000
0000
,
0001
0000
1000
0000
0100
1000
0010
0000
,
0100
0000
0000
0100
0000
0000
0100
0000
0000
0000
0000
0000
0001
0000
0000
0000
,
1000
0000
1001
0000
2000
0000
3100
2000
,
0000
3001
0100
0000
0010
0000
0001
0000
,
0010
0000
1000
0000
0002
0000
0103
0002
,
0000
1003
0100
0000
0010
0000
1000
0000
,
0010
0000
0001
0000
2001
0000
3010
2000
,
0000
3001
0010
0000
0100
0000
0001
0000
,
0100
0000
1000
0000
0002
0000
0013
0002
,
0000
0000
1003
0000
0010
0000
0000
0000
0100
0000
0000
0100
0000
0000
0100
0000
,
0000
0001
1000
0100
0000
0000
0000
0000
;

//--------------- dance-single - tikal.+ as "namesayer" ----------------
#NOTEDATA:;
#STEPSTYPE:dance-single;
#DESCRIPTION:tikal.+ as "namesayer";
#DIFFICULTY:Medium;
#METER:8;
#RADARVALUES:0.484149,0.499514,0.26377,0.151868,0.155864,424,391,33,19,0,0,1,0,0,0.484149,0.499514,0.26377,0.151868,0.155864,424,391,33,19,0,0,1,0,0;
#DISPLAYBPM:73.000:146.000;
#CHARTNAME:;
#CHARTSTYLE:;
#CREDIT:tikal.+ as "namesayer";
#NOTES:
0000
0000
0000
0000
,
0000
0000
0000
0000
,
0000
0000
0000
0000
,
0000
0000
0000
0000
,
0001
0000
0101
0000
0001
0100
0101
0000
,
1000
0000
1100
0000
1000
0100
1100
0000
,
0010
0000
0110
0000
0010
0100
0110
0000
,
2002
0000
0000
3003
,
0001
0000
0000
0000
0001
0000
0001
0000
0000
0010
0100
0000
1000
0000
0001
0000
,
1000
0000
0010
0100
0000
0000
0001
0000
0000
0100
0010
0000
1000
0000
0001
0000
,
1000
0000
0000
0000
1000
0000
1000
0000
0000
0100
0010
0000
0001
0000
1000
0000
,
0010
0000
0000
0010
0000
0000
1001
0000
0000
0000
1000
0000
1000
0000
0001
0000
,
0100
0000
0000
0000
0100
0000
0100
0000
0000
0010
1000
0000
0001
0000
1000
0000
,
0100
0000
0010
0001
0000
0000
1000
0000
0000
0001
0100
0000
0010
0000
1000
0000
,
2002
0000
0000
3003
0110
0000
0000
0000
,
0100
0010
1001
0000
0001
0001
0000
0010
,
0000
0000
0100
0000
1000
0000
0001
0000
0100
0000
0000
0100
0000
0000
0010
0000
,
0000
1000
0001
0000
1000
1000
0000
0010
,
0000
0000
0100
0000
0001
0000
1000
0000
0100
0000
0000
0100
0000
0000
0010
0000
,
0000
0001
1000
0000
0010
0010
0000
0001
,
0000
0000
0010
0000
0000
0000
1000
0000
0100
0000
0000
0100
0000
0000
1000
0000
,
0000
0001
0100
0001
0010
0010
0000
1000
,
0000
0000
0010
0000
0000
0000
0001
0000
0100
0000
0000
0100
0000
0000
1001
0000
,
0000
1000
0001
0000
1000
0100
1000
0100
,
0010
0001
0010
0000
0001
0100
0010
0000
,
0001
0100
0010
0000
0001
0100
0001
0100
,
0010
1000
0010
0000
1000
1000
0100
0100
,
1000
0100
1000
0000
0001
0010
0001
0010
,
0100
1000
0100
0000
1000
0010
0100
0000
,
1000
0010
0100
0000
1000
0010
1000
0010
,
0100
0001
0100
0000
0001
0001
0010
0010
,
0001
0010
0001
0000
0100
0000
0100
0000
,
0010
0001
0010
1000
0001
0000
0001
0000
,
0001
0010
0001
1000
0100
0000
0100
0000
,
0010
1000
0010
0001
1000
1000
0000
1000
,
0001
0100
0010
0000
0100
0000
0100
0000
,
0010
0001
0010
1000
0001
0000
0001
0000
,
0001
0010
0100
1000
0010
0000
0010
0000
,
1000
0000
0100
0000
1000
0000
0001
0000
0100
0000
0001
0000
1000
0000
0000
1000
0000
0000
4000
0000
0000
0000
0000
0000
,
0000
3001
1000
0001
0020
0000
0000
0000
,
0000
0000
0000
0000
0030
0000
0000
0000
0001
0000
0001
0000
1000
0000
0000
1000
,
0000
1000
0001
0100
0100
0000
0010
0000
,
1010
0000
0000
1000
0000
0001
0000
0010
,
0011
0000
0000
0001
0000
0000
1000
0000
0010
0000
0000
0000
0100
0000
0000
0000
,
0101
0000
0000
0001
0000
1000
0000
0100
,
1100
0000
0110
0000
0001
0010
0100
0000
,
2000
0000
3020
0000
0031
0010
0100
0010
,
1000
0000
1000
0010
0000
0010
0100
0000
0001
0000
0001
0000
1000
0000
0000
0000
,
0002
0000
0000
0000
0023
0000
0000
0000
0130
0000
0010
0000
0001
0000
0000
1000
,
0000
0010
0100
0001
1000
0100
0010
0000
,
0002
0000
0203
0000
1300
0100
0010
0100
,
0001
0000
0001
0100
0000
0100
0010
0000
1000
0000
1000
0000
0001
0000
0000
0000
,
0010
0000
0000
0100
0000
0000
1001
0000
0000
0000
0001
0000
1000
0000
0000
0001
,
0000
0100
0010
1000
0001
0010
0011
0000
,
0001
0000
0101
0000
0100
1000
0100
0010
,
0100
0000
0001
0010
0000
0010
0100
0000
1000
0000
1000
0000
1100
0000
0000
0000
,
0100
0000
0000
0000
0110
0000
0000
0000
0010
0000
0010
0000
0100
0000
0001
0100
,
0000
0100
0010
0000
0001
0000
1000
0000
1000
0000
0010
0000
1010
0000
0000
0000
,
0100
0000
0000
0010
0000
0000
1001
0000
0000
0000
0001
0000
0001
0000
0010
0000
,
1000
0000
0010
0100
0000
0100
1000
0000
0001
0000
0001
0000
0101
0000
0000
0000
,
0100
0000
0000
0010
0000
0000
0110
0000
0000
0000
0010
0000
0100
0000
1000
0100
,
0000
0100
0010
0000
1000
0000
0000
0000
0102
0000
0000
0000
1003
0000
0002
0000
,
0000
0013
1000
0010
0100
0000
0110
0000
,
0001
0010
0100
0000
2100
0000
3001
2000
,
0000
0000
3010
0000
0001
0000
0010
0000
0100
0000
0000
0100
0000
0000
0100
0000
,
0010
1000
0001
0000
0012
0000
1003
0002
,
0000
0103
1000
0100
0010
0000
0110
0000
,
0001
0100
0010
0000
2010
0000
3001
2000
,
0000
0000
3100
0000
0001
0000
0100
0000
0010
0000
0000
0100
0000
0000
1001
0000
,
0000
0000
0001
0000
0100
0010
1000
0001
0000
0000
0000
0000
0000
0000
0000
0000
;

//--------------- dance-single - tikal.+ as "namesayer" ----------------
#NOTEDATA:;
#STEPSTYPE:dance-single;
#DESCRIPTION:tikal.+ as "namesayer";
#DIFFICULTY:Hard;
#METER:10;
#RADARVALUES:0.694252,0.69377,0.215812,0.495568,0.907209,608,581,27,62,48,0,3,0,0,0.694252,0.69377,0.215812,0.495568,0.907209,608,581,27,62,48,0,3,0,0;
#OFFSET:-0.600;
#BPMS:0.000=146.000
,38.250=133.833
,38.479=146.000
,38.729=158.167
,39.000=146.000
,44.000=109.500
,44.375=219.000
,44.750=109.500
,45.125=219.000
,45.875=109.500
,46.250=146.000
,54.250=133.833
,54.479=146.000
,54.729=158.167
,55.000=146.000
,56.000=73.000
,58.000=146.000
,90.000=109.500
,90.375=219.000
,90.750=109.500
,91.125=219.000
,91.875=109.500
,92.250=133.833
,92.479=146.000
,92.729=158.167
,93.000=146.000
,127.750=133.833
,127.979=146.000
,128.229=158.167
,128.500=146.000
,128.750=133.833
,128.979=146.000
,129.229=158.167
,129.500=146.000
,135.750=133.833
,135.979=146.000
,136.479=158.167
,136.750=133.833
,136.979=146.000
,137.479=158.167
,137.750=146.000
,143.750=133.833
,143.979=146.000
,144.229=158.167
,144.500=146.000
,144.750=133.833
,144.979=146.000
,145.229=158.167
,145.500=146.000
,158.000=73.000
,166.000=146.000
,181.000=292.000
,181.500=146.000
,181.750=73.000
,182.000=146.000
,186.250=133.833
,186.479=146.000
,186.979=158.167
,187.250=146.000
,202.250=133.833
,202.479=146.000
,202.979=158.167
,203.250=146.000
,218.750=133.833
,218.979=146.000
,219.479=158.167
,219.750=146.000
,232.000=219.000
,232.375=109.500
,232.750=219.000
,233.125=109.500
,233.500=219.000
,233.875=109.500
,234.250=146.000
,234.750=133.833
,234.979=146.000
,235.479=158.167
,235.750=146.000
,245.000=292.000
,245.500=146.000
,245.750=73.000
,246.000=146.000
,248.750=133.833
,248.979=146.000
,249.229=158.167
,249.500=146.000
,256.750=133.833
,256.979=146.000
,257.229=158.167
,257.500=146.000
,260.750=133.833
,260.979=146.000
,261.500=158.167
,261.771=146.000
,262.000=292.000
,262.500=146.000
,262.750=73.000
,263.000=146.000
,264.750=133.833
,264.979=146.000
,265.229=158.167
,265.500=146.000
,272.750=133.833
,272.979=146.000
,273.229=158.167
,273.500=146.000
,274.000=109.500
,274.375=219.000
,274.750=109.500
,275.125=219.000
,275.875=109.500
,276.250=146.000
;
#SPEEDS:0.000=1.000=0.000=0;
#SCROLLS:38.250=1.091,
38.479=1.000,
38.729=0.923,
39.000=1.000,
54.250=1.091,
54.479=1.000,
54.729=0.923,
55.000=1.000,
92.250=1.091,
92.479=1.000,
92.729=0.923,
93.000=1.000,
127.750=1.091,
127.979=0.000,
128.104=2.000,
128.229=0.000,
128.354=1.714,
128.500=1.000,
128.750=1.091,
128.979=0.000,
129.104=2.000,
129.229=0.000,
129.354=1.714,
129.500=1.000,
135.750=1.091,
135.979=0.000,
136.229=2.000,
136.479=0.923,
136.750=1.091,
136.979=0.000,
137.229=2.000,
137.479=0.923,
137.750=1.000,
143.750=1.091,
143.979=0.000,
144.104=2.000,
144.229=0.000,
144.354=1.714,
144.500=1.000,
144.750=1.091,
144.979=0.000,
145.104=2.000,
145.229=0.000,
145.354=1.714,
145.500=1.000,
151.000=0.000,
151.083=2.000,
151.167=0.000,
151.250=2.000,
151.333=0.000,
151.417=2.000,
151.500=1.000,
152.000=0.000,
152.167=2.000,
152.333=0.000,
152.500=2.000,
152.667=0.000,
152.833=2.000,
153.000=0.000,
153.167=2.000,
153.333=0.000,
153.500=2.000,
153.667=0.000,
153.833=2.000,
154.000=1.000,
186.250=1.091,
186.479=1.000,
186.979=0.923,
187.250=1.000,
202.250=1.091,
202.479=1.000,
202.979=0.923,
203.250=1.000,
218.750=1.091,
218.979=1.000,
219.479=0.923,
219.750=1.000,
234.750=1.091,
234.979=1.000,
235.479=0.923,
235.750=1.000,
248.750=1.091,
248.979=1.000,
249.229=0.923,
249.500=1.000,
256.750=1.091,
256.979=1.000,
257.229=0.923,
257.500=1.000,
260.750=1.091,
260.979=1.000,
261.500=0.923,
261.771=1.000,
264.750=1.091,
264.979=1.000,
265.229=0.923,
265.500=1.000,
272.750=1.091,
272.979=1.000,
273.229=0.923,
273.500=1.000
;
#TICKCOUNTS:0.000=4;
#TIMESIGNATURES:0.000=4=4;
#LABELS:0.000=Song Start;
#COMBOS:0.000=1;
#DISPLAYBPM:73.000:146.000;
#CHARTNAME:;
#CHARTSTYLE:;
#CREDIT:tikal.+ as "namesayer";
#NOTES:
0000
0000
0000
0000
,
0000
0000
0000
0000
,
0000
0000
0000
0000
,
0000
0000
0000
0000
,
2000
0000
0100
0000
3001
0000
2000
0000
0000
3010
0100
0000
0001
0000
1000
0000
,
0100
0000
0010
0001
0000
0000
0100
0000
0000
0001
0010
0000
0100
0000
1000
0000
,
0002
0000
0100
0000
1003
0000
0002
0000
0000
0013
0100
0000
1000
0000
0001
0000
,
2002
0000
0000
0000
0000
3003
MMMM
0000
,
2000
0000
0010
0000
3001
0000
2000
0000
3010
0100
0010
0000
1000
0000
0001
0000
,
0010
0000
0000
0000
0000
0000
0000
0000
0000
0000
0000
0000
0000
0000
0000
0000
0000
0000
0000
0000
0000
0000
0000
0000
0100
0000
0000
0000
0000
0000
0000
0000
0000
0000
0000
0000
1000
0000
0000
0000
0000
0000
0000
0000
0000
0000
0000
0000
0000
0000
0000
0000
0000
0000
0000
0000
0000
0000
0000
0000
0000
0000
0000
0000
0000
0000
0000
0000
0000
0000
0000
0000
0010
0000
0000
0000
0000
0000
0000
0000
0000
0000
0000
0000
0000
0000
0000
0000
0000
0000
0000
0000
0000
0000
0000
0000
0000
0000
0000
0000
0000
0000
0000
0000
0000
0000
0000
0000
1000
0000
0000
0000
0000
0000
0000
0000
0000
0000
0000
0100
0000
0000
0000
0000
0000
0000
0000
0000
0000
0000
0000
0100
0000
0000
0000
0000
0000
0000
0000
0000
0000
0000
0000
0000
0001
0000
0000
0000
0000
0000
0000
0000
0000
0000
0000
0000
0000
0000
0000
0000
0000
0000
0000
0000
0000
0000
0000
0000
1000
0000
0000
0000
0000
0000
0000
0000
0000
0000
0000
0000
0000
0000
0000
0000
0000
0000
0000
0000
0000
0000
0000
0000
,
0002
0000
0010
0000
1003
0000
0002
0000
0013
0100
0010
0000
0001
0000
1000
0000
,
1010
0000
0000
0101
0000
0000
1001
0000
0000
1000
0001
0100
0010
0000
1000
0000
,
0002
0000
0010
0000
0103
0000
0002
0000
0000
1003
0100
0000
0010
0001
1000
0000
,
0010
0000
0000
0000
0000
0000
0000
0000
0000
0000
0000
0000
0000
0000
0000
0000
0000
0000
0000
0000
0000
0000
0000
0000
0100
0000
0000
0000
0000
0000
0000
0000
0000
0000
0000
0000
0001
0000
0000
0000
0000
0000
0000
0000
0000
0000
0000
0000
0000
0000
0000
0000
0000
0000
0000
0000
0000
0000
0000
0000
0000
0000
0000
0000
0000
0000
0000
0000
0000
0000
0000
0000
0010
0000
0000
0000
0000
0000
0000
0000
0000
0000
0000
0000
0000
0000
0000
0000
0000
0000
0000
0000
0000
0000
0000
0000
0000
0000
0000
0000
0000
0000
0000
0000
0000
0000
0000
0000
0001
0000
0000
0000
0000
0000
0000
0000
0000
0000
0000
0100
0000
0000
0000
0000
0000
0000
0000
0000
0000
0000
0000
0100
0000
0000
0000
0000
0000
0000
0000
0000
0000
0000
0000
0000
0000
0000
0000
0000
0000
0000
0000
0000
0000
0000
0000
0000
1000
0000
0000
0000
0000
0000
0000
0000
0000
0000
0000
0000
0001
0000
0000
0000
0000
0000
0000
0000
0000
0000
0000
0000
0000
0000
0000
0000
0000
0000
0000
0000
0000
0000
0000
0000
,
2002
0000
0000
3003
0110
0000
0000
0000
,
1000
0100
0001
0100
0010
0000
0000
0000
0001
0000
1000
0010
0000
0000
0010
0100
,
0000
0000
0010
0000
0001
0000
0010
0000
0100
0000
0001
1000
0000
0100
0010
0000
,
0000
0001
0010
0001
0000
1000
0100
0000
1000
0000
0001
0010
0000
0000
0010
0100
,
0000
0000
0010
0000
1000
0000
0010
0000
0100
0000
0010
0001
0000
0100
0000
1000
,
0000
0100
0010
0000
1000
0000
0001
0000
1000
0000
0001
0100
0000
0000
0100
0010
,
0000
0000
0100
0000
1000
0000
0100
0000
0010
0000
1000
0001
0000
0010
0100
0000
,
0000
1000
0100
1000
0000
0001
0010
0000
0001
0000
1000
0100
0000
0000
0100
0010
,
0000
0000
0100
0000
0001
0000
0100
0000
1100
0000
0000
0011
0000
0000
1001
0000
,
0000
0000
0000
0000
0000
0000
0000
0000
0000
0000
0000
0000
0001
0000
0000
0000
0000
0000
0000
0000
0000
0000
0000
0100
0000
0000
0000
0000
0000
0000
0000
0000
0000
0000
0000
0100
0000
0000
0000
0000
0000
0000
0000
0000
0000
0000
0000
0000
1000
0000
0000
0000
0000
0000
0000
0000
0000
0000
0000
0000
0000
0000
0000
0000
0000
0000
0000
0000
0000
0000
0000
0000
0001
0000
0000
0000
0000
0000
0000
0000
0000
0000
0000
0000
0000
0000
0000
0000
0000
0000
0000
0000
0000
0000
0000
0000
2000
0000
0000
0000
0000
0000
0000
0000
0000
0000
0000
0000
0000
0000
0000
0000
0000
0000
0000
0000
0000
0000
0000
0000
3010
0000
0000
0000
0000
0000
0000
0000
0000
0000
0000
0000
0000
0000
0000
0000
0000
0000
0000
0000
0000
0000
0000
0000
0002
0000
0000
0000
0000
0000
0000
0000
0000
0000
0000
0000
0000
0000
0000
0000
0000
0000
0000
0000
0000
0000
0000
0000
0013
0000
0000
0000
0000
0000
0000
0000
0000
0000
0000
0000
0000
0000
0000
0000
0000
0000
0000
0000
0000
0000
0000
0000
,
0200
0000
0310
0000
0002
0000
0013
0000
1000
0010
1000
0001
0010
0000
0100
1000
,
0000
0001
0100
0000
0100
0000
0010
1000
0002
0000
0013
0000
2000
0000
3010
0000
,
0200
0000
0310
0000
2000
0000
3010
0000
0001
1000
0010
1000
0000
0100
0010
0100
,
0000
1000
0010
1000
0000
0100
0010
0000
0002
0000
0103
0000
2000
0000
3100
0000
,
0020
0000
0130
0000
2000
0000
3100
0000
0001
0010
0001
1000
0010
0000
0100
0001
,
0000
0010
0100
1000
0001
0000
0100
0010
2000
0000
3100
0000
0002
0000
0103
0000
,
0020
0000
0130
0000
0002
0000
0103
0000
1000
0001
0010
0001
0000
0100
0010
0100
,
0000
0000
0000
0000
0000
0000
0000
0000
0000
0000
0000
0000
0001
0000
0000
0000
0000
0000
0000
0000
0000
0000
0000
0000
0010
0000
0000
0000
0000
0000
0000
0000
0000
0000
0000
0000
0001
0000
0000
0000
0000
0000
0000
0000
0000
0000
0000
0000
0000
0000
0000
0000
0000
0000
0000
0000
0000
0000
0000
0000
0100
0000
0000
0000
0000
0000
0000
0000
0000
0000
0000
0000
0010
0000
0000
0000
0000
0000
0000
0000
0000
0000
0000
0000
0000
0000
0000
0000
0000
0000
0000
0000
0000
0000
0000
0000
1000
0000
0000
0000
0000
0000
0000
0000
0000
0000
0000
0000
0100
0000
0000
0000
0000
0000
0000
0000
0000
0000
0000
0000
0000
0000
0000
0000
0000
0000
0000
0000
0000
0000
0000
0000
0010
0000
0000
0000
0000
0000
0000
0000
0000
0000
0000
0000
0000
0000
0000
0000
0000
0000
0000
0000
0000
0000
0000
0000
0001
0000
0000
0000
0000
0000
0000
0000
0000
0000
0000
0000
1000
0000
0000
0000
0000
0000
0000
0000
0000
0000
0000
0000
0001
0000
0000
0000
0000
0000
0000
0000
0000
0000
0000
0100
,
0000
0000
0000
0000
0000
0000
0000
0000
0000
0000
0000
0100
0000
0000
0000
0000
0000
0000
0000
0000
0000
0000
0000
0000
1000
0000
0000
0000
0000
0000
0000
0000
0000
0000
0000
0000
0000
0000
0000
0000
0000
0000
0000
0000
0000
0000
0000
0100
0000
0000
0000
0000
0000
0000
0000
0000
0000
0000
0000
0100
0000
0000
0000
0000
0000
0000
0000
0000
0000
0000
0000
0000
0001
0000
0000
0000
0000
0000
0000
0000
0000
0000
0000
0000
0000
0000
0000
0000
0000
0000
0000
0000
0000
0000
0000
0000
1000
0000
0000
0000
0000
0000
0000
0000
0000
0000
0000
0000
0000
0000
0000
0000
0000
0000
0000
0000
0000
0000
0000
0000
0010
0000
0000
0000
0000
0000
0000
0000
0000
0000
0000
0000
0000
0000
0000
0000
0000
0000
0000
0000
0000
0000
0000
0000
0100
0000
0000
0000
0000
0000
0000
0000
0000
0000
0000
0000
0000
0000
0000
0000
0000
0000
0000
0000
0000
0000
0000
0000
0100
0000
0000
0000
0000
0000
0000
0000
0000
0000
0000
0000
0000
0000
0000
0000
0000
0000
0000
0000
0000
0000
0000
0000
,
0010
0000
0000
0000
0000
0000
0000
0000
0000
0000
0000
0000
0000
0000
0000
0000
0000
0000
0000
0000
0000
0000
0000
0000
0001
0000
0000
0000
0000
0000
0000
0000
0000
0000
0000
0000
0000
0000
0000
0000
0000
0000
0000
0000
0000
0000
0000
0000
0010
0000
0000
0000
0000
0000
0000
0000
0000
0000
0000
0000
0000
0000
0000
0000
0000
0000
0000
0000
0000
0000
0000
0000
1000
0000
0000
0000
0000
0000
0000
0000
0000
0000
0000
0000
0000
0000
0000
0000
0000
0000
0000
0000
0000
0000
0000
0000
0001
0000
0000
0000
0000
0000
0000
0000
0000
0000
0000
0000
0010
0000
0000
0000
0000
0000
0000
0000
0000
0000
0000
0000
0000
0000
0000
0000
0000
0000
0000
0000
0000
0000
0000
0000
0100
0000
0000
0000
0000
0000
0000
0000
0000
0000
0000
0000
1000
0000
0000
0000
0000
0000
0000
0000
0000
0000
0000
0000
0000
0000
0000
0000
0000
0000
0000
0000
0000
0000
0000
0000
0001
0000
0000
0000
0000
0000
0000
0000
0000
0000
0000
0000
0000
0000
0000
0000
0000
0000
0000
0000
0000
0000
0000
0100
,
0000
0000
0000
0000
0000
0000
0000
0000
0000
0000
0000
0000
0000
0000
0000
0000
0000
0000
0000
0000
0000
0000
0000
0100
0000
0000
0000
0000
0000
0000
0000
0000
0000
0000
0000
0000
1000
0000
0000
0000
0000
0000
0000
0000
0000
0000
0000
0100
0000
0000
0000
0000
0000
0000
0000
0000
0000
0000
0000
0000
0000
0000
0000
0000
0000
0000
0000
0000
0000
0000
0000
0100
0000
0000
0000
0000
0000
0000
0000
0000
0000
0000
0000
0000
0001
0000
0000
0000
0000
0000
0000
0000
0000
0000
0000
0000
1000
0000
0000
0000
0000
0000
0000
0000
0000
0000
0000
0000
0000
0000
0000
0000
0000
0000
0000
0000
0000
0000
0000
0000
1000
0000
0000
0000
0000
0000
0000
0000
0000
0000
0000
0000
0000
0000
0000
0000
0000
0000
0000
0000
0000
0000
0000
0000
0001
0000
0000
0000
0000
0000
0000
0000
0000
0000
0000
0000
0000
0000
0000
0000
0000
0000
0000
0000
0000
0000
0000
0000
1000
0000
0000
0000
0000
0000
0000
0000
0000
0000
0000
0000
0000
0000
0000
0000
0000
0000
0000
0000
0000
0000
0000
0000
,
0010
0000
0000
0000
0000
0000
0000
0000
0000
0000
0000
0000
0000
0000
0000
0000
0000
0000
0000
0000
0000
0000
0000
0000
0100
0000
0000
0000
0000
0000
0000
0000
0000
0000
0000
0000
0000
0000
0000
0000
0000
0000
0000
0000
0000
0000
0000
0000
0001
0000
0000
0000
0000
0000
0000
0000
0000
0000
0000
0000
0000
0000
0000
0000
0000
0000
0000
0000
0000
0000
0000
0000
0001
0000
0000
0000
0000
0000
0000
0000
0000
0000
0000
0000
1000
0000
0000
0000
0000
0000
0000
0000
0000
0000
0000
0000
0010
0000
0000
0000
0000
0000
0000
0000
0000
0000
0000
0000
1000
0000
0000
0000
0000
0000
0000
0000
0000
0000
0000
0000
0000
0000
0000
0000
0000
0000
0000
0000
0000
0000
0000
0000
0001
0000
0000
0000
0000
0000
0000
0000
0000
0000
0000
0000
1000
0000
0000
0000
0000
0000
0000
0000
0000
0000
0000
0000
0000
0000
0000
0000
0000
0000
0000
0000
0000
0000
0000
0000
0010
0000
0000
0000
0000
0000
0000
0000
0000
0000
0000
0000
1000
0000
0000
0000
0000
0000
0000
0000
0000
0000
0000
0100
,
0000
0000
0000
0000
0000
0000
0000
0000
0000
0000
0000
0100
0000
0000
0000
0000
0000
0000
0000
0000
0000
0000
0000
0000
0001
0000
0000
0000
0000
0000
0000
0000
0000
0000
0000
0000
0000
0000
0000
0000
0000
0000
0000
0000
0000
0000
0000
0100
0000
0000
0000
0000
0000
0000
0000
0000
0000
0000
0000
0100
0000
0000
0000
0000
0000
0000
0000
0000
0000
0000
0000
0000
1000
0000
0000
0000
0000
0000
0000
0000
0000
0000
0000
0000
0000
0000
0000
0000
0000
0000
0000
0000
0000
0000
0000
0000
0001
0000
0000
0000
0000
0000
0000
0000
0000
0000
0000
0000
0010
0000
0000
0000
0000
0000
0000
0000
0000
0000
0000
0000
0000
0000
0000
0000
0000
0000
0000
0000
0000
0000
0000
0000
1000
0000
0000
0000
0000
0000
0000
0000
0000
0000
0000
0000
0000
0000
0000
0000
0000
0000
0000
0000
0000
0000
0000
0000
0010
0000
0000
0000
0000
0000
0000
0000
0000
0000
0000
0000
0000
0000
0000
0000
0000
0000
0000
0000
0000
0000
0000
0000
0100
0000
0000
0000
0000
0000
0000
0000
0000
0000
0000
0000
,
1000
0000
0010
0100
0001
0100
0001
0000
2000
0000
3200
0000
0340
0000
0031
1000
,
0001
0000
0000
0000
0001
0000
0000
0000
0001
0000
0000
0000
1000
0000
0000
0000
1000
0000
0000
0000
1000
0000
0000
0000
0010
0000
0000
0000
0000
0000
0010
0000
0000
0000
0000
0000
4000
0000
0000
0004
0000
0000
0000
0000
0000
0000
0000
0000
,
0000
3000
0013
0000
0010
0000
0010
0100
2000
0000
0000
0000
3000
0000
0000
0000
,
0001
0000
0000
0000
0001
0000
0000
0100
0000
0000
0010
0000
0000
0000
1000
0000
0001
0000
0000
0000
0010
0000
0000
0000
0100
0000
0000
1000
0000
0000
0010
0000
,
0000
0000
0010
0000
0100
0000
0000
0001
0000
0000
1000
0000
1000
0000
0001
0000
0010
0000
0000
0000
M000
0000
M000
0000
M001
0000
M000
0000
M100
0000
0000
0000
,
M101
0000
M000
M100
0000
M000
M110
0000
0000
0000
M100
M000
M001
M000
M010
M000
,
M110
0000
M000
M001
M000
M000
M100
M000
001M
0000
000M
000M
100M
000M
010M
000M
,
110M
000M
0000
010M
0000
000M
011M
0000
000M
0000
010M
000M
100M
000M
001M
0000
,
011M
000M
010M
0000
1001
0000
0000
0000
0001
0010
0100
0000
0010
0100
1000
0000
,
0020
0000
0000
0000
0000
0000
0000
0000
0000
0000
0000
0000
0000
0000
0000
0000
0000
0000
0000
0000
0000
0000
0000
0000
0000
0000
0000
0000
0000
0000
0000
0000
0000
0000
0000
0000
0230
0000
0000
0000
0000
0000
0000
0000
0000
0000
0000
0000
0000
0000
0000
0000
0000
0000
0000
0000
0000
0000
0000
0000
0000
0000
0000
0000
0000
0000
0000
0000
0000
0000
0000
0000
0302
0000
0000
0000
0000
0000
0000
0000
0000
0000
0000
0000
0000
0000
0000
0000
0000
0000
0000
0000
0000
0000
0000
0000
0000
0000
0000
0000
0000
0000
0000
0000
0000
0000
0000
0000
1003
0000
0000
0000
0000
0000
0000
0000
0000
0000
0000
0100
0000
0000
0000
0000
0000
0000
0000
0000
0000
0000
0000
0000
0000
0000
0000
0000
0000
0000
0000
0000
0000
0000
0000
0100
0000
0000
0000
0000
0000
0000
0000
0000
0000
0000
0000
0000
0000
0000
0000
0000
0000
0000
0000
0000
0000
0000
0000
0000
0001
0000
0000
0000
0000
0000
0000
0000
0000
0000
0000
0000
0000
0000
0000
0000
0000
0000
0000
0000
0000
0000
0000
0000
,
1000
0010
1000
0001
0000
0010
0100
0000
1000
0000
1000
0000
0001
0000
0100
0000
,
0020
0000
0000
2030
0000
0000
3200
0000
0000
0310
0001
0000
1000
0000
1000
0001
,
0000
0100
0001
0100
0010
1000
0001
0000
1000
0100
0010
0000
0100
0010
0001
0000
,
0200
0000
0000
0000
0000
0000
0000
0000
0000
0000
0000
0000
0000
0000
0000
0000
0000
0000
0000
0000
0000
0000
0000
0000
0000
0000
0000
0000
0000
0000
0000
0000
0000
0000
0000
0000
0320
0000
0000
0000
0000
0000
0000
0000
0000
0000
0000
0000
0000
0000
0000
0000
0000
0000
0000
0000
0000
0000
0000
0000
0000
0000
0000
0000
0000
0000
0000
0000
0000
0000
0000
0000
2030
0000
0000
0000
0000
0000
0000
0000
0000
0000
0000
0000
0000
0000
0000
0000
0000
0000
0000
0000
0000
0000
0000
0000
0000
0000
0000
0000
0000
0000
0000
0000
0000
0000
0000
0000
3001
0000
0000
0000
0000
0000
0000
0000
0000
0000
0000
0010
0000
0000
0000
0000
0000
0000
0000
0000
0000
0000
0000
0000
0000
0000
0000
0000
0000
0000
0000
0000
0000
0000
0000
0010
0000
0000
0000
0000
0000
0000
0000
0000
0000
0000
0000
0000
0000
0000
0000
0000
0000
0000
0000
0000
0000
0000
0000
0000
1000
0000
0000
0000
0000
0000
0000
0000
0000
0000
0000
0000
0000
0000
0000
0000
0000
0000
0000
0000
0000
0000
0000
0000
,
0001
0100
0001
1000
0000
0100
0010
0000
0001
0000
0001
0000
1000
0000
0010
0000
,
0200
0000
0000
0302
0000
0003
0021
0000
0000
0130
1000
0000
0001
0000
0001
1000
,
0000
0010
1000
0010
0100
0001
1000
0000
0001
0100
0010
0000
0001
0010
0100
0000
,
2000
0000
0000
0000
0000
0000
0000
0000
0000
0000
0000
0000
0000
0000
0000
0000
0000
0000
0000
0000
0000
0000
0000
0000
0000
0000
0000
0000
0000
0000
0000
0000
0000
0000
0000
0000
3200
0000
0000
0000
0000
0000
0000
0000
0000
0000
0000
0000
0000
0000
0000
0000
0000
0000
0000
0000
0000
0000
0000
0000
0000
0000
0000
0000
0000
0000
0000
0000
0000
0000
0000
0000
0302
0000
0000
0000
0000
0000
0000
0000
0000
0000
0000
0000
0000
0000
0000
0000
0000
0000
0000
0000
0000
0000
0000
0000
0000
0000
0000
0000
0000
0000
0000
0000
0000
0000
0000
0000
1003
0000
0000
0000
0000
0000
0000
0000
0000
0000
0000
0000
0010
0000
0000
0000
0000
0000
0000
0000
0000
0000
0000
0000
1000
0000
0000
0000
0000
0000
0000
0000
0000
0000
0000
0100
0000
0000
0000
0000
0000
0000
0000
0000
0000
0000
0000
0000
0000
0000
0000
0000
0000
0000
0000
0000
0000
0000
0000
0100
0000
0000
0000
0000
0000
0000
0000
0000
0000
0000
0000
0000
0000
0000
0000
0000
0000
0000
0000
0000
0000
0000
0000
0000
,
0001
0010
0001
1000
0000
0010
0100
0000
0001
0010
0001
0000
1000
0010
0100
0000
,
0002
0000
0000
0023
0000
0000
2030
0000
0000
3010
0100
0000
1000
0000
1000
0001
,
0000
0010
0001
1000
0010
0100
0001
0000
1000
0100
0010
0000
1000
0010
0100
0000
,
1100
0000
0000
0000
0000
0000
0000
0000
0000
0000
0000
0000
0000
0000
0000
0000
0000
0000
0000
0000
0000
0000
0000
0000
0000
0000
0000
0000
0000
0000
0000
0000
0000
0000
0000
0000
0101
0000
0000
0000
0000
0000
0000
0000
0000
0000
0000
0000
0000
0000
0000
0000
0000
0000
0000
0000
0000
0000
0000
0000
0000
0000
0000
0000
0000
0000
0000
0000
0000
0000
0000
0000
1001
0000
0000
0000
0000
0000
0000
0000
0000
0000
0000
0000
0000
0000
0000
0000
0000
0000
0000
0000
0000
0000
0000
0000
0000
0000
0000
0000
0000
0000
0000
0000
0000
0000
0000
0000
0001
0000
0000
0000
0000
0000
0000
0000
0000
0000
0000
0000
0010
0000
0000
0000
0000
0000
0000
0000
0000
0000
0000
0000
0001
0000
0000
0000
0000
0000
0000
0000
0000
0000
0000
0100
0000
0000
0000
0000
0000
0000
0000
0000
0000
0000
0000
0000
0000
0000
0000
0000
0000
0000
0000
0000
0000
0000
0000
0100
0000
0000
0000
0000
0000
0000
0000
0000
0000
0000
0000
0000
0000
0000
0000
0000
0000
0000
0000
0000
0000
0000
0000
0000
,
1000
0010
1000
0001
0000
0010
0100
0000
1000
0010
1000
0000
0001
0010
0100
0000
,
2000
0000
0000
3020
0000
0000
0032
0000
0000
0013
0100
0000
0001
0000
0001
1000
,
0000
0010
1000
0001
0010
0000
0000
0000
2100
0000
0000
0000
3010
2000
0100
0000
,
0000
0000
0000
0000
0000
0000
0000
0000
0000
0000
0000
0000
0000
0000
0000
0000
0000
0000
0000
0000
0000
0000
0000
0000
3001
0000
0000
0000
0000
0000
0000
0000
0000
0000
0000
0000
0000
0000
0000
0000
0000
0000
0000
0000
0000
0000
0000
0010
0000
0000
0000
0000
0000
0000
0000
0000
0000
0000
0000
0010
0000
0000
0000
0000
0000
0000
0000
0000
0000
0000
0000
0000
1000
0000
0000
0000
0000
0000
0000
0000
0000
0000
0000
0000
0000
0000
0000
0000
0000
0000
0000
0000
0000
0000
0000
0000
0001
0000
0000
0000
0000
0000
0000
0000
0000
0000
0000
0000
0000
0000
0000
0000
0000
0000
0000
0000
0000
0000
0000
0000
0100
0000
0000
0000
0000
0000
0000
0000
0000
0000
0000
0000
0010
0000
0000
0000
0000
0000
0000
0000
0000
0000
0000
0000
0000
0000
0000
0000
0000
0000
0000
0000
0000
0000
0000
0000
0000
0000
0000
0000
0000
0000
0000
0000
0000
0000
0000
0000
0001
0000
0000
0000
0000
0000
0000
0000
0000
0000
0000
0000
0000
0000
0000
0000
0000
0000
0000
0000
0000
0000
0000
0000
,
0000
0010
0100
0010
0000
1000
0001
0000
0102
0000
0000
0000
0013
0002
0100
0000
,
0000
0000
0000
0000
0000
0000
0000
0000
0000
0000
0000
0000
1003
0000
0000
0000
0000
0000
0000
0000
0000
0000
0000
0000
0001
0000
0000
0000
0000
0000
0000
0000
0000
0000
0000
0000
0000
0000
0000
0000
0000
0000
0000
0000
0000
0000
0000
0100
0000
0000
0000
0000
0000
0000
0000
0000
0000
0000
0000
0100
0000
0000
0000
0000
0000
0000
0000
0000
0000
0000
0000
0000
1000
0000
0000
0000
0000
0000
0000
0000
0000
0000
0000
0000
0000
0000
0000
0000
0000
0000
0000
0000
0000
0000
0000
0000
0001
0000
0000
0000
0000
0000
0000
0000
0000
0000
0000
0000
0000
0000
0000
0000
0000
0000
0000
0000
0000
0000
0000
0000
0010
0000
0000
0000
0000
0000
0000
0000
0000
0000
0000
0000
0100
0000
0000
0000
0000
0000
0000
0000
0000
0000
0000
0000
0000
0000
0000
0000
0000
0000
0000
0000
0000
0000
0000
0000
0000
0000
0000
0000
0000
0000
0000
0000
0000
0000
0000
0000
0001
0000
0000
0000
0000
0000
0000
0000
0000
0000
0000
0000
0000
0000
0000
0000
0000
0000
0000
0000
0000
0000
0000
0000
,
0000
0000
0000
0000
0000
0000
0000
0000
0000
0000
0000
0000
0100
0000
0000
0000
0000
0000
0000
0000
0000
0000
0000
0000
1000
0000
0000
0000
0000
0000
0000
0000
0000
0000
0000
0000
0001
0000
0000
0000
0000
0000
0000
0000
0000
0000
0000
0010
0000
0000
0000
0000
0000
0000
0000
0000
0000
0000
0000
0000
0000
0000
0000
0000
0000
0000
0000
0000
0000
0000
0000
0010
0000
0000
0000
0000
0000
0000
0000
0000
0000
0000
0000
0000
0000
0000
0000
0000
0000
0000
0000
0000
0000
0000
0000
0000
2010
0000
0000
0000
0000
0000
0000
0000
0000
0000
0000
0000
0000
0000
0000
0000
0000
0000
0000
0000
0000
0000
0000
0000
0000
0000
0000
0000
0000
0000
0000
0000
0000
0000
0000
0000
0000
0000
0000
0000
0000
0000
0000
0000
0000
0000
0000
0000
3100
0000
0000
0000
0000
0000
0000
0000
0000
0000
0000
0000
2000
0000
0000
0000
0000
0000
0000
0000
0000
0000
0000
0000
0010
0000
0000
0000
0000
0000
0000
0000
0000
0000
0000
0000
0000
0000
0000
0000
0000
0000
0000
0000
0000
0000
0000
0000
,
0000
0000
0000
0000
0000
0000
0000
0000
0000
0000
0000
0000
0000
0000
0000
0000
0000
0000
0000
0000
0000
0000
0000
0000
3001
0000
0000
0000
0000
0000
0000
0000
0000
0000
0000
0000
0000
0000
0000
0000
0000
0000
0000
0000
0000
0000
0000
0100
0000
0000
0000
0000
0000
0000
0000
0000
0000
0000
0000
0100
0000
0000
0000
0000
0000
0000
0000
0000
0000
0000
0000
0000
1000
0000
0000
0000
0000
0000
0000
0000
0000
0000
0000
0000
0000
0000
0000
0000
0000
0000
0000
0000
0000
0000
0000
0000
0001
0000
0000
0000
0000
0000
0000
0000
0000
0000
0000
0000
0000
0000
0000
0000
0000
0000
0000
0000
0000
0000
0000
0000
0010
0000
0000
0000
0000
0000
0000
0000
0000
0000
0000
0000
0100
0000
0000
0000
0000
0000
0000
0000
0000
0000
0000
0000
0000
0000
0000
0000
0000
0000
0000
0000
0000
0000
0000
0000
0000
0000
0000
0000
0000
0000
0000
0000
0000
0000
0000
0000
0001
0000
0000
0000
0000
0000
0000
0000
0000
0000
0000
0000
0000
0000
0000
0000
0000
0000
0000
0000
0000
0000
0000
0000
,
0000
0100
0010
0100
0000
1000
0001
0000
0012
0000
0000
0000
0103
0002
0010
0000
,
0000
0000
0000
0000
0000
0000
0000
0000
0000
0000
0000
0000
1003
0000
0000
0000
0000
0000
0000
0000
0000
0000
0000
0000
0001
0000
0000
0000
0000
0000
0000
0000
0000
0000
0000
0000
0000
0000
0000
0000
0000
0000
0000
0000
0000
0000
0000
0010
0000
0000
0000
0000
0000
0000
0000
0000
0000
0000
0000
0010
0000
0000
0000
0000
0000
0000
0000
0000
0000
0000
0000
0000
1000
0000
0000
0000
0000
0000
0000
0000
0000
0000
0000
0000
0000
0000
0000
0000
0000
0000
0000
0000
0000
0000
0000
0000
1001
0000
0000
0000
0000
0000
0000
0000
0000
0000
0000
0000
0000
0000
0000
0000
0000
0000
0000
0000
0000
0000
0000
0000
0000
0000
0000
0000
0000
0000
0000
0000
0000
0000
0000
0000
0110
0000
0000
0000
0000
0000
0000
0000
0000
0000
0000
0000
0000
0000
0000
0000
0000
0000
0000
0000
0000
0000
0000
0000
0000
0000
0000
0000
0000
0000
0000
0000
0000
0000
0000
0000
1001
0000
0000
0000
0000
0000
0000
0000
0000
0000
0000
0000
0000
0000
0000
0000
0000
0000
0000
0000
0000
0000
0000
0000
,
0000
0001
0100
0010
1000
0100
0010
0001
0000
0000
0000
0000
0000
0000
0000
0000
;

//--------------- dance-single - tikal.+ as "namesayer" ----------------
#NOTEDATA:;
#STEPSTYPE:dance-single;
#DESCRIPTION:tikal.+ as "namesayer";
#DIFFICULTY:Challenge;
#METER:11;
#RADARVALUES:0.894077,0.888026,0.175847,0.719373,1.566634,783,761,22,90,63,0,4,0,0,0.894077,0.888026,0.175847,0.719373,1.566634,783,761,22,90,63,0,4,0,0;
#OFFSET:-0.600;
#BPMS:0.000=146.000
,28.000=231.167
,28.792=176.417
,29.396=115.583
,29.792=60.833
,30.208=115.583
,30.604=176.417
,31.208=231.167
,32.000=146.000
,34.750=133.833
,34.979=146.000
,35.229=158.167
,35.500=146.000
,38.750=133.833
,38.979=146.000
,39.500=158.167
,39.771=146.000
,42.750=133.833
,42.979=146.000
,43.229=158.167
,43.500=146.000
,44.000=109.500
,44.375=219.000
,44.750=109.500
,45.125=219.000
,45.875=109.500
,46.250=146.000
,50.750=133.833
,50.979=146.000
,51.229=158.167
,51.500=146.000
,54.750=133.833
,54.979=146.000
,55.229=158.167
,55.500=146.000
,56.000=73.000
,58.000=146.000
,61.000=292.000
,61.500=146.000
,61.750=73.000
,62.000=146.000
,63.000=133.833
,63.229=146.000
,63.479=158.167
,63.750=146.000
,71.000=133.833
,71.229=146.000
,71.479=158.167
,71.750=146.000
,75.000=133.833
,75.229=146.000
,75.479=158.167
,75.750=146.000
,79.000=133.833
,79.229=146.000
,79.479=158.167
,79.750=146.000
,87.000=133.833
,87.229=146.000
,87.479=158.167
,87.750=146.000
,90.000=109.500
,90.375=219.000
,90.750=109.500
,91.125=219.000
,91.875=109.500
,92.250=146.000
,99.500=133.833
,99.729=146.000
,99.979=158.167
,100.250=133.833
,100.479=146.000
,100.729=158.167
,101.000=146.000
,109.250=133.833
,109.479=146.000
,109.729=158.167
,110.000=146.000
,127.750=133.833
,127.979=146.000
,128.229=158.167
,128.500=146.000
,128.750=133.833
,128.979=146.000
,129.229=158.167
,129.500=146.000
,135.750=133.833
,135.979=146.000
,136.479=158.167
,136.750=133.833
,136.979=146.000
,137.479=158.167
,137.750=146.000
,143.750=133.833
,143.979=146.000
,144.229=158.167
,144.500=146.000
,144.750=133.833
,144.979=146.000
,145.229=158.167
,145.500=146.000
,158.000=73.000
,166.000=146.000
,181.000=292.000
,181.500=146.000
,181.750=73.000
,182.000=146.000
,232.000=219.000
,232.375=109.500
,232.750=219.000
,233.125=109.500
,233.500=219.000
,233.875=109.500
,234.250=146.000
,245.000=292.000
,245.500=146.000
,245.750=73.000
,246.000=146.000
,246.750=133.833
,246.979=146.000
,247.229=158.167
,247.500=146.000
,248.750=133.833
,248.979=146.000
,249.229=158.167
,249.500=146.000
,254.750=133.833
,254.979=146.000
,255.229=158.167
,255.500=146.000
,260.750=133.833
,260.979=146.000
,261.500=158.167
,261.771=146.000
,262.000=292.000
,262.500=146.000
,262.750=73.000
,262.875=60.833
,262.979=146.000
,263.229=158.167
,263.500=146.000
,270.750=133.833
,270.979=146.000
,271.229=158.167
,271.500=146.000
,272.750=133.833
,272.979=146.000
,273.229=158.167
,273.500=146.000
,274.000=109.500
,274.375=219.000
,274.750=109.500
,275.125=219.000
,275.875=109.500
,276.250=146.000
;
#SPEEDS:0.000=1.000=0.000=0;
#SCROLLS:0.000=1.000,
34.750=1.091,
34.979=1.000,
35.229=0.923,
35.500=1.000,
38.750=1.091,
38.979=1.000,
39.500=0.923,
39.771=1.000,
42.750=1.091,
42.979=1.000,
43.229=0.923,
43.500=1.000,
50.750=1.091,
50.979=1.000,
51.229=0.923,
51.500=1.000,
54.750=1.091,
54.979=1.000,
55.229=0.923,
55.500=1.000,
63.000=1.091,
63.229=1.000,
63.479=0.923,
63.750=1.000,
71.000=1.091,
71.229=1.000,
71.479=0.923,
71.750=1.000,
75.000=1.091,
75.229=1.000,
75.479=0.923,
75.750=1.000,
79.000=1.091,
79.229=1.000,
79.479=0.923,
79.750=1.000,
87.000=1.091,
87.229=1.000,
87.479=0.923,
87.750=1.000,
99.500=1.091,
99.729=1.000,
99.979=0.923,
100.250=1.091,
100.479=1.000,
100.729=0.923,
101.000=1.000,
109.250=1.091,
109.479=1.000,
109.729=0.923,
110.000=1.000,
127.750=1.091,
127.979=0.000,
128.104=2.000,
128.229=0.000,
128.354=1.714,
128.500=1.000,
128.750=1.091,
128.979=0.000,
129.104=2.000,
129.229=0.000,
129.354=1.714,
129.500=1.000,
135.750=1.091,
135.979=0.000,
136.229=2.000,
136.479=0.923,
136.750=1.091,
136.979=0.000,
137.229=2.000,
137.479=0.923,
137.750=1.000,
140.500=0.000,
140.583=2.000,
140.667=0.000,
140.750=2.000,
140.833=0.000,
140.917=2.000,
141.000=1.000,
143.750=1.091,
143.979=0.000,
144.104=2.000,
144.229=0.000,
144.354=1.714,
144.500=1.000,
144.750=1.091,
144.979=0.000,
145.104=2.000,
145.229=0.000,
145.354=1.714,
145.500=1.000,
151.000=0.000,
151.083=2.000,
151.167=0.000,
151.250=2.000,
151.333=0.000,
151.417=2.000,
151.500=1.000,
152.000=0.000,
152.167=2.000,
152.333=0.000,
152.500=2.000,
152.667=0.000,
152.833=2.000,
153.000=0.000,
153.167=2.000,
153.333=0.000,
153.500=2.000,
153.667=0.000,
153.833=2.000,
154.000=1.000,
246.750=1.091,
246.979=1.000,
247.229=0.923,
247.500=1.000,
248.750=1.091,
248.979=1.000,
249.229=0.923,
249.500=1.000,
254.750=1.091,
254.979=1.000,
255.229=0.923,
255.500=1.000,
260.750=1.091,
260.979=1.000,
261.500=0.923,
261.771=1.000,
262.875=1.200,
262.979=1.000,
263.229=0.923,
263.500=1.000,
270.750=1.091,
270.979=1.000,
271.229=0.923,
271.500=1.000,
272.750=1.091,
272.979=1.000,
273.229=0.923,
273.500=1.000
;
#TICKCOUNTS:0.000=4;
#TIMESIGNATURES:0.000=4=4;
#LABELS:0.000=Song Start;
#COMBOS:0.000=1;
#DISPLAYBPM:146.000;
#CHARTNAME:;
#CHARTSTYLE:;
#CREDIT:tikal.+ as "namesayer";
#NOTES:
0000
0000
0000
0000
,
0000
0000
0000
0000
,
0000
0000
0000
0000
,
0000
0000
0000
0000
,
2000
0000
0100
0000
3001
1000
0002
0000
0103
0010
1000
0000
1000
0001
0010
0000
,
0200
0000
0310
0001
1000
0000
0020
0000
0130
0001
0010
0100
0000
0100
1000
0000
,
0002
0000
0100
0000
1003
0001
2000
0000
3100
0010
0001
0000
0001
1000
0010
0000
,
022M
0000
0000
0000
0000
0000
0000
0000
0000
0000
0000
0000
0000
0000
0000
0000
0000
0000
0000
0000
0000
0000
0000
0000
0000
0000
0000
0000
0000
0000
0000
0000
0000
0000
0000
0000
0000
0000
0000
0000
0000
0000
0000
0000
0000
0000
0000
0000
0000
0000
0000
0000
0000
0000
0000
0000
0000
0000
0000
0000
0000
0000
0000
0000
0000
0000
0000
000M
0000
0000
0000
0000
0000
0000
0000
0000
0000
0000
0000
0000
0000
0000
0000
0000
0000
0000
0000
0000
0000
0000
0000
0000
0000
0000
0000
0000
003M
0000
0000
0000
0000
0000
0000
0000
0000
0000
0000
0000
0000
0000
0000
0000
0000
0000
0000
0000
0000
0000
0000
0000
0000
0000
0000
0000
0000
000M
0000
0000
0000
0000
0000
0000
0000
0000
0000
0000
0000
0000
0000
0000
0000
0000
0000
0000
0000
0000
0000
0000
0000
0000
0000
0000
0000
0000
0000
0000
0000
0000
0000
0000
0000
0000
0000
0000
0000
0000
0000
0000
0000
0000
0000
0000
0000
0000
0000
0000
0000
0000
0000
0000
0000
0000
0000
0000
0000
0000
0000
0000
0000
0000
0000
0000
,
0302
0000
0000
0000
0000
0000
0000
0000
0000
0000
0000
0000
0000
0000
0000
0000
0000
0000
0000
0000
0000
0000
0000
0000
0010
0000
0000
0000
0000
0000
0000
0000
0000
0000
0000
0000
0000
0000
0000
0000
0000
0000
0000
0000
0000
0000
0000
0000
1003
0000
0000
0000
0000
0000
0000
0000
0000
0000
0000
0000
0001
0000
0000
0000
0000
0000
0000
0000
0000
0000
0000
0000
2000
0000
0000
0000
0000
0000
0000
0000
0000
0000
0000
0000
0000
0000
0000
0000
0000
0000
0000
0000
0000
0000
0000
0000
3010
0000
0000
0000
0000
0000
0000
0000
0000
0000
0000
0000
0100
0000
0000
0000
0000
0000
0000
0000
0000
0000
0000
0000
0001
0000
0000
0000
0000
0000
0000
0000
0000
0000
0000
0000
0000
0000
0000
0000
0000
0000
0000
0000
0000
0000
0000
0100
0000
0000
0000
0000
0000
0000
0000
0000
0000
0000
0000
0100
0000
0000
0000
0000
0000
0000
0000
0000
0000
0000
0000
0000
1000
0000
0000
0000
0000
0000
0000
0000
0000
0000
0000
0000
0000
0000
0000
0000
0000
0000
0000
0000
0000
0000
0000
0000
,
0020
0000
0000
0000
0000
0000
0000
0000
0000
0000
0000
0000
0000
0000
0000
0000
0000
0000
0000
0000
0000
0000
0000
0000
0130
0000
0000
0000
0000
0000
0000
0000
0000
0000
0000
0000
0001
0000
0000
0000
0000
0000
0000
0000
0000
0000
0000
0000
0010
0000
0000
0000
0000
0000
0000
0000
0000
0000
0000
0000
0000
0000
0000
0000
0000
0000
0000
0000
0000
0000
0000
0000
0200
0000
0000
0000
0000
0000
0000
0000
0000
0000
0000
0000
0000
0000
0000
0000
0000
0000
0000
0000
0000
0000
0000
0000
0310
0000
0000
0000
0000
0000
0000
0000
0000
0000
0000
0000
0001
0000
0000
0000
0000
0000
0000
0000
0000
0000
0000
0000
1000
0000
0000
0000
0000
0000
0000
0000
0000
0000
0000
0000
0001
0000
0000
0000
0000
0000
0000
0000
0000
0000
0000
0100
0000
0000
0000
0000
0000
0000
0000
0000
0000
0000
0000
0000
0000
0000
0000
0000
0000
0000
0000
0000
0000
0000
0000
0100
0000
0000
0000
0000
0000
0000
0000
0000
0000
0000
0000
0000
0000
0000
0000
0000
0000
0000
0000
0000
0000
0000
0000
0000
,
2000
0000
0000
0000
0000
0000
0000
0000
0000
0000
0000
0000
0000
0000
0000
0000
0000
0000
0000
0000
0000
0000
0000
0000
0010
0000
0000
0000
0000
0000
0000
0000
0000
0000
0000
0000
0000
0000
0000
0000
0000
0000
0000
0000
0000
0000
0000
0000
3001
0000
0000
0000
0000
0000
0000
0000
0000
0000
0000
0000
1000
0000
0000
0000
0000
0000
0000
0000
0000
0000
0000
0000
0002
0000
0000
0000
0000
0000
0000
0000
0000
0000
0000
0000
0000
0000
0000
0000
0000
0000
0000
0000
0000
0000
0000
0000
0013
0000
0000
0000
0000
0000
0000
0000
0000
0000
0000
0000
0100
0000
0000
0000
0000
0000
0000
0000
0000
0000
0000
0000
1000
0000
0000
0000
0000
0000
0000
0000
0000
0000
0000
0000
0000
0000
0000
0000
0000
0000
0000
0000
0000
0000
0000
0100
0000
0000
0000
0000
0000
0000
0000
0000
0000
0000
0000
0100
0000
0000
0000
0000
0000
0000
0000
0000
0000
0000
0000
0000
0001
0000
0000
0000
0000
0000
0000
0000
0000
0000
0000
0000
0000
0000
0000
0000
0000
0000
0000
0000
0000
0000
0000
0000
,
2020
3030
0000
0202
0303
0000
2002
0000
3003
1000
0001
0100
0010
0000
0010
1000
,
0002
0000
0000
0000
0000
0000
0000
0000
0000
0000
0000
0000
0000
0000
0000
0000
0000
0000
0000
0000
0000
0000
0000
0000
0100
0000
0000
0000
0000
0000
0000
0000
0000
0000
0000
0000
0000
0000
0000
0000
0000
0000
0000
0000
0000
0000
0000
0000
1003
0000
0000
0000
0000
0000
0000
0000
0000
0000
0000
0000
0001
0000
0000
0000
0000
0000
0000
0000
0000
0000
0000
0000
2000
0000
0000
0000
0000
0000
0000
0000
0000
0000
0000
0000
0000
0000
0000
0000
0000
0000
0000
0000
0000
0000
0000
0000
3100
0000
0000
0000
0000
0000
0000
0000
0000
0000
0000
0000
0010
0000
0000
0000
0000
0000
0000
0000
0000
0000
0000
0000
0001
0000
0000
0000
0000
0000
0000
0000
0000
0000
0000
0000
0000
0000
0000
0000
0000
0000
0000
0000
0000
0000
0000
0010
0000
0000
0000
0000
0000
0000
0000
0000
0000
0000
0000
0010
0000
0000
0000
0000
0000
0000
0000
0000
0000
0000
0000
0000
1000
0000
0000
0000
0000
0000
0000
0000
0000
0000
0000
0000
0000
0000
0000
0000
0000
0000
0000
0000
0000
0000
0000
0000
,
0200
0000
0000
0000
0000
0000
0000
0000
0000
0000
0000
0000
0000
0000
0000
0000
0000
0000
0000
0000
0000
0000
0000
0000
0310
0000
0000
0000
0000
0000
0000
0000
0000
0000
0000
0000
0001
0000
0000
0000
0000
0000
0000
0000
0000
0000
0000
0000
0100
0000
0000
0000
0000
0000
0000
0000
0000
0000
0000
0000
0000
0000
0000
0000
0000
0000
0000
0000
0000
0000
0000
0000
0020
0000
0000
0000
0000
0000
0000
0000
0000
0000
0000
0000
0000
0000
0000
0000
0000
0000
0000
0000
0000
0000
0000
0000
0130
0000
0000
0000
0000
0000
0000
0000
0000
0000
0000
0000
0001
0000
0000
0000
0000
0000
0000
0000
0000
0000
0000
0000
1000
0000
0000
0000
0000
0000
0000
0000
0000
0000
0000
0000
0001
0000
0000
0000
0000
0000
0000
0000
0000
0000
0000
0010
0000
0000
0000
0000
0000
0000
0000
0000
0000
0000
0000
0010
0000
0000
0000
0000
0000
0000
0000
0000
0000
0000
0000
0000
1000
0000
0000
0000
0000
0000
0000
0000
0000
0000
0000
0000
0000
0000
0000
0000
0000
0000
0000
0000
0000
0000
0000
0000
,
2M2M
0000
0000
0000
000M
0000
000M
0000
3M30
0000
0000
0M00
0000
00M0
M000
0000
M0M1
0000
0100
0000
0010
0000
0001
0000
0010
0000
0100
0000
0001
0000
1000
0000
,
0100
0000
0000
0000
0000
0000
0000
0000
0000
0000
0000
0000
0010
0000
0000
0000
0000
0000
0000
0000
0000
0000
0000
0000
1000
0000
0000
0000
0000
0000
0000
0000
0000
0000
0000
0000
0010
0000
0000
0000
0000
0000
0000
0000
0000
0000
0000
0000
0100
0000
0000
0000
0000
0000
0000
0000
0000
0000
0000
0000
0000
0000
0000
0000
0000
0000
0000
0000
0000
0000
0000
0000
0000
0000
0000
0000
0000
0000
0000
0000
0000
0000
0000
0000
0000
0000
0000
0000
0000
0000
0000
0000
0000
0000
0000
0000
1000
0000
0000
0000
0000
0000
0000
0000
0000
0000
0000
0000
0001
0000
0000
0000
0000
0000
0000
0000
0000
0000
0000
0000
0010
0000
0000
0000
0000
0000
0000
0000
0000
0000
0000
0000
0001
0000
0000
0000
0000
0000
0000
0000
0000
0000
0000
0000
0000
0000
0000
0000
0000
0000
0000
0000
0000
0000
0000
0100
0000
0000
0000
0000
0000
0000
0000
0000
0000
0000
0000
0100
0000
0000
0000
0000
0000
0000
0000
0000
0000
0000
0000
0000
1000
0000
0000
0000
0000
0000
0000
0000
0000
0000
0000
0000
,
0000
0001
0100
0000
0010
0100
0001
0000
1000
0000
0001
0010
0000
0100
0010
0001
,
0000
0000
0000
0000
0000
0000
0000
0000
0000
0000
0000
0000
1000
0000
0000
0000
0000
0000
0000
0000
0000
0000
0000
0000
0010
0000
0000
0000
0000
0000
0000
0000
0000
0000
0000
0000
1000
0000
0000
0000
0000
0000
0000
0000
0000
0000
0000
0000
0001
0000
0000
0000
0000
0000
0000
0000
0000
0000
0000
0000
0010
0000
0000
0000
0000
0000
0000
0000
0000
0000
0000
0000
0100
0000
0000
0000
0000
0000
0000
0000
0000
0000
0000
0000
0000
0000
0000
0000
0000
0000
0000
0000
0000
0000
0000
0000
0010
0000
0000
0000
0000
0000
0000
0000
0000
0000
0000
0000
0001
0000
0000
0000
0000
0000
0000
0000
0000
0000
0000
0000
1000
0000
0000
0000
0000
0000
0000
0000
0000
0000
0000
0000
0001
0000
0000
0000
0000
0000
0000
0000
0000
0000
0000
0000
0000
0000
0000
0000
0000
0000
0000
0000
0000
0000
0000
0100
0000
0000
0000
0000
0000
0000
0000
0000
0000
0000
0000
0100
0000
0000
0000
0000
0000
0000
0000
0000
0000
0000
0000
0000
1000
0000
0000
0000
0000
0000
0000
0000
0000
0000
0000
0000
,
0000
0000
0000
0000
0000
0000
0000
0000
0000
0000
0000
0000
0001
0000
0000
0000
0000
0000
0000
0000
0000
0000
0000
0000
0010
0000
0000
0000
0000
0000
0000
0000
0000
0000
0000
0000
0001
0000
0000
0000
0000
0000
0000
0000
0000
0000
0000
0000
1000
0000
0000
0000
0000
0000
0000
0000
0000
0000
0000
0000
0001
0000
0000
0000
0000
0000
0000
0000
0000
0000
0000
0000
0100
0000
0000
0000
0000
0000
0000
0000
0000
0000
0000
0000
0000
0000
0000
0000
0000
0000
0000
0000
0000
0000
0000
0000
0010
0000
0000
0000
0000
0000
0000
0000
0000
0000
0000
0000
0000
0000
0000
0000
0000
0000
0000
0000
0000
0000
0000
0000
1000
0000
0000
0000
0000
0000
0000
0000
0000
0000
0000
0000
0001
0000
0000
0000
0000
0000
0000
0000
0000
0000
0000
0000
0000
0000
0000
0000
0000
0000
0000
0000
0000
0000
0000
0100
0000
0000
0000
0000
0000
0000
0000
0000
0000
0000
0000
0100
0000
0000
0000
0000
0000
0000
0000
0000
0000
0000
0000
0000
1000
0000
0000
0000
0000
0000
0000
0000
0000
0000
0000
0000
,
0000
0000
0000
0000
0000
0000
0000
0000
0000
0000
0000
0000
0100
0000
0000
0000
0000
0000
0000
0000
0000
0000
0000
0000
0010
0000
0000
0000
0000
0000
0000
0000
0000
0000
0000
0000
0100
0000
0000
0000
0000
0000
0000
0000
0000
0000
0000
0000
0001
0000
0000
0000
0000
0000
0000
0000
0000
0000
0000
0000
0100
0000
0000
0000
0000
0000
0000
0000
0000
0000
0000
0000
0010
0000
0000
0000
0000
0000
0000
0000
0000
0000
0000
0000
0001
0000
0000
0000
0000
0000
0000
0000
0000
0000
0000
0000
1000
0000
0000
0000
0000
0000
0000
0000
0000
0000
0000
0000
0001
0000
0000
0000
0000
0000
0000
0000
0000
0000
0000
0000
0100
0000
0000
0000
0000
0000
0000
0000
0000
0000
0000
0000
0001
0000
0000
0000
0000
0000
0000
0000
0000
0000
0000
0000
0000
0000
0000
0000
0000
0000
0000
0000
0000
0000
0000
0010
0000
0000
0000
0000
0000
0000
0000
0000
0000
0000
0000
0010
0000
0000
0000
0000
0000
0000
0000
0000
0000
0000
0000
0000
1000
0000
0000
0000
0000
0000
0000
0000
0000
0000
0000
0000
,
0000
0001
0010
0000
0100
0010
0001
0000
1000
0000
0001
0100
0000
0010
0100
0001
,
0000
0000
0000
0000
0000
0000
0000
0000
0000
0000
0000
0000
1000
0000
0000
0000
0000
0000
0000
0000
0000
0000
0000
0000
0100
0000
0000
0000
0000
0000
0000
0000
0000
0000
0000
0000
1000
0000
0000
0000
0000
0000
0000
0000
0000
0000
0000
0000
0000
0000
0000
0000
0000
0000
0000
0000
0000
0000
0000
0000
0010
0000
0000
0000
0000
0000
0000
0000
0000
0000
0000
0000
1000
0000
0000
0000
0000
0000
0000
0000
0000
0000
0000
0000
0001
0000
0000
0000
0000
0000
0000
0000
0000
0000
0000
0000
0100
0000
0000
0000
0000
0000
0000
0000
0000
0000
0000
0000
0001
0000
0000
0000
0000
0000
0000
0000
0000
0000
0000
0000
1000
0000
0000
0000
0000
0000
0000
0000
0000
0000
0000
0000
0001
0000
0000
0000
0000
0000
0000
0000
0000
0000
0000
0000
0000
0000
0000
0000
0000
0000
0000
0000
0000
0000
0000
0010
0000
0000
0000
0000
0000
0000
0000
0000
0000
0000
0000
0010
0000
0000
0000
0000
0000
0000
0000
0000
0000
0000
0000
0000
1000
0000
0000
0000
0000
0000
0000
0000
0000
0000
0000
0000
,
0000
0001
0100
0001
1000
0001
0010
0000
2200
3300
0000
0022
0033
0000
2002
0000
,
3003
1000
0001
1000
0010
0100
0001
0100
0010
1000
0100
0010
0100
0010
0001
2000
,
0000
0000
0000
0000
0000
0000
0000
0000
0000
0000
0000
0000
3010
0000
0000
0000
0000
0000
0000
0000
0000
0000
0000
0000
1000
0000
0000
0000
0000
0000
0000
0000
0000
0000
0000
0000
0100
0000
0000
0000
0000
0000
0000
0000
0000
0000
0000
0000
0000
0000
0000
0000
0000
0000
0000
0000
0000
0000
0000
0000
0010
0000
0000
0000
0000
0000
0000
0000
0000
0000
0000
0000
0001
0000
0000
0000
0000
0000
0000
0000
0000
0000
0000
0000
1000
0000
0000
0000
0000
0000
0000
0000
0000
0000
0000
0000
0010
0000
0000
0000
0000
0000
0000
0000
0000
0000
0000
0000
0100
0000
0000
0000
0000
0000
0000
0000
0000
0000
0000
0000
0010
0000
0000
0000
0000
0000
0000
0000
0000
0000
0000
0000
0100
0000
0000
0000
0000
0000
0000
0000
0000
0000
0000
0000
1000
0000
0000
0000
0000
0000
0000
0000
0000
0000
0000
0000
0100
0000
0000
0000
0000
0000
0000
0000
0000
0000
0000
0000
0001
0000
0000
0000
0000
0000
0000
0000
0000
0000
0000
0100
0000
0000
0000
0000
0000
0000
0000
0000
0000
0000
0000
0100
,
0000
0000
0000
0000
0000
0000
0000
0000
0000
0000
0000
0000
1000
0000
0000
0000
0000
0000
0000
0000
0000
0000
0000
0100
0000
0000
0000
0000
0000
0000
0000
0000
0000
0000
0000
0100
0000
0000
0000
0000
0000
0000
0000
0000
0000
0000
0000
0000
0001
0000
0000
0000
0000
0000
0000
0000
0000
0000
0000
0000
0100
0000
0000
0000
0000
0000
0000
0000
0000
0000
0000
0000
0010
0000
0000
0000
0000
0000
0000
0000
0000
0000
0000
0000
0100
0000
0000
0000
0000
0000
0000
0000
0000
0000
0000
0000
0001
0000
0000
0000
0000
0000
0000
0000
0000
0000
0000
0000
0010
0000
0000
0000
0000
0000
0000
0000
0000
0000
0000
0000
0100
0000
0000
0000
0000
0000
0000
0000
0000
0000
0000
0000
1000
0000
0000
0000
0000
0000
0000
0000
0000
0000
0000
0000
0001
0000
0000
0000
0000
0000
0000
0000
0000
0000
0000
0000
0100
0000
0000
0000
0000
0000
0000
0000
0000
0000
0000
0000
0010
0000
0000
0000
0000
0000
0000
0000
0000
0000
0000
0000
2000
0000
0000
0000
0000
0000
0000
0000
0000
0000
0000
0000
,
0000
3001
1000
0010
1000
0100
0010
0001
1000
0010
1000
0100
1000
0010
1000
0100
,
0010
0000
0000
0000
0000
0000
0000
0000
0000
0000
0000
0000
0001
0000
0000
0000
0000
0000
0000
0000
0000
0000
0000
0000
0010
0000
0000
0000
0000
0000
0000
0000
0000
0000
0000
0000
0100
0000
0000
0000
0000
0000
0000
0000
0000
0000
0000
0000
0010
0000
0000
0000
0000
0000
0000
0000
0000
0000
0000
0000
0001
0000
0000
0000
0000
0000
0000
0000
0000
0000
0000
0100
0000
0000
0000
0000
0000
0000
0000
0000
0000
0000
0000
0100
0000
0000
0000
0000
0000
0000
0000
0000
0000
0000
0000
0000
1000
0000
0000
0000
0000
0000
0000
0000
0000
0000
0000
0000
0010
0000
0000
0000
0000
0000
0000
0000
0000
0000
0000
0000
0100
0000
0000
0000
0000
0000
0000
0000
0000
0000
0000
0000
0010
0000
0000
0000
0000
0000
0000
0000
0000
0000
0000
0000
1000
0000
0000
0000
0000
0000
0000
0000
0000
0000
0000
0000
0001
0000
0000
0000
0000
0000
0000
0000
0000
0000
0000
0000
0010
0000
0000
0000
0000
0000
0000
0000
0000
0000
0000
0000
0002
0000
0000
0000
0000
0000
0000
0000
0000
0000
0000
0000
,
0000
1003
0010
0100
0001
0100
0010
1000
0001
0010
0100
1000
0001
1000
0010
0200
,
0000
0310
1000
0100
0010
0001
1000
0010
0100
0010
1000
0100
0010
0001
0100
0020
,
0000
1030
0001
0010
0100
1000
0001
0100
0010
1000
0010
0100
0010
1000
0010
0100
,
0010
0000
0000
0000
0000
0000
0000
0000
0000
0000
0000
0000
1000
0000
0000
0000
0000
0000
0000
0000
0000
0000
0000
0000
0001
0000
0000
0000
0000
0000
0000
0000
0000
0000
0000
0000
1000
0000
0000
0000
0000
0000
0000
0000
0000
0000
0000
0000
0100
0000
0000
0000
0000
0000
0000
0000
0000
0000
0000
0000
0010
0000
0000
0000
0000
0000
0000
0000
0000
0000
0000
0000
0001
0000
0000
0000
0000
0000
0000
0000
0000
0000
0000
0000
1000
0000
0000
0000
0000
0000
0000
0000
0000
0000
0000
0000
0001
0000
0000
0000
0000
0000
0000
0000
0000
0000
0000
0000
0010
0000
0000
0000
0000
0000
0000
0000
0000
0000
0000
0000
0000
0000
0000
0000
0000
0000
0000
0000
0000
0000
0000
0000
0100
0000
0000
0000
0000
0000
0000
0000
0000
0000
0000
0000
0000
0000
0000
0000
0000
0000
0000
0000
0000
0000
0000
0000
0010
0000
0000
0000
0000
0000
0000
0000
0000
0000
0000
0000
0001
0000
0000
0000
0000
0000
0000
0000
0000
0000
0000
0000
1000
0000
0000
0000
0000
0000
0000
0000
0000
0000
0000
0100
,
0000
0000
0000
0000
0000
0000
0000
0000
0000
0000
0000
0100
0000
0000
0000
0000
0000
0000
0000
0000
0000
0000
0000
0000
0002
0000
0000
0000
0000
0000
0000
0000
0000
0000
0000
0000
0000
0000
0000
0000
0000
0000
0000
0000
0000
0000
0000
0100
0003
0000
0000
0000
0000
0000
0000
0000
0000
0000
0000
0100
0000
0000
0000
0000
0000
0000
0000
0000
0000
0000
0000
0000
2000
0000
0000
0000
0000
0000
0000
0000
0000
0000
0000
0000
0000
0000
0000
0000
0000
0000
0000
0000
0000
0000
0000
0000
3001
0000
0000
0000
0000
0000
0000
0000
0000
0000
0000
0000
0010
0000
0000
0000
0000
0000
0000
0000
0000
0000
0000
0000
0001
0000
0000
0000
0000
0000
0000
0000
0000
0000
0000
0000
1000
0000
0000
0000
0000
0000
0000
0000
0000
0000
0000
0000
0010
0000
0000
0000
0000
0000
0000
0000
0000
0000
0000
0000
0100
0000
0000
0000
0000
0000
0000
0000
0000
0000
0000
0000
0010
0000
0000
0000
0000
0000
0000
0000
0000
0000
0000
0000
0100
0000
0000
0000
0000
0000
0000
0000
0000
0000
0000
0000
,
0001
0000
0000
0000
0000
0000
0000
0000
0000
0000
0000
0000
0100
0000
0000
0000
0000
0000
0000
0000
0000
0000
0000
0000
0010
0000
0000
0000
0000
0000
0000
0000
0000
0000
0000
0000
0100
0000
0000
0000
0000
0000
0000
0000
0000
0000
0000
0000
1000
0000
0000
0000
0000
0000
0000
0000
0000
0000
0000
0000
0100
0000
0000
0000
0000
0000
0000
0000
0000
0000
0000
0000
0010
0000
0000
0000
0000
0000
0000
0000
0000
0000
0000
0000
1000
0000
0000
0000
0000
0000
0000
0000
0000
0000
0000
0000
0001
0000
0000
0000
0000
0000
0000
0000
0000
0000
0000
0000
0010
0000
0000
0000
0000
0000
0000
0000
0000
0000
0000
0000
0100
0000
0000
0000
0000
0000
0000
0000
0000
0000
0000
0000
0001
0000
0000
0000
0000
0000
0000
0000
0000
0000
0000
0000
0100
0000
0000
0000
0000
0000
0000
0000
0000
0000
0000
0000
0010
0000
0000
0000
0000
0000
0000
0000
0000
0000
0000
0000
0001
0000
0000
0000
0000
0000
0000
0000
0000
0000
0000
0000
1000
0000
0000
0000
0000
0000
0000
0000
0000
0000
0000
0010
,
0000
0000
0000
0000
0000
0000
0000
0000
0000
0000
0000
0000
0000
0000
0000
0000
0000
0000
0000
0000
0000
0000
0000
0010
0000
0000
0000
0000
0000
0000
0000
0000
0000
0000
0000
0000
0001
0000
0000
0000
0000
0000
0000
0000
0000
0000
0000
0010
0000
0000
0000
0000
0000
0000
0000
0000
0000
0000
0000
0000
0000
0000
0000
0000
0000
0000
0000
0000
0000
0000
0000
0010
0000
0000
0000
0000
0000
0000
0000
0000
0000
0000
0000
0000
1000
0000
0000
0000
0000
0000
0000
0000
0000
0000
0000
0000
0001
0000
0000
0000
0000
0000
0000
0000
0000
0000
0000
0000
0000
0000
0000
0000
0000
0000
0000
0000
0000
0000
0000
0000
0001
0000
0000
0000
0000
0000
0000
0000
0000
0000
0000
0000
0000
0000
0000
0000
0000
0000
0000
0000
0000
0000
0000
0000
1000
0000
0000
0000
0000
0000
0000
0000
0000
0000
0000
0000
0000
0000
0000
0000
0000
0000
0000
0000
0000
0000
0000
0000
0001
0000
0000
0000
0000
0000
0000
0000
0000
0000
0000
0000
0000
0000
0000
0000
0000
0000
0000
0000
0000
0000
0000
0000
,
0010
0000
0000
0000
0000
0000
0000
0000
0000
0000
0000
0000
0000
0000
0000
0000
0000
0000
0000
0000
0000
0000
0000
0000
0400
0000
0000
0000
0000
0000
0000
0000
0000
0000
0000
0000
0000
0000
0000
0000
0000
0000
0000
0000
0000
0000
0000
0000
1300
0000
0000
0000
0000
0000
0000
0000
0000
0000
0000
0000
0000
0000
0000
0000
0000
0000
0000
0000
0000
0000
0000
0000
1000
0000
0000
0000
0000
0000
0000
0000
0000
0000
0000
0000
0001
0000
0000
0000
0000
0000
0000
0000
0000
0000
0000
0000
1000
0000
0000
0000
0000
0000
0000
0000
0000
0000
0000
0000
0010
0000
0000
0000
0000
0000
0000
0000
0000
0000
0000
0000
0100
0000
0000
0000
0000
0000
0000
0000
0000
0000
0000
0000
0010
0000
0000
0000
0000
0000
0000
0000
0000
0000
0000
0000
1000
0000
0000
0000
0000
0000
0000
0000
0000
0000
0000
0000
0100
0000
0000
0000
0000
0000
0000
0000
0000
0000
0000
0000
0010
0000
0000
0000
0000
0000
0000
0000
0000
0000
0000
0000
0001
0000
0000
0000
0000
0000
0000
0000
0000
0000
0000
0100
,
0000
0000
0000
0000
0000
0000
0000
0000
0000
0000
0000
0100
0000
0000
0000
0000
0000
0000
0000
0000
0000
0000
0000
0000
1000
0000
0000
0000
0000
0000
0000
0000
0000
0000
0000
0000
0000
0000
0000
0000
0000
0000
0000
0000
0000
0000
0000
0100
0000
0000
0000
0000
0000
0000
0000
0000
0000
0000
0000
0100
0000
0000
0000
0000
0000
0000
0000
0000
0000
0000
0000
0000
0001
0000
0000
0000
0000
0000
0000
0000
0000
0000
0000
0000
0000
0000
0000
0000
0000
0000
0000
0000
0000
0000
0000
0000
1000
0000
0000
0000
0000
0000
0000
0000
0000
0000
0000
0000
0010
0000
0000
0000
0000
0000
0000
0000
0000
0000
0000
0000
0000
0000
0000
0000
0000
0000
0000
0000
0000
0000
0000
0000
0001
0000
0000
0000
0000
0000
0000
0000
0000
0000
0000
0000
0000
0000
0000
0000
0000
0000
0000
0000
0000
0000
0000
0000
0010
0000
0000
0000
0000
0000
0000
0000
0000
0000
0000
0000
0000
0000
0000
0000
0000
0000
0000
0000
0000
0000
0000
0000
0100
0000
0000
0000
0000
0000
0000
0000
0000
0000
0000
0000
,
0001
1000
0100
0010
0001
0100
0010
0000
2000
0000
3200
0000
0340
0000
0031
1000
,
0001
0000
0000
0000
0001
0000
0000
0000
0001
0000
0000
0000
1000
0000
0000
0000
1000
0000
0000
0000
1000
0000
0000
0000
0010
0000
0000
1000
0000
0000
0010
0000
0000
1000
0000
0000
0004
0000
0000
4000
0000
0000
0000
0000
0000
0000
0000
0000
,
0000
0000
0003
0000
3100
0000
0000
0000
0100
0000
0000
0000
0100
0000
0010
0000
MM02
0000
0000
0000
0000
0000
0000
0000
1003
0000
0000
0100
0000
0000
0100
0000
,
0010
0000
0010
0000
0100
0000
1000
0001
0000
0000
1000
0000
1000
0000
0010
0000
0100
0000
0100
0000
0010
0000
1000
0000
0001
0000
0000
0001
0000
0000
0010
0000
,
0010
0000
0010
0000
0100
0000
0100
1000
0000
0000
0001
0000
0001
0000
1000
0000
01MM
0000
0000
0000
100M
0000
000M
0000
001M
0000
000M
0000
010M
0000
0000
0000
,
011M
0000
000M
100M
0000
000M
110M
0000
0100
0010
M100
M000
M010
M001
M010
M001
,
M100
0000
M001
M100
M000
M000
M100
M000
00M1
0000
00M1
00M0
10M0
00M0
01M0
00M0
,
11M0
00M0
0000
00M1
0000
00M0
10M1
0000
1M00
0000
1M00
0M00
0M10
0M00
1M00
0001
,
0M10
0M00
0M01
1000
0M20
0000
0000
0000
0130
0001
1000
0001
0010
0001
0010
0100
,
2000
0000
0000
3002
0000
0000
0203
0000
0000
0310
0100
0010
0100
0001
1000
0001
,
0010
0100
1000
0002
0000
1003
0100
0010
0001
1000
0001
0000
0100
0010
0100
0000
,
2000
0000
0000
3200
0000
0000
0302
0000
0000
1003
0100
1000
0001
0010
0001
0200
,
0000
0310
1000
0001
1000
0100
0010
0000
0100
1000
0001
1000
0010
1000
0010
0100
,
0002
0000
0000
2003
0000
0000
3200
0000
0000
0310
0100
0010
0100
1000
0001
1000
,
0010
0100
0001
1000
0000
0001
0100
0010
1000
0001
1000
0000
0100
0010
0100
0000
,
0002
0000
0000
0203
0000
0300
2100
0000
0000
3001
0100
0001
1000
0010
1000
0200
,
0000
0310
0001
1000
0001
0100
0010
0000
1000
0100
0010
0100
0001
0100
0010
0000
,
0002
0000
0000
2003
0000
0000
3020
0000
0000
0130
1000
0100
0010
0100
0001
1000
,
0001
0010
0100
2000
0000
3100
0010
0001
1000
0010
1000
0000
0100
0001
0100
0000
,
0020
0000
0000
0032
0000
0000
2003
0000
0000
3010
0100
0010
0001
0010
0100
0002
,
0000
1003
0100
0010
0001
0100
0010
0000
0001
0010
0100
0010
1000
0010
0100
0000
,
0202
0303
0000
2020
3030
0000
2002
0000
3003
0001
1000
0100
0010
0100
0001
0100
,
1000
0010
0100
0002
0000
0103
0010
1000
0001
0010
0001
0000
0100
1000
0100
0000
,
0020
0000
0000
2030
0000
3000
1002
0000
0000
0013
0100
0010
1000
0010
0100
2000
,
0000
0000
0000
0000
0000
0000
0000
0000
0000
0000
0000
0000
3001
0000
0000
0000
0000
0000
0000
0000
0000
0000
0000
0000
0100
0000
0000
0000
0000
0000
0000
0000
0000
0000
0000
0000
0010
0000
0000
0000
0000
0000
0000
0000
0000
0000
0000
0000
1000
0000
0000
0000
0000
0000
0000
0000
0000
0000
0000
0000
0000
0000
0000
0000
0000
0000
0000
0000
0000
0000
0000
0000
0000
0000
0000
0000
0000
0000
0000
0000
0000
0000
0000
0000
0000
0000
0000
0000
0000
0000
0000
0000
0000
0000
0000
0000
0102
0000
0000
0000
0000
0000
0000
0000
0000
0000
0000
0000
0000
0000
0000
0000
0000
0000
0000
0000
0000
0000
0000
0000
0000
0000
0000
0000
0000
0000
0000
0000
0000
0000
0000
0000
1003
0000
0000
0000
0000
0000
0000
0000
0000
0000
0000
0010
0000
0000
0000
0000
0000
0000
0000
0000
0000
0000
0000
0010
0000
0000
0000
0000
0000
0000
0000
0000
0000
0000
0000
0000
0002
0000
0000
0000
0000
0000
0000
0000
0000
0000
0000
0000
0000
0000
0000
0000
0000
0000
0000
0000
0000
0000
0000
0000
,
0100
0000
0000
0000
0000
0000
0000
0000
0000
0000
0000
0000
0000
0000
0000
0000
0000
0000
0000
0000
0000
0000
0000
0000
2003
0000
0000
0000
0000
0000
0000
0000
0000
0000
0000
0000
0000
0000
0000
0000
0000
0000
0000
0000
0000
0000
0000
0100
3000
0000
0000
0000
0000
0000
0000
0000
0000
0000
0000
0100
0000
0000
0000
0000
0000
0000
0000
0000
0000
0000
0000
0000
0001
0000
0000
0000
0000
0000
0000
0000
0000
0000
0000
0000
0000
0000
0000
0000
0000
0000
0000
0000
0000
0000
0000
0000
1000
0000
0000
0000
0000
0000
0000
0000
0000
0000
0000
0000
0000
0000
0000
0000
0000
0000
0000
0000
0000
0000
0000
0000
0100
0000
0000
0000
0000
0000
0000
0000
0000
0000
0000
0000
0010
0000
0000
0000
0000
0000
0000
0000
0000
0000
0000
0000
0001
0000
0000
0000
0000
0000
0000
0000
0000
0000
0000
0000
0000
0000
0000
0000
0000
0000
0000
0000
0000
0000
0000
0000
0200
0000
0000
0000
0000
0000
0000
0000
0000
0000
0000
0000
0000
0000
0000
0000
0000
0000
0000
0000
0000
0000
0000
0000
,
0310
0000
0000
0000
0000
0000
0000
0000
0000
0000
0000
0000
1000
0000
0000
0000
0000
0000
0000
0000
0000
0000
0000
0000
0001
0000
0000
0000
0000
0000
0000
0000
0000
0000
0000
0000
1000
0000
0000
0000
0000
0000
0000
0000
0000
0000
0000
0000
0000
0000
0000
0000
0000
0000
0000
0000
0000
0000
0000
0000
0100
0000
0000
0000
0000
0000
0000
0000
0000
0000
0000
0000
0010
0000
0000
0000
0000
0000
0000
0000
0000
0000
0000
0000
0000
0000
0000
0000
0000
0000
0000
0000
0000
0000
0000
0000
0002
0000
0000
0000
0000
0000
0000
0000
0000
0000
0000
0000
0000
0000
0000
0000
0000
0000
0000
0000
0000
0000
0000
0000
0000
0000
0000
0000
0000
0000
0000
0000
0000
0000
0000
0000
1003
0000
0000
0000
0000
0000
0000
0000
0000
0000
0000
0100
0000
0000
0000
0000
0000
0000
0000
0000
0000
0000
0000
0100
0000
0000
0000
0000
0000
0000
0000
0000
0000
0000
0000
0000
0001
0000
0000
0000
0000
0000
0000
0000
0000
0000
0000
0000
0000
0000
0000
0000
0000
0000
0000
0000
0000
0000
0000
0000
,
0010
0100
0001
0100
0000
1000
0001
0000
0010
0000
0100
1000
0000
0010
0100
0000
,
0010
0000
0000
0000
0000
0000
0000
0000
0000
0000
0000
0000
1000
0000
0000
0000
0000
0000
0000
0000
0000
0000
0000
0000
0001
0000
0000
0000
0000
0000
0000
0000
0000
0000
0000
0000
0000
0000
0000
0000
0000
0000
0000
0000
0000
0000
0000
0010
0000
0000
0000
0000
0000
0000
0000
0000
0000
0000
0000
0000
0000
0000
0000
0000
0000
0000
0000
0000
0000
0000
0000
0010
0000
0000
0000
0000
0000
0000
0000
0000
0000
0000
0000
0000
0000
0000
0000
0000
0000
0000
0000
0000
0000
0000
0000
0000
2010
0000
0000
0000
0000
0000
0000
0000
0000
0000
0000
0000
0000
0000
0000
0000
0000
0000
0000
0000
0000
0000
0000
0000
0000
0000
0000
0000
0000
0000
0000
0000
0000
0000
0000
0000
0000
0000
0000
0000
0000
0000
0000
0000
0000
0000
0000
3100
0000
0000
0000
0000
0000
0000
0000
0000
0000
0000
0000
0100
0000
0000
0000
0000
0000
0000
0000
0000
0000
0000
0000
0000
0001
0000
0000
0000
0000
0000
0000
0000
0000
0000
0000
0000
0100
0000
0000
0000
0000
0000
0000
0000
0000
0000
0000
0000
,
0000
0010
0001
0010
0000
1000
0001
0000
0010
0000
0100
1000
0000
0010
0100
0000
,
1000
0000
0000
0000
0000
0000
0000
0000
0000
0000
0000
0000
0100
0000
0000
0000
0000
0000
0000
0000
0000
0000
0000
0000
0010
0000
0000
0000
0000
0000
0000
0000
0000
0000
0000
0000
1000
0000
0000
0000
0000
0000
0000
0000
0000
0000
0000
0000
0001
0000
0000
0000
0000
0000
0000
0000
0000
0000
0000
0000
0010
0000
0000
0000
0000
0000
0000
0000
0000
0000
0000
0000
0100
0000
0000
0000
0000
0000
0000
0000
0000
0000
0000
0000
0000
0000
0000
0000
0000
0000
0000
0000
0000
0000
0000
0000
2000
0000
0000
0000
0000
0000
0000
0000
0000
0000
0000
0000
0000
0000
0000
0000
0000
0000
0000
0000
0000
0000
0000
0000
0000
0000
0000
0000
0000
0000
0000
0000
0000
0000
0000
0000
3001
0000
0000
0000
0000
0000
0000
0000
0000
0000
0000
0010
0000
0000
0000
0000
0000
0000
0000
0000
0000
0000
0000
0010
0000
0000
0000
0000
0000
0000
0000
0000
0000
0000
0000
0000
1000
0000
0000
0000
0000
0000
0000
0000
0000
0000
0000
0000
0000
0000
0000
0000
0000
0000
0000
0000
0000
0000
0000
0000
,
0100
0000
0000
0000
0000
0000
0000
0000
0000
0000
0000
0000
0010
0000
0000
0000
0000
0000
0000
0000
0000
0000
0000
0000
0001
0000
0000
0000
0000
0000
0000
0000
0000
0000
0000
0000
1000
0000
0000
0000
0000
0000
0000
0000
0000
0000
0000
0100
0000
0000
0000
0000
0000
0000
0000
0000
0000
0000
0000
0100
0000
0000
0000
0000
0000
0000
0000
0000
0000
0000
0000
0000
0001
0000
0000
0000
0000
0000
0000
0000
0000
0000
0000
0000
0000
0000
0000
0000
0000
0000
0000
0000
0000
0000
0000
0000
0022
0000
0000
0000
0000
0000
0000
0000
0000
0000
0000
0000
0033
0000
0000
0000
0000
0000
0000
0000
0000
0000
0000
0000
0000
0000
0000
0000
0000
0000
0000
0000
0000
0000
0000
0000
2200
0000
0000
0000
0000
0000
0000
0000
0000
0000
0000
0000
3300
0000
0000
0000
0000
0000
0000
0000
0000
0000
0000
0000
0000
0000
0000
0000
0000
0000
0000
0000
0000
0000
0000
0000
2002
0000
0000
0000
0000
0000
0000
0000
0000
0000
0000
0000
0000
0000
0000
0000
0000
0000
0000
0000
0000
0000
0000
0000
,
3003
0001
0100
1000
0001
0010
1000
0001
0000
0000
0000
0000
0000
0000
0000
0000
;
