#VERSION:0.83;
#TITLE:barong;
#SUBTITLE:;
#ARTIST:Keiichi Sugiyama;
#TITLETRANSLIT:;
#SUBTITLETRANSLIT:;
#ARTISTTRANSLIT:;
#GENRE:Gamelan techno;
#CREDIT:tikal.;
#MUSIC:barong.ogg;
#BANNER:bn.png;
#BACKGROUND:bg.png;
#CDTITLE:;
#SAMPLESTART:14.774;
#SAMPLELENGTH:14.769;
#SELECTABLE:YES;
#OFFSET:-0.005;
#BPMS:0.000=130.000;
#STOPS:;
#BGCHANGES:;
#FGCHANGES:;

//--------------- dance-single - tikal. ----------------
#NOTEDATA:;
#STEPSTYPE:dance-single;
#DESCRIPTION:tikal.;
#DIFFICULTY:Hard;
#METER:7;
#RADARVALUES:0,0,0,0,0;
#NOTES:
0000
0000
0000
0000
,
0000
0000
0000
0000
,
0000
0000
0000
0000
,
0000
0000
0000
0000
,
1000
0100
0001
1000
0010
0001
2000
0000
,
3020
0000
0000
0130
0002
0000
2003
0000
,
3001
0000
0010
0000
1000
0000
0010
0000
0002
0000
0000
0000
2003
0000
0000
3000
,
2000
0000
0000
0000
0000
0000
3010
0000
0200
0000
0000
0000
0302
0000
0000
0003
,
1001
0000
1100
0000
0001
0010
0100
0010
,
0001
0000
1010
0000
0001
0100
0010
1000
,
0001
0000
1001
0000
0001
0100
0010
0100
,
0001
1000
0000
0100
0000
0010
0000
0001
,
1000
0000
0101
0000
1000
0010
0100
0010
,
1000
0000
0011
0000
1000
0100
0010
0001
,
1000
0000
1001
0000
1000
0100
0010
0100
,
1000
0000
0000
1000
0000
0000
0001
0000
0000
0001
0000
0000
1000
0001
0000
1000
,
0001
0000
0000
0100
0101
0000
0001
0000
,
1000
0100
0010
0000
0000
0001
0010
0100
,
1000
0000
0000
0100
1100
0000
1000
0000
,
0001
0100
0010
0000
0000
1000
0010
0100
,
0001
0000
0000
1000
1010
0000
0010
0100
,
0001
0100
0010
1000
0000
0001
0010
0100
,
1000
0000
0000
0001
0011
0000
0010
0100
,
1000
0100
0010
0001
0000
1000
0010
0100
,
0001
0011
1000
1010
,
0001
0000
0101
0000
1000
0100
0010
0001
,
1000
1100
0010
0011
,
0001
1000
0000
0010
0000
0100
0000
0001
,
1000
1010
0001
0011
,
1000
0000
1100
0000
0001
0100
0010
1000
,
0001
0101
0010
1010
,
1000
0000
0000
1000
0000
0000
0001
0000
0000
0001
0000
0000
1000
0001
0000
1000
,
0001
0000
0000
0100
0000
0000
0100
0000
0000
0000
0000
0100
0000
0100
0000
0000
,
0000
0000
0000
0010
0000
0000
0010
0000
0000
0000
0000
0010
0000
0010
0000
0000
,
0000
0000
0000
1000
0000
0000
1000
0000
0000
0000
0000
1000
0000
1000
0000
0000
,
0000
0000
0000
0001
0000
0000
0001
0000
0000
0000
0000
0001
0000
0001
0000
0000
,
1000
0100
0010
0001
0101
0000
0001
0100
,
0000
0001
1000
0000
0001
0010
0100
1000
,
0001
0100
0010
1000
1100
0000
1000
0100
,
0000
1000
0001
0000
1000
0010
0100
0001
,
1001
0000
0011
0000
1000
0100
0010
0100
,
1000
0000
0101
0000
1000
0010
0100
0001
,
1000
0000
1001
0000
1000
0010
0100
0010
,
1000
0001
0000
0010
0000
0100
0000
1000
,
0001
0000
1010
0000
0001
0100
0010
0100
,
0001
0000
1100
0000
0001
0010
0100
1000
,
0001
0000
1001
0000
0001
0010
0100
0010
,
0001
0000
0000
0001
0000
0000
1000
0000
0000
1000
0000
0000
0001
1000
0000
0001
,
1000
0100
0001
1000
0010
0001
2000
0000
,
3020
0000
0000
0130
0002
0000
2003
0000
,
3001
0000
0010
0000
1000
0000
0010
0000
0002
0000
0000
0000
2003
0000
0000
3000
,
2000
0000
0000
3010
0200
0000
0302
0000
,
0003
1000
0000
1000
0000
1000
0000
1000
,
0000
0001
0000
0001
0000
0001
0000
0001
,
0000
0100
0000
0100
0000
0100
0000
0100
,
0110
0000
0000
1000
0100
0010
0002
2000
,
0000
0000
3003
0000
;

//--------------- dance-single - tikal. ----------------
#NOTEDATA:;
#STEPSTYPE:dance-single;
#DESCRIPTION:tikal.;
#DIFFICULTY:Challenge;
#METER:11;
#RADARVALUES:0,0,0,0,0;
#NOTES:
0000
0000
0000
0000
,
0000
0000
0000
0000
,
0000
0000
0000
0000
,
0000
0000
0000
0000
,
0001
0000
0000
0000
0010
0000
0000
0000
0100
0000
0000
0000
1000
0000
0000
0000
0200
0000
0000
0000
0310
0000
0000
0000
1000
0000
0000
0000
0010
0000
0000
0000
0002
0000
0000
0000
0000
0000
0000
0000
0103
0000
0000
0000
1000
0000
0000
0000
0200
0000
0000
0000
0301
0000
0000
0000
1000
0000
0000
0000
0000
0000
0000
0001
,
1000
0100
0010
0001
2000
3001
0020
0000
0000
0000
0130
0010
2000
3001
0100
1000
,
0001
0000
0000
0000
0100
0000
0000
0000
0010
0000
0000
0000
1000
0000
0000
0000
0020
0000
0000
0000
0130
0000
0000
0000
1000
0000
0000
0000
0100
0000
0000
0000
0002
0000
0000
0000
0000
0000
0000
0000
0013
0000
0000
0000
1000
0000
0000
0000
0020
0000
0000
0000
0031
0000
0000
0000
1000
0000
0000
0000
0000
0000
0000
0001
,
1000
0010
0100
0001
2000
3001
0200
0000
0000
0000
0310
0100
2000
3001
0010
1000
,
0001
0000
0010
0001
1000
0000
0010
0100
0001
0100
1000
0100
0010
1000
0001
0010
,
0001
0000
0100
0001
1000
0000
0100
0010
0001
0010
1000
0010
0100
1000
0001
0100
,
0010
0000
1000
0100
0001
0000
0100
1000
0010
0100
0001
1000
0100
0001
0100
0010
,
0001
2000
3010
0200
0301
0020
0130
0002
,
1003
0000
0010
0001
1000
0000
0001
0100
0010
0100
1000
0100
0001
0100
0010
0001
,
1000
0000
0100
0001
1000
0000
0001
0010
0100
0010
1000
0010
0001
0010
0100
0001
,
1000
0000
0010
0100
1000
0000
0001
0100
0010
0001
0010
0100
1000
0001
0010
1000
,
0001
0010
0000
0001
0010
0000
0100
1000
0000
0100
1000
0000
0001
0100
0000
0010
,
1000
0000
0000
0000
0M01
0000
0000
0000
10M0
0000
0000
0000
0M01
0000
0000
0000
10M0
0000
0000
0000
0000
0000
0000
0000
100M
0000
0000
0000
0100
0000
0000
0000
00M0
0000
0000
0000
0100
0000
0000
0000
1000
0000
0000
0000
0000
0000
0000
0000
0M01
0000
0000
0000
0100
0000
0000
0000
M000
0000
0000
0000
0001
0000
0000
M000
,
01M0
0000
0000
0000
001M
0000
1M00
0000
000M
0000
1000
0000
0M10
0000
0000
0000
10M0
0000
0001
0000
0M00
0000
1000
0000
0001
M000
0000
0000
0M10
0000
0001
0000
,
0000
0000
MMM0
0000
0001
0000
0000
0000
01M0
0000
0000
0000
000M
0000
0000
0000
10M0
0000
0000
0000
0100
0000
0000
0000
0000
0000
0M00
0000
1000
0000
0000
0000
01M0
0000
0000
0000
0000
0000
0000
0000
0010
0000
0000
0000
0100
0000
0000
0000
00M0
0000
0000
0000
0100
0000
0000
0000
001M
0000
0000
0000
0000
0000
0000
000M
,
01M0
0000
1000
0000
0M00
0000
01M0
0000
100M
0000
0000
0000
M001
0000
0100
0000
000M
0000
0100
0000
0001
0M00
0000
0000
10M0
0000
0001
0000
0M00
0000
1000
0000
,
0001
0000
0000
0000
1M00
0000
0000
0000
00M1
0000
0000
0000
1M00
0000
0000
0000
00M1
0000
0000
0000
0000
0000
0000
0000
M001
0000
0000
0000
0100
0000
0000
0000
00M0
0000
0000
0000
0100
0000
0000
0000
0001
0000
0000
0000
0000
0000
0000
0000
1M00
0000
0000
0000
0100
0000
0000
0000
000M
0000
0000
0000
1000
0000
0000
000M
,
01M0
0000
0000
0000
M010
0000
0M01
0000
M000
0000
0001
0000
0M10
0000
0000
0000
00M1
0000
1000
0000
0M00
0000
0001
0000
1000
000M
0000
0000
0M10
0000
1000
0000
,
0000
0000
0MMM
0000
1000
0000
0000
0000
01M0
0000
0000
0000
M000
0000
0000
0000
00M1
0000
0000
0000
0100
0000
0000
0000
0000
0000
0M00
0000
0001
0000
0000
0000
01M0
0000
0000
0000
0000
0000
0000
0000
0010
0000
0000
0000
0100
0000
0000
0000
00M0
0000
0000
0000
0100
0000
0000
0000
M010
0000
0000
0000
0000
0000
0000
M000
,
01M0
0000
0001
0000
0M00
0000
01M0
0000
M001
0000
0000
0000
100M
0000
0100
0000
M000
0000
0100
0000
1000
0M00
0000
0000
00M1
0000
1000
0000
0M00
0000
0001
0000
,
1000
0000
001M
0000
M100
0000
001M
0000
1M00
0000
0000
0000
00M1
0000
0100
0000
0000
00MM
0100
0000
1000
0000
0000
0000
0M01
0000
M010
0000
000M
0000
M010
0000
,
0M01
0000
0000
0000
100M
0000
0010
0000
0000
MM00
0010
0000
0M01
0000
0000
0000
10M0
0000
0100
0000
001M
0000
0100
0000
10M0
0000
0M01
0000
M100
0000
100M
0000
,
0000
0MMM
1000
0000
0M10
0000
M000
0000
01M0
0000
0001
0000
0M00
0000
0001
0000
M100
0000
0000
0000
0M01
0000
0010
0000
0000
0M0M
0010
0000
1000
0000
00M0
0000
,
0001
2000
3010
0200
0301
0020
0130
0002
,
1003
0000
0M10
0000
010M
0000
10M0
0000
0M01
0000
0000
0000
100M
0000
0100
0000
0000
M0M0
0100
0000
0001
0000
0000
0000
1M00
0000
001M
0000
M000
0000
001M
0000
,
1M00
0000
0000
0000
M001
0000
0010
0000
0000
0M0M
0010
0000
1M00
0000
0000
0000
00M1
0000
0100
0000
001M
0000
0100
0000
00M1
0000
1M00
0000
01M0
0000
M001
0000
,
0000
MMM0
0001
0000
M010
0000
000M
0000
01M0
0000
1000
0000
0M00
0000
1000
0000
010M
0000
0000
0000
1M00
0000
0010
0000
0000
MM00
0010
0000
0001
0000
00M0
0000
,
1000
0010
0000
1000
0010
0000
0100
0001
0000
0100
0001
0000
1000
0100
0000
0010
,
0001
0010
0001
0010
0100
1000
0010
0100
0001
0010
0001
0010
0100
1000
0010
0100
,
0001
0100
0001
0100
0010
1000
0100
0010
0001
0100
0001
0100
0010
1000
0100
0010
,
0100
1000
0100
1000
0001
0010
0100
0010
0100
1000
0100
1000
0001
0010
0100
1000
,
0010
1000
0010
1000
0001
0100
0010
0100
0010
1000
0010
1000
0001
0100
0010
1000
,
0001
1000
0001
1000
0100
1000
0010
1000
0001
1000
0001
1000
0100
1000
0010
1000
,
0001
1000
0001
1000
0001
0010
0001
0100
0001
1000
0001
1000
0001
0010
0001
0100
,
0010
0100
0010
0100
0010
0001
0010
1000
0010
0100
0010
0100
0010
0001
0010
1000
,
0100
0010
0100
0010
0100
1000
0100
0001
0100
0010
0100
0010
0100
1000
0100
0010
,
0001
0000
M100
0000
001M
0000
M100
0000
00M1
0000
0000
0000
1M00
0000
0010
0000
0000
MM00
0010
0000
0001
0000
0000
0000
10M0
0000
010M
0000
M000
0000
010M
0000
,
10M0
0000
0000
0000
M001
0000
0100
0000
0000
00MM
0100
0000
10M0
0000
0000
0000
0M01
0000
0010
0000
M100
0000
0010
0000
0M01
0000
10M0
0000
001M
0000
M001
0000
,
0000
MMM0
0001
0000
01M0
0000
000M
0000
0M10
0000
1000
0000
00M0
0000
1000
0000
001M
0000
0000
0000
10M0
0000
0100
0000
0000
M0M0
0100
0000
0001
0000
0M00
0000
,
1000
0002
0103
0020
1030
0200
0310
2000
,
3001
0000
01M0
0000
M010
0000
0M01
0000
10M0
0000
0000
0000
M001
0000
0010
0000
0000
0M0M
0010
0000
1000
0000
0000
0000
00M1
0000
M100
0000
000M
0000
M100
0000
,
00M1
0000
0000
0000
100M
0000
0100
0000
0000
M0M0
0100
0000
00M1
0000
0000
0000
1M00
0000
0010
0000
M100
0000
0010
0000
1M00
0000
00M1
0000
0M10
0000
100M
0000
,
0000
0MMM
1000
0000
010M
0000
M000
0000
0M10
0000
0001
0000
00M0
0000
0001
0000
M010
0000
0000
0000
00M1
0000
0100
0000
0000
00MM
0100
0000
1000
0000
0M00
0000
,
0001
0100
0000
0001
0100
0000
0010
1000
0000
0010
1000
0000
0001
0010
0000
0100
,
1000
0000
0000
0000
0100
0000
0000
0000
0020
0030
0000
0000
1000
0000
0000
0000
0010
0000
0000
0000
0001
0000
0000
0000
0200
0300
0000
0000
0010
0000
0000
0000
,
1000
0000
0000
0000
0001
0000
0000
0000
2000
3000
0100
0000
0010
0000
0000
0000
0001
0000
0000
0000
1000
0000
0000
0000
0001
0000
0000
0000
0100
0000
0000
0000
,
0001
0000
0000
0000
0100
0000
0000
0000
0020
0030
0000
0000
0001
0000
0000
0000
0010
0000
0000
0000
1000
0000
0000
0000
0200
0300
0000
0000
0010
0000
0000
0000
,
0001
0000
0000
0000
1000
0000
0000
0000
0002
0003
0100
0000
0010
0000
0000
0000
1000
0000
0000
0000
0001
0000
0000
0000
1000
0000
0000
0000
0100
0000
0000
0000
,
1000
0100
0001
1000
0010
0001
2000
0000
,
3002
0000
0000
0000
1003
0100
0010
0000
0002
0000
0000
0000
2003
0000
0000
0000
,
3001
0000
0100
0000
1000
0000
0100
0000
0002
0000
0000
0000
2003
0000
0000
3000
,
2001
0000
0000
0000
3001
0010
0100
0000
1000
0000
0100
0000
0020
0000
0200
0000
,
0000
0000
0330
0000
;
