#VERSION:0.83;
#TITLE:Wicked (feat. Sullivan King);
#ARTIST:Bear Grillz;
#GENRE:Brostep;
#CREDIT:tikal.+ as "oreganobikini";
#MUSIC:Wicked (feat. Sullivan King).ogg;
#BANNER:Wicked (feat. Sullivan King).png;
#BACKGROUND:Wicked (feat. Sullivan King)-bg.png;
#CDTITLE:cdtitle.png;
#SAMPLESTART:51.2;
#SAMPLELENGTH:13;
#BPMS:0=150;
#SPEEDS:0=1=0=0;
#SCROLLS:0=1;
#TICKCOUNTS:0=4;
#TIMESIGNATURES:0=4=4;
#LABELS:0=Song Start;
#COMBOS:0=1;

//--------------- dance-single - ----------------
#NOTEDATA:;
#STEPSTYPE:dance-single;
#DESCRIPTION:tikal.+ as "oreganobikini";
#DIFFICULTY:Easy;
#METER:7;
#RADARVALUES:0,0,0,0,0;
#CREDIT:tikal.+ as "oreganobikini";
#NOTES:
0000
0000
0000
0000
,
0000
0000
0000
0000
,
0000
0000
0000
0000
,
0000
0000
0000
0000
,
0000
0000
0000
0000
,
0000
0000
0000
0000
,
0000
0000
0000
0000
,
0000
0000
0000
0000
,
1000
0000
1000
0000
1000
0000
1000
0010
,
0200
0000
1000
0000
0010
0000
0301
1000
,
0001
0000
0001
0000
0001
0000
0001
0010
,
0200
0000
0001
0000
0010
0000
1300
0001
,
1000
0010
1000
0000
0001
0010
0001
0000
,
1000
0100
1000
0000
0001
0100
0001
0000
,
1000
1000
0001
0000
0001
0001
1000
0000
,
0010
0100
0010
0100
0001
1000
0001
1000
,
0200
0000
0000
0000
,
0000
0000
0000
0000
,
0300
0000
0000
0000
,
0000
0000
0000
0000
,
2002
0000
0000
3003
,
1001
0000
1001
0000
0000
0000
1000
0001
,
1000
0000
0000
0000
,
0001
0000
1001
0000
1000
0010
0100
0001
,
0010
0010
0100
0100
,
0010
0000
0100
1000
0100
0000
0010
0001
,
0100
0100
0010
0010
,
0100
0000
0010
1000
0010
0000
0100
0001
,
1000
1001
0001
1001
,
1000
0110
0001
0110
,
1000
0100
1000
0100
0010
0001
0010
0001
,
0100
0000
0000
0000
0000
0000
0010
0100
,
0110
0000
1000
0001
0010
0100
0100
1000
,
0000
0100
0100
1000
0001
0100
0010
0000
,
0110
0000
0001
1000
0010
0100
0100
0001
,
0000
0100
0100
0001
1000
0100
0010
0000
,
0110
0000
0001
1000
0100
0010
0010
0001
,
0000
0010
0010
0001
1000
0010
0001
0010
,
1000
0000
0001
0100
1000
0000
0001
0010
,
0100
0000
0110
0000
0010
1000
0100
0000
,
0110
0000
0001
1000
0400
0000
0340
0000
,
0430
0000
0340
0000
0130
1000
0001
0000
,
0110
0000
1000
0001
0400
0000
0340
0000
,
0430
0000
0340
0000
2030
3000
0002
0003
,
0110
0000
0001
1000
0040
0000
0034
0000
,
0043
0000
4030
0000
3002
0003
2000
3000
,
0001
0000
1000
0100
0001
0000
1000
0010
,
0100
0000
0110
0000
0010
0001
0100
0000
,
1020
1000
0100
0100
,
1030
0000
0010
0001
0010
0000
1000
0001
,
0021
0001
0100
0100
,
0031
0000
0010
1000
0010
0000
0001
0000
,
1000
0101
0010
1100
,
0001
1010
0100
0011
,
1000
0010
0100
0001
0010
0100
1000
0001
,
0100
0000
0000
0000
0000
0000
0010
0100
,
0110
0000
0000
0000
0000
0000
0001
0000
0000
1000
0000
0000
0100
0000
1000
0000
0000
0000
0010
0000
0000
0000
1000
0000
,
0000
0000
0100
0000
0010
0000
0001
0000
0000
1000
0000
0000
0010
0000
0000
0000
0000
0000
0100
0000
0000
0000
0000
0000
,
0110
0000
1000
0001
0010
0001
0001
0100
,
0000
1000
1000
0100
0010
1000
0100
0000
,
0110
0000
0000
0000
0000
0000
1000
0000
0000
0001
0000
0000
0100
0000
0001
0000
0000
0000
0010
0000
0000
0000
0001
0000
,
0000
0000
0100
0000
0010
0000
1000
0000
0000
0001
0000
0000
0010
0000
0000
0000
0000
0000
0100
0000
0000
0000
0000
0000
,
1000
0000
0001
0010
1000
0000
0001
0100
,
0010
0000
0110
0000
0100
1000
0010
0000
,
0110
0000
0001
1000
0004
0000
0000
0013
,
0400
0000
0000
0310
0001
1000
0010
0000
,
0110
0000
1000
0001
4000
0000
0000
3010
,
0400
0000
0000
0310
1000
0001
0010
0100
,
0110
0000
0000
0000
0000
0000
1000
0000
0000
0001
0000
0000
1000
0000
0010
0000
0000
0000
0010
0000
1000
0000
0001
0000
,
0000
0010
0100
0010
0001
0000
1000
0000
,
0110
0000
1000
0010
0001
0000
1000
0100
,
0010
0000
0110
0000
0100
0001
0010
0000
,
0100
0000
1100
0000
,
0100
0000
1100
0001
,
0100
0000
0101
0000
,
0100
0000
0000
0000
0101
0000
0001
1000
,
0010
0000
1010
0000
,
0010
0000
1010
0001
,
0010
0000
0011
0000
,
0010
0000
0000
0000
0011
0000
0001
1000
,
1001
0000
0000
0000
;

//--------------- dance-single - ----------------
#NOTEDATA:;
#STEPSTYPE:dance-single;
#DESCRIPTION:tikal.+ as "oreganobikini";
#DIFFICULTY:Medium;
#METER:9;
#RADARVALUES:0,0,0,0,0
#CREDIT:tikal.+ as "oreganobikini";
#NOTES:
0000
0000
0000
0000
,
0000
0000
0000
0000
,
0000
0000
0000
0000
,
0000
0000
0000
0000
,
0000
0000
0000
0000
,
0000
0000
0000
0000
,
0000
0000
0000
0000
,
0000
0000
0000
0000
,
1020
0000
0000
0000
1000
0000
0000
0000
1000
0000
0000
0000
1030
0000
0010
0200
,
0001
0000
0301
0010
0001
0010
0100
0000
,
0021
0000
0000
0000
0001
0000
0000
0000
0001
0000
0000
0000
0031
0000
0010
0200
,
1000
0000
1300
0010
1000
0010
0100
0000
,
0001
0100
0001
0100
1000
0100
1000
0100
,
0010
1000
0010
1000
0010
0001
0010
0001
,
0010
1000
0001
1000
0100
0001
1000
0010
,
0001
1000
0001
0100
1000
0001
0010
1000
,
2002
0000
0000
0000
,
0000
0000
0000
0000
,
3003
0000
0000
0000
,
0000
0000
0000
0000
,
0110
1000
0000
1000
,
0110
0000
0000
0000
0001
0000
0000
0000
0000
0000
0000
0000
1000
0000
0001
1000
,
0001
0010
0000
0010
,
0100
0000
1000
0001
1000
0000
0000
0010
0100
0000
0001
0000
0010
0100
1000
0000
,
0001
0000
0100
0000
0001
0100
0000
0000
0010
0000
0000
0100
0001
0000
0000
0000
,
1001
0000
0001
1000
0001
0000
1001
0000
,
1000
0000
0100
0000
1000
0100
0000
0000
0010
0000
0000
0100
1000
0000
0000
0000
,
1001
0000
1000
0001
1000
0000
1001
0000
,
0001
0100
1000
0100
0001
0100
1000
0100
,
0001
0010
1000
0010
0001
0010
1000
0010
,
0100
0010
0001
0100
1000
0001
0010
1000
,
0001
0000
0000
0000
0000
0000
1001
0100
,
0110
0000
0000
0000
1000
0000
0001
0000
0010
0000
0100
1000
0100
0000
0010
0000
,
0000
0000
0100
1000
0100
0000
0010
0000
0001
0000
0100
0000
0010
0000
0000
0000
,
0110
0000
0000
0000
0001
0000
1000
0000
0010
0000
0100
0001
0100
0000
0010
0000
,
0000
0000
0100
0001
0100
0000
0010
0000
1000
0000
1000
0000
0001
0000
0010
0000
,
0110
0000
0000
0000
0001
0000
1000
0000
0100
0000
0010
0001
0010
0000
0100
0000
,
0000
0000
0010
1000
0010
0000
0100
0000
1000
0000
0010
0000
0001
0000
0010
0000
,
0110
0000
0001
1000
1100
0000
1000
0001
,
0101
0000
1010
0000
0001
0011
0010
0000
,
0110
0000
0000
0000
1000
0000
0001
0000
0100
0001
0100
0000
0010
1000
0010
0000
,
0100
0001
0100
0000
0010
1000
0010
0000
0100
0001
0100
0001
1000
0000
0000
0000
,
1001
0000
0000
0000
0001
0000
1000
0000
0100
1000
0100
0000
0010
0001
0010
0000
,
0100
1000
0100
0000
0010
0001
0010
0000
0200
0000
0300
0000
0020
0000
0030
0000
,
0110
0000
0000
0000
1000
0000
0001
0000
1000
0010
0100
0000
0010
0100
0001
0000
,
0100
0010
1000
0000
0010
0100
0001
0000
2000
0000
3000
0000
0002
0000
0003
0000
,
0110
0000
1000
0001
0101
0000
0001
1000
,
1100
0000
0011
0000
1000
1010
0010
0000
,
0210
0001
0001
0001
,
0310
0000
1000
0000
1000
0000
0010
0000
0100
0000
0000
0001
1000
0000
0100
0000
,
0210
1000
1000
1000
,
0310
0000
0001
0000
0001
0000
0010
0000
0100
0000
0000
1000
0001
0000
0100
0000
,
0010
1000
0101
0000
1000
0100
0011
0000
,
0010
0001
1100
0000
1000
0010
0101
0000
,
1000
0010
1000
0000
0001
0010
0001
0000
1000
0100
1000
0000
0001
0100
0010
1000
,
0001
0000
0000
0000
0000
0000
1001
0100
,
0110
0000
0000
0000
0000
0000
0001
0000
0000
1000
0000
0000
0010
0000
1000
0000
0010
0000
1000
0000
0010
0000
0100
0000
,
0000
0000
0000
0000
0010
0000
0000
0000
1000
0000
0000
0000
0010
0000
0000
0000
0000
0000
0100
0000
0000
0000
0000
0000
0002
0000
0000
0000
0000
0000
0000
0000
0000
0000
0000
0000
0023
0000
0000
0000
0000
0000
0000
0000
0000
0030
0000
0000
,
0110
0000
1000
0001
0100
0010
0010
1000
,
0100
0010
0010
0001
1001
1000
0010
0100
,
0110
0000
0000
0000
0000
0000
1000
0000
0000
0001
0000
0000
0010
0000
0001
0000
0010
0000
0001
0000
0010
0000
0100
0000
,
0000
0000
0000
0000
0010
0000
0000
0000
0001
0000
0000
0000
0010
0000
0000
0000
0000
0000
0100
0000
0000
0000
0000
0000
2000
0000
0000
0000
0000
0000
3000
0000
0000
0000
0000
0000
0002
0000
0000
0000
0000
0000
0000
0000
0000
0003
0000
0000
,
0110
0000
0001
1000
1010
0000
1000
0001
,
0011
0000
1100
0000
0001
0101
0100
0000
,
0110
0000
1000
0001
0010
0010
0010
1000
,
0010
0000
0010
0000
0010
0000
0001
0000
0100
0000
0010
0000
2000
0000
0000
3000
,
0110
0000
0001
1000
0010
0010
0010
0001
,
0010
0010
0010
1000
0100
0001
0100
1000
,
1001
0000
0000
0000
0000
0000
0001
0000
0000
1000
0000
0000
0100
0000
0010
0000
0100
0000
0010
0000
0100
0000
1000
0000
,
0001
0000
0100
0000
0100
0000
0010
0000
2000
0000
3000
0000
0002
0000
0000
0003
,
0110
0000
1000
0001
0011
0000
0001
1000
,
1010
0000
0101
0000
1000
1100
0100
0000
,
0010
0001
0011
0001
,
0010
0200
0001
1300
,
0010
1000
1010
1000
,
0010
0000
0200
0000
1000
0000
0301
1000
,
0100
1000
1100
1000
,
0100
0020
1000
0031
,
0100
0001
0101
0001
,
0100
0000
0000
0000
0020
0000
0000
0000
0001
0000
0000
0000
1030
0000
0001
1000
,
0001
0000
0000
0000
;

//--------------- dance-single - ----------------
#NOTEDATA:;
#STEPSTYPE:dance-single;
#DESCRIPTION:tikal.+ as "oreganobikini";
#DIFFICULTY:Hard;
#METER:11;
#RADARVALUES:0,0,0,0,0;
#CREDIT:tikal.+ as "oreganobikini";
#NOTES:
0000
0000
0000
0000
,
0000
0000
0000
0000
,
0000
0000
0000
0000
,
0000
0000
0000
0000
,
0000
0000
0000
0000
,
0000
0000
0000
0000
,
0000
0000
0000
0000
,
0000
0000
0000
0000
,
2002
0000
0000
3003
1000
0000
0010
0000
1000
0000
0100
0000
1000
0000
0010
0100
,
0002
0000
0000
1003
0001
0000
0010
0000
0001
0000
0100
0000
0010
0000
1000
0001
,
2000
0000
0000
3010
1000
0000
0100
0000
1000
0000
0010
0000
1000
0000
0100
0010
,
0002
0000
0000
1003
0001
0100
0010
0000
1000
0000
0100
0000
0010
0000
0001
1000
,
0001
0100
1000
0100
0010
0001
0010
1000
,
0100
0001
0100
0010
1000
0010
0001
1000
,
0010
1000
0010
0000
0100
0010
0100
0000
0001
0100
0001
0000
1000
0001
1000
0000
,
0100
1000
0100
1000
0100
0010
0100
0010
0001
0010
0001
1000
0010
0100
0001
1000
,
0200
0001
0000
0001
,
0010
0000
0000
0000
1000
0000
0000
0000
0000
0000
0000
0000
0310
0100
0010
0100
,
0010
0001
0100
0000
,
0010
0000
1000
0000
0100
0010
0001
0000
,
1001
0000
1000
0000
0000
0010
0000
0000
0001
0000
0000
0010
0000
0000
1000
0000
,
0000
0000
0001
0000
0000
0010
0000
0000
1000
0000
0000
0010
0001
1000
0001
1000
,
0001
0000
1000
0000
0000
0100
0000
0000
0001
0000
0000
0100
0000
0000
1000
0000
,
0001
0010
0100
1000
0001
0100
00M0
0100
1000
0001
0100
0000
0010
1000
0001
0010
,
0100
0000
1000
0000
0100
1000
0000
0000
0010
0000
0000
0001
0010
0000
0100
0000
,
0101
0000
0001
1001
1000
0000
1010
0020
,
0130
0000
0001
0000
0100
0001
0000
0000
0010
0000
0000
1000
0010
0000
0100
0000
,
1100
0000
1000
1001
0001
0000
0011
0000
,
1000
0100
1001
1000
0001
0100
1001
0001
,
1000
0010
1001
1000
0001
0100
1001
1000
,
0001
0010
0100
0010
0001
1000
0010
0100
0010
1000
0001
0100
0010
1000
0100
0010
,
0001
0000
0000
0000
0000
0000
1001
0100
,
0110
0000
0000
0000
1000
0000
0001
0000
0010
0000
010M
M100
0100
0100
0100
0100
,
0001
0000
M100
010M
0100
0100
0100
0100
1000
0000
0010
0000
0002
0000
0003
0000
,
0110
0000
0000
0000
0001
0000
1000
0000
0010
0000
M100
010M
0100
0100
0100
0100
,
1000
0000
010M
M100
0100
0100
0100
0100
0001
0000
0010
0000
1000
0000
0010
0100
,
0110
0000
0000
0000
0001
0000
1000
0000
0100
0000
M010
001M
0010
0010
0010
0010
,
1000
0000
001M
M010
0010
0010
0010
0010
0001
0000
0100
0000
1000
0000
0100
0000
,
0110
0000
1000
0001
0101
0000
0001
1000
,
1100
0000
0000
0000
0011
0000
0001
0100
0010
0000
1010
0000
1000
0000
0000
0000
,
0110
0000
0000
0000
0001
0000
1000
0000
0001
0010
0100
1000
0001
0010
0100
1000
,
0001
0010
0100
1000
0001
0010
0100
1000
0010
0100
0001
1000
0100
0000
0100
0000
,
0110
0000
0000
0000
1000
0000
0001
0000
1000
0010
0100
0001
1000
0010
0100
0001
,
0010
0001
0100
0010
1000
0001
0100
0010
2000
0000
3000
0000
0002
0000
0003
0000
,
0110
0000
0000
0000
0001
0000
1000
0000
0001
0100
0010
1000
0001
0100
0010
1000
,
0100
1000
0010
0100
0001
1000
0010
0100
0002
0000
0003
0000
2000
0000
3000
0000
,
0110
0000
0001
1000
1100
0000
1000
0001
,
0101
0000
0000
0000
1010
0000
1000
0100
0010
0000
0011
0000
0002
0000
0000
0000
,
1003
0000
0000
0010
1000
0000
0100
0000
0010
0000
0000
1000
0010
0000
0000
0000
,
0110
0000
0100
1000
0010
0000
0110
0000
0100
0000
0000
0001
0010
0000
0100
1000
,
0001
0000
0000
0010
0001
0000
0100
0000
0010
0000
0000
0001
0010
0000
0000
0000
,
0110
0000
0100
0001
0010
0000
0110
0000
0100
0000
0000
1000
0010
0000
0100
0000
,
0001
0100
0010
0000
1010
0000
0001
0000
1000
0010
0100
0000
0101
0000
1000
0000
,
0001
0010
0100
0000
1100
0000
0001
0000
1000
0100
0010
0000
0011
0000
1000
0000
,
0010
0100
0001
0010
0001
1000
0100
1000
0010
0100
0001
0100
1000
0100
0010
1000
,
0001
0000
0000
0000
0000
0000
1001
0100
,
0110
0000
0000
0000
0000
0000
0001
0000
0000
1000
0000
0000
010M
0000
M100
0000
0100
0000
0100
0000
0001
0000
1000
0000
,
0010
0000
0000
0000
0100
0000
0000
0000
0100
0000
0000
0000
0100
0000
0000
0000
0000
0000
0001
0000
0000
0000
0000
0000
2010
0000
0000
0000
0000
0000
0000
0000
0000
0000
0000
0000
3200
0000
0000
0000
0000
0000
0000
0000
0000
0300
0000
0000
,
0110
0000
0001
0010
0100
1000
1000
0010
,
0100
0000
0001
0000
0001
0000
0010
0000
1000
0000
0010
0000
0001
1000
0010
0000
,
0110
0000
0000
0000
0000
0000
1000
0000
0000
0001
0000
0000
M100
0000
010M
0000
0100
0000
0100
0000
1000
0000
0001
0000
,
0010
0000
0000
0000
0100
0000
0000
0000
0100
0000
0000
0000
0100
0000
0000
0000
0000
0000
1000
0000
0000
0000
0000
0000
0012
0000
0000
0000
0000
0000
0003
0000
0000
0000
0000
0000
2000
0000
0000
0000
0000
0000
0000
0000
0000
3000
0000
0000
,
0110
0000
0001
0100
1010
0000
1000
0100
,
0011
0000
0000
0000
1100
0000
1000
0010
0100
0000
0101
0000
0001
0000
0000
0000
,
0110
0000
0000
0000
1000
0000
0001
0000
0201
0000
0010
0000
0010
0000
1000
0300
,
1200
0000
0010
0000
0010
0000
0301
0000
1001
0000
1000
0000
0200
0000
0000
0300
,
0110
0000
0000
0000
0001
0000
1000
0000
1200
0000
0010
0000
0010
0000
0001
0300
,
0201
0000
0010
0000
0010
0000
1300
0000
1001
0000
0001
0000
1000
0010
0100
0001
,
0020
0000
0000
0000
0000
0000
0031
0000
0000
1000
0000
0000
001M
0000
M010
0000
0010
0000
0010
0000
0001
0000
0100
0000
,
1000
0000
0100
0000
0100
0000
0001
0000
0102
0000
0003
0000
2000
0000
0000
3000
,
0110
0000
1000
0100
0011
0000
0001
0100
,
1010
0000
0000
0000
0101
0000
0001
0010
0100
0000
1100
0000
2000
0000
0000
0000
,
3001
0000
1000
0001
0101
0000
1000
0000
,
0001
0000
1000
0001
0101
0000
0010
0000
,
1001
0000
0001
1000
1100
0000
0001
0000
,
1000
0000
0000
0000
0001
0000
1000
0000
1100
0000
0000
0000
0100
0010
0001
1000
,
0010
0000
0100
0010
1010
0000
0100
0000
,
0010
0000
0100
0010
1010
0000
0001
0000
,
0010
0000
0100
0010
0011
0000
0100
0000
,
0010
0000
0000
0000
0100
0000
0010
0000
0011
0000
0000
0000
1000
0010
0100
0001
,
0010
0000
0000
0000
;
