#TITLE:Virus Funk;
#SUBTITLE:;
#ARTIST:Nhato;
#TITLETRANSLIT:;
#SUBTITLETRANSLIT:;
#ARTISTTRANSLIT:;
#GENRE:Progressive disco;
#CREDIT:tikal.;
#MUSIC:virusfunk.ogg;
#BANNER:;
#BACKGROUND:;
#CDTITLE:;
#SAMPLESTART:34.075;
#SAMPLELENGTH:29.091;
#SELECTABLE:YES;
#OFFSET:0.470;
#BPMS:0.000=132.000;
#STOPS:;
#BGCHANGES:;
#FGCHANGES:;

//--------------- dance-single - tikal. ----------------
#NOTES:
     dance-single:
     tikal.:
     Challenge:
     10:
     0,0,0,0,0:
0000
0000
0000
0000
,
0000
0000
0000
0000
,
0000
0000
0000
0000
,
0000
0000
0000
0000
,
0000
0000
0000
0000
,
1100
1001
0000
0000
0101
1001
0000
0000
,
1010
0000
0000
0000
1001
0000
0000
0011
0000
0010
0100
1000
0001
1000
0010
0000
,
0101
1001
0000
0000
1100
1001
0000
0000
,
0002
0023
0230
2300
,
3010
0000
2000
0000
3200
0000
0302
0000
1003
0001
0200
0000
2300
0000
3002
0000
,
0013
0000
0002
0000
0203
0000
2300
0000
3001
1000
0100
0010
0100
0000
0001
1000
,
0001
0000
2000
0000
3200
0000
0320
0000
1030
0001
2000
0000
3020
0000
0230
0000
,
1300
0000
0002
0000
0203
0000
0310
0000
0010
0000
0010
0000
1000
0010
0100
0001
,
0010
0000
0002
0000
0203
0000
2300
0000
3001
1000
0200
0000
0302
0000
2003
0000
,
3010
0000
2000
0000
3200
0000
0302
0000
1003
0001
0100
0010
0100
0000
1000
0001
,
1000
0000
0000
0000
0000
1010
0000
0000
0000
0011
0000
0000
0000
0000
2002
0000
0000
0000
0000
0000
0000
3003
0000
0000
,
2000
3002
2003
3002
,
2003
0100
3002
0100
2003
0010
3002
0010
,
1003
0010
0001
0100
1000
0000
1001
0000
,
0110
0000
0000
0000
0002
0000
0000
0000
1003
0100
1000
0100
0010
0001
0010
0001
,
1000
0000
0010
1000
0100
0000
0001
0000
1000
0001
0100
0000
0020
0000
0000
0000
,
0032
0000
0000
0000
1003
0100
0010
0001
1000
0010
1000
0010
0100
0001
0100
0001
,
0010
0100
0010
0100
1000
0001
1000
0001
1000
0010
0100
0001
0010
0000
0000
0000
,
0210
0000
0000
0000
2300
0000
0000
0000
3001
0100
0001
0100
0010
1000
0010
1000
,
0001
0000
0010
0001
0100
0000
1000
0000
0001
1000
0100
0000
0020
0000
0000
0000
,
2030
0000
0000
0000
3001
0100
0010
1000
0001
0010
0100
1000
0010
0100
0001
1000
,
0200
0000
0001
0000
1000
0000
0010
0300
,
1001
0000
2000
0000
3020
0000
0032
0000
1003
0000
0001
0010
0200
0000
0302
0000
,
1003
0000
0002
0000
0023
0000
2030
0000
3001
1000
0010
0100
0010
0000
0001
1000
,
0001
0000
2000
0000
3020
0000
0230
0000
1300
0000
0001
1000
0200
0000
0320
0000
,
1030
0000
0002
0000
0023
0000
0130
0000
0100
0000
0110
0000
1000
0100
0010
0001
,
0100
0000
0002
0000
0023
0000
2030
0000
3001
0000
1000
0001
0200
0000
2300
0000
,
3001
0000
2000
0000
3020
0000
0032
0000
1003
0001
0010
0100
0010
0000
1000
0001
,
1000
0000
0000
0000
0000
1100
0000
0000
0000
0101
0000
0000
0000
0000
2002
0000
0000
0000
0000
0000
0000
3003
0000
0000
,
2000
3002
2003
3002
,
0103
0000
0000
0000
0100
0000
0020
0000
2030
0000
0000
3002
0000
0000
0023
0000
,
0100
0100
0100
1000
,
0100
0000
0000
0000
0100
0000
0000
0000
0031
0000
2000
0000
0000
3200
0000
0000
,
2300
0001
0001
0100
,
3020
0000
0000
0000
0130
0000
0002
0000
2003
0000
0000
3200
0000
0000
0320
0000
,
0100
0100
0100
0001
,
0100
0000
0130
2000
0000
3002
0203
0302
,
0203
1000
0320
0001
,
1030
0000
1000
0000
0100
0000
0100
0000
0010
0000
0010
0000
0001
0100
0010
1000
,
0100
0000
0000
0000
0000
1100
0000
0000
0000
0101
0000
0000
0000
0000
2002
0000
0000
0000
0000
0000
0000
3003
0000
0000
,
0002
0100
2003
0100
3002
0010
2003
0010
,
3001
0010
0001
0010
0100
1000
0100
1000
0010
0100
0010
0100
0001
1000
0001
1000
,
0001
0010
1000
0100
0001
0000
1001
0000
,
0110
0000
0000
0000
2000
0000
0000
0000
3001
1000
0100
0010
0001
1000
0010
0100
,
0002
0000
1003
0010
1000
0000
0200
0000
0310
1000
0010
0000
0001
0100
0010
1000
,
0000
0000
1010
0000
0001
0010
0100
1000
0000
0000
0020
0000
2030
0000
0100
0000
,
3002
0000
0100
0000
2003
0000
0100
0000
3001
0100
0010
0100
0000
0010
1000
0001
,
0010
0000
0000
0000
0210
0000
0000
0000
2300
0000
3001
0100
0001
1000
0010
0100
,
0001
0000
0000
0000
0000
0000
0010
0000
0000
0002
0000
0000
0000
0000
0000
0203
0000
0000
0000
0000
0000
0310
0000
0000
2000
0000
0000
0000
0000
0000
3001
0000
0010
0000
0100
0000
1000
0000
0000
0001
0000
0000
0100
0000
0000
0010
0000
0000
,
0100
0001
1000
0010
0100
0001
0010
0200
0000
0310
0100
0010
0001
1000
0010
0200
,
1000
0000
0000
0000
0000
0000
0000
0000
0000
0010
0000
0000
0000
0000
0000
0000
0000
0000
0301
0000
1000
0000
0100
0000
0010
0000
0000
0000
0000
0000
0001
0000
1000
0000
0010
0000
0100
0000
0000
0000
0000
0000
0000
0000
0000
0000
0000
0000
,
1001
0000
0000
0000
0002
0000
0000
0000
1003
0010
1000
0010
0100
0001
0100
0001
,
1000
0000
0100
1000
0010
0000
0001
0000
1000
0001
0010
0000
0200
0000
0000
0000
,
0302
0000
0000
0000
1003
0010
0100
0001
1000
0100
1000
0100
0010
0001
0010
0001
,
0100
0010
0100
0010
1000
0001
1000
0001
1000
0100
0010
0001
0100
0000
0000
0000
,
0120
0000
0000
0000
2030
0000
0000
0000
3001
0010
0001
0010
0100
1000
0100
1000
,
0001
0000
0100
0001
0010
0000
1000
0000
0001
1000
0010
0000
0100
0000
0100
0000
,
1000
0100
1000
0100
0010
0001
0010
0001
0100
0010
0100
0010
1000
0001
1000
0001
,
0010
0000
0000
0000
0010
0000
0000
0000
0110
0000
0000
1100
0000
0000
0101
0000
,
1000
0000
0010
0000
0100
0000
0001
0000
0010
0100
0010
0100
1000
0010
0100
0001
,
0010
0000
0000
0000
;
