#VERSION:0.83;
#TITLE:Ticket to Bombay;
#SUBTITLE:;
#ARTIST:Jena Rose;
#TITLETRANSLIT:;
#SUBTITLETRANSLIT:;
#ARTISTTRANSLIT:;
#GENRE:Symphonic techno;
#CREDIT:;
#MUSIC:ticket.ogg;
#BANNER:bn.png;
#BACKGROUND:bg.png;
#CDTITLE:;
#SAMPLESTART:54.625;
#SAMPLELENGTH:15.000;
#SELECTABLE:YES;
#OFFSET:-1.659;
#BPMS:0.000=145.000;
#STOPS:;
#DISPLAYBPM:145.000;
#BGCHANGES:;
#FGCHANGES:;

//--------------- dance-single - tikal. ----------------
#NOTEDATA:;
#STEPSTYPE:dance-single;
#DESCRIPTION:tikal.;
#DIFFICULTY:Challenge;
#METER:10;
#RADARVALUES:0,0,0,0,0;
#NOTES:
0000
0000
0000
0000
,
0000
0000
0000
0000
,
0000
0000
0000
0000
,
0001
0100
0001
0100
0010
1000
0010
1000
0001
0010
0001
0010
0100
1000
0100
1000
,
0001
0000
0001
0000
0001
0000
0001
1000
,
0100
0000
0100
0000
0100
0000
0100
0010
,
0001
0001
1000
1000
,
0001
0000
1000
0000
0001
0000
0000
0000
1000
0000
0000
0000
0010
0000
0100
0001
,
1000
0000
0001
0100
0010
0010
0100
0001
,
0000
0010
0100
0100
0100
0000
1000
1000
,
0001
0000
1000
0100
0010
0010
0100
1000
,
0000
0000
0001
0000
0100
0000
0100
0000
0100
0000
0000
0000
0110
0000
0010
1000
,
0001
0000
0000
0000
1000
0000
0010
0000
0100
0000
0100
0000
0010
0000
1000
0001
,
1000
0000
0100
0000
0010
0000
0010
0000
0010
0000
0000
0000
0001
0000
1000
0001
,
1000
0000
0000
0000
0001
0000
0010
0000
0100
0000
0100
0000
0010
0000
0001
1000
,
0001
0100
0001
0100
0010
1000
0010
1000
0001
0010
0001
0010
0100
1000
0100
1000
,
0001
0000
0100
0000
0101
0000
0000
0000
0001
0000
1000
0000
0100
0000
0010
0100
,
1000
0000
0100
0000
1100
0000
0001
0000
0001
0000
0000
0000
0101
0000
1000
0001
,
1000
0000
0000
0000
1010
0000
0010
0000
1000
0000
0001
0000
0010
0000
0100
0010
,
0001
0000
0010
0000
0011
0000
1000
0000
1000
0000
0010
0000
1010
0000
0001
1000
,
0001
0000
0010
0000
0011
0000
0010
0000
0001
0000
1000
0000
0010
0000
0100
0010
,
1000
0000
0010
0000
1010
0000
0001
0000
0001
0000
0000
0000
0011
0000
1000
0001
,
1000
0000
0000
0000
1100
0000
0100
0000
1000
0000
0001
0000
0100
0000
0010
0100
,
0001
0000
0100
0000
0101
0000
1000
0000
1000
0000
0100
0000
1100
0000
0001
1000
,
0002
0000
0000
0000
,
2003
0000
0000
0000
,
3200
0000
0000
0000
,
0320
0000
0000
0000
0000
0000
0000
0031
,
1000
0001
0000
0101
0000
1010
0000
1000
,
0001
0000
1000
0000
0000
0000
1100
0000
0000
0000
0011
0000
0000
0000
0001
1000
,
0001
0000
0100
0000
0000
0000
1010
0000
0000
0000
1001
0000
0000
0000
1000
0001
,
1000
0100
1000
0100
0010
0001
0010
0001
1000
0010
1000
0010
0100
0001
0100
0001
,
1000
0100
1100
0000
0010
0000
0001
0100
,
0001
1000
0001
0000
0010
0000
0100
1000
,
1000
0000
1010
0000
0100
0001
1000
0001
,
0010
0001
0010
0001
1000
0010
1000
0010
0100
0001
0100
0001
1000
0100
1000
0100
,
0010
0000
0001
0000
0011
0000
0100
0000
1000
0000
1000
0000
0010
0000
0100
0010
,
1000
0000
0001
0000
0011
0000
0100
0000
0100
0000
0000
0000
1010
0000
1000
0001
,
1000
0000
0000
0000
1100
0000
0010
0000
0001
0000
0100
0000
0010
0000
0100
0010
,
1000
0000
0100
0000
1100
0000
0010
0000
0010
0000
0001
0000
0101
0000
0001
1000
,
0001
0000
0100
0000
0101
0000
0010
0000
1000
0000
1000
0000
0100
0000
0010
0100
,
1000
0000
0001
0000
0101
0000
0010
0000
0010
0000
0000
0000
1100
0000
1000
0001
,
1000
0000
0000
0000
1010
0000
0100
0000
0001
0000
0010
0000
0100
0000
0010
0100
,
1000
0000
0010
0000
1010
0000
0100
0000
0100
0000
0001
0000
0011
0000
0001
1000
,
0001
0000
0010
0000
0011
0000
0100
0000
1000
0000
1000
0000
0010
0000
0100
0010
,
1000
0000
0001
0000
0011
0000
0100
0000
0100
0000
0000
0000
1010
0000
1000
0001
,
1000
0000
0000
0000
1100
0000
0010
0000
0001
0000
0100
0000
0010
0000
0100
0010
,
1000
0010
1000
0010
0100
0001
0100
0001
1000
0100
1000
0100
0010
0001
0010
0001
,
1000
0000
0010
0000
1010
0000
0100
0000
0001
0000
0001
0000
0010
0000
0100
0010
,
0001
0000
1000
0000
1010
0000
0100
0000
0100
0000
0000
0000
0011
0000
0001
1000
,
0001
0000
0000
0000
0101
0000
0010
0000
1000
0000
0100
0000
0010
0000
0100
0010
,
0001
0000
0100
0000
0101
0000
0010
0000
0010
0000
1000
0000
1100
0000
1000
0001
,
1000
0000
0100
0000
1100
0000
0010
0000
0001
0000
0001
0000
0100
0000
0010
0100
,
0001
0000
1000
0000
1100
0000
0010
0000
0010
0000
0000
0000
0101
0000
0001
1000
,
0001
0100
0001
0100
0010
1000
0010
1000
0001
0010
0001
0010
0100
1000
0100
1000
,
0001
0001
0100
0001
0000
1000
1100
2002
,
0000
0000
3003
0000
;
