#TITLE:The Windmill Song;
#ARTIST:小沢純子;
#ARTISTTRANSLIT:Junko Ozawa;
#GENRE:Celt;
#CREDIT:tikal.;
#MUSIC:The Windmill Song.ogg;
#BANNER:The Windmill Song.png;
#BACKGROUND:The Windmill Song-bg.png;
#CDTITLE:cdtitle.png;
#SAMPLESTART:58.264;
#SAMPLELENGTH:15.12;
#OFFSET:-0.415;
#BPMS:0=125;
#TIMESIGNATURES:0=3=4,18=4=4,22=5=4,32=3=4,53=5=4,118=3=4,142=5=4,152=3=4,218=5=4,223=3=4;
#ORIGIN:Klonoa\: Door to Phantomile;
#BGCHANGES:;
#FGCHANGES:;

//--------------- dance-single - tikal. ----------------
#NOTES:
     dance-single:
     tikal.:
     Hard:
     9:
     0,0,0,0,0:
0000
0000
0000
0000
,
0000
0000
0000
0000
,
0000
0000
0000
0000
0000
0000
0000
0000
0000
0000
0000
0000
0000
0000
0000
1000
,
0010
0000
0010
0100
0000
0001
0000
1000
0000
0001
0000
0010
0000
0100
0000
0001
,
0000
0100
0000
1000
0000
0001
0000
0001
0100
0000
0100
0010
0000
1000
0000
0001
,
0000
1000
0000
0100
0000
0010
0000
0001
0000
1000
0010
0100
0001
0000
1000
0000
,
1000
0000
0001
0010
0100
1000
0000
0001
0000
0001
0000
1000
0100
0010
0001
0000
,
1000
0000
1000
0000
0020
0000
0000
0000
0000
0000
0000
0000
0030
0000
1000
0100
,
0010
0000
0000
0010
0000
0000
0001
0000
0010
0000
0100
0000
1000
0001
0000
0001
,
0000
0000
1000
0000
1000
0000
0001
0100
0010
0000
0000
0010
0000
0000
1000
0000
,
0010
0000
0100
0000
0001
1000
0000
1000
0000
0000
0001
0000
0001
0000
1000
0010
,
0100
0000
0000
0100
0000
0000
0001
0000
1000
0000
0100
0000
1000
0001
0000
0001
,
0000
0000
1000
0000
1000
0000
0001
0010
0100
0000
0000
0100
0000
0000
1000
0000
,
0001
0000
0100
0000
0002
0010
0000
0010
0003
0000
0100
0000
1000
0000
0002
0100
,
0000
0100
0003
0010
1000
0000
1000
0000
0200
0010
0000
0010
0300
0000
0001
1000
,
0001
0000
0200
0010
0000
0010
0300
1000
0001
0000
0001
0000
2000
0100
0000
0100
,
3000
0000
0010
0000
0001
0000
2000
0010
0000
0010
3000
0100
0001
0000
0001
0000
,
0020
0100
0000
0100
0030
0000
1000
0001
1000
0000
0020
0100
0000
0100
0030
0001
,
1000
0000
1000
0000
0001
0010
0000
0100
0000
0001
0100
0000
0010
0000
0001
0100
,
0000
0010
0000
1000
0010
1000
0001
0000
1000
0100
0000
0010
0000
1000
0010
0000
,
0100
0000
1000
0010
0000
0100
0000
0001
0100
0010
1000
0000
0001
0010
0001
0010
,
0000
0100
1000
0000
0001
0000
1000
0010
1000
0010
0000
0100
0001
1000
0001
0000
,
1000
0100
1000
0100
0000
0010
0001
0000
1000
0000
0001
0100
0001
0100
0000
0010
,
1000
0001
1000
0000
0200
0000
0000
0010
0000
0000
1300
0001
1000
0000
0020
0000
,
0000
0100
0000
1030
0001
0000
0001
0000
0020
0000
0000
0100
0000
0031
1000
0000
,
1000
0000
0001
0100
0000
0010
0000
0000
1010
0000
1010
0000
1000
0100
0000
0010
,
0000
0000
0011
0000
0011
0000
0001
1000
0000
0010
0000
0000
0110
0000
0110
0000
,
1000
0001
0000
0010
0000
0000
0110
0000
0110
0000
1000
0100
0000
0010
0000
0001
,
0100
0010
0100
0000
0001
0010
0000
0100
0000
1000
0010
0100
0010
0000
0100
0001
,
0000
0010
0000
0100
1000
0010
1000
0000
0100
1000
0000
0010
0000
0100
0001
0000
,
1001
0000
1000
0010
0100
0000
0000
0100
0000
0000
0001
0000
0100
0000
0010
0000
,
1000
0001
0000
0001
0000
0000
1000
0000
1000
0000
0001
0010
0100
0000
0000
0100
,
0000
0000
1000
0000
0100
0000
0010
0000
0001
1000
0000
1000
0000
0000
0001
0000
,
0001
0000
1000
0100
0010
0000
0000
0010
0000
0000
0001
0000
1000
0000
0010
0000
,
1000
0001
0000
0001
0000
0000
1000
0000
1000
0000
0001
0100
0010
0000
0000
0010
,
0000
0000
1000
0000
0001
0000
0010
0000
0002
0100
0000
0100
0003
0001
0100
0000
,
0010
0000
2000
0100
0000
0100
3000
1000
0100
0000
0100
0000
0020
0100
0000
0100
,
0000
0031
1000
0001
1000
0000
0020
0100
0000
0100
0000
1030
0001
0000
0001
0000
,
1000
0000
0001
0000
0000
0001
0000
0000
0100
0000
0000
0010
0000
0000
1000
0000
,
0000
0100
0000
0010
0100
0000
0000
1000
0000
0000
0001
0000
0000
0100
0000
0000
,
1000
0000
0000
0100
0000
0000
0010
0000
0000
1000
0000
0100
0010
0000
0000
0001
,
0000
0000
1000
0000
0000
0100
0000
0001
0100
0000
0000
1000
0000
0001
0010
0000
,
0000
0100
0000
0000
1000
0000
0000
0001
0000
0000
0100
0000
0000
1000
0000
0000
,
0010
0000
0000
0001
0000
0000
0100
0000
0000
0010
0000
0000
2002
0000
0000
0000
,
3003
0000
0001
0010
0001
0010
0000
0100
2000
0000
0001
0000
3001
0000
1000
0010
,
1000
0010
0000
0100
0002
0000
1000
0000
1003
0000
0001
0010
0100
0010
0000
0001
,
2000
0000
0100
0000
3100
0000
1000
0010
0100
0010
0000
1000
0002
0000
0100
0000
,
0103
0000
0001
1000
0100
0010
0000
0001
0100
0000
0101
0000
0101
0000
1000
0001
,
0010
0100
0000
1000
0100
0000
1100
0000
1100
0000
0001
0100
0001
1000
0100
1000
,
0010
0000
0110
0000
0110
0000
1000
0100
1000
0001
0100
0001
0010
0000
0110
0000
,
0110
0000
0001
0100
0000
0100
0010
0000
1000
0000
0001
0000
1000
0000
0100
0000
,
0010
0000
1000
0000
0010
0000
0001
0000
1000
0000
1000
0100
0000
0100
0001
0000
,
0100
0010
0001
1000
0010
0100
1000
0100
,
0001
0000
0001
0010
0000
0010
0100
0000
1000
0000
0001
0000
1000
0000
0010
0000
,
0100
0000
1000
0000
0100
0000
0001
0000
1000
0000
1000
0100
0000
0100
0010
0000
,
0001
0000
1000
0000
0001
0000
0100
0000
0010
0000
1000
0000
0001
0010
0100
1000
,
0000
0001
0000
0001
0000
1000
0010
0100
0001
0000
1000
0000
1000
0000
0001
0100
,
0010
1000
0000
0001
0000
0001
0000
0020
0000
0000
0000
0000
0000
0000
0000
0030
;

//--------------- dance-single - tikal. ----------------
#NOTES:
     dance-single:
     tikal.:
     Challenge:
     10:
     0,0,0,0,0:
0000
0000
0000
0000
,
0000
0000
0000
0000
,
0000
0000
0000
0000
0000
0000
0000
0000
0000
0000
0000
0000
0000
0000
0000
1000
,
0100
0000
0000
M000
0100
0000
0001
0000
0000
0000
1000
0000
0000
0000
0010
0000
0000
0000
1000
0000
0000
0000
0001
0000
0000
0000
0100
0000
0000
0000
1000
0000
,
0000
0000
0100
0000
0000
0000
0001
0000
0000
0000
0010
0000
0000
0000
0001
0000
0100
0000
0000
000M
0100
0000
1000
0000
0000
0000
0001
0000
0000
0000
0010
0000
,
0000
0000
0000
0001
0000
0000
0000
0000
0000
0100
0000
0000
0000
0000
0000
0010
0000
0000
0000
0000
0000
1000
0000
0000
0000
0000
0000
0001
0000
0000
1000
0000
0010
0000
0100
0000
0001
0000
0000
0010
0000
0000
0001
0000
0000
1000
0000
0000
,
0001
0000
0000
0100
0000
0000
0001
0000
0000
1000
0000
0100
0000
0010
0000
0001
0000
0000
1000
0000
0000
0010
0000
0000
1000
0000
0000
0100
0000
0000
1000
0000
0000
0001
0000
0000
1000
0000
0010
0000
0100
0000
0001
0000
0000
0010
0000
0000
,
0001
1000
0001
0100
0002
0000
0000
0000
0000
0000
0000
0000
0003
0000
1000
0100
,
0010
0001
0000
0100
00M0
0100
1000
0000
0010
0000
0100
0000
0001
0010
0M00
0010
,
0000
1000
0001
0000
0010
0000
0100
0010
0001
0100
00M0
0100
0000
1000
0010
0000
,
0100
0000
0001
0000
0010
0100
0000
1000
0000
1000
0001
0000
0100
0000
0001
0010
,
0100
1000
0000
0010
0M00
0010
0001
0000
0100
0000
0010
0000
1000
0100
00M0
0100
,
0000
0001
1000
0000
0100
0000
0010
0100
1000
0010
0M00
0010
0000
0001
0100
0000
,
0010
0000
1000
0000
0002
0010
0000
0010
0000
0013
0100
1000
0001
0000
2000
0010
,
0000
0010
0000
3010
0100
0001
1000
0000
0020
0100
0000
0100
0000
0130
0001
1000
,
0100
0000
0020
0100
0000
0100
0000
0130
1000
0001
0100
0000
0002
0010
0000
0010
,
0000
1003
0100
0010
0001
0000
2000
0010
0000
0010
0000
3001
0100
0010
1000
0000
,
0200
0010
0000
0010
0000
1300
0100
0010
0001
0000
0200
0010
0000
0010
0000
0301
,
0100
0000
0010
0000
0100
0000
0010
0000
1000
0000
0010
0000
0000
00M0
0001
0000
0000
0000
0100
0000
0010
0000
1000
0000
0100
0000
0000
0000
0010
0000
0001
0000
,
0000
000M
0100
0000
0000
0000
1000
0000
0010
0000
1000
0000
0001
0000
0000
0000
1000
0000
0100
0000
0000
0M00
0001
0000
0000
0000
0010
0000
0100
0000
1000
0000
,
0010
0000
0000
0000
0000
0000
0000
0000
0000
0000
0000
0000
0100
0000
0000
0000
0000
0000
0001
0000
0000
0000
0000
0000
0000
0000
0000
000M
0000
0000
0010
0000
0000
0000
0000
0000
0000
0000
0000
0000
0000
0000
1000
0000
0000
0000
0000
0000
0100
0000
0000
0000
0000
0000
0010
0000
0000
0000
0000
0000
0001
0000
0000
0000
0000
0000
0000
0000
0000
0000
0000
0000
1000
0000
0000
0000
0010
0000
0000
0000
1000
0000
0000
0000
0010
0000
0000
0000
0000
0000
0100
0000
0000
0000
0000
0000
,
0000
0000
0000
0M00
0000
0000
1000
0000
0000
0000
0000
0000
0001
0000
0000
0000
0000
0000
1000
0000
0000
0000
0000
0000
0100
0000
0000
0000
0000
0000
0000
0000
0000
0M00
0000
0000
0001
0000
0000
0000
0010
0000
0000
0000
0001
0000
0000
0000
0010
0000
0000
0000
0000
0000
0100
0000
0000
0000
0000
0000
0000
0000
0000
0M00
0000
0000
0001
0000
0000
0000
0000
0000
0100
0000
0000
0000
0000
0000
0010
0000
0000
0000
0000
0000
1000
0000
0000
0000
0000
0000
0001
0000
0000
0000
0000
0000
,
1000
0000
0000
0000
0100
0000
0000
0000
1000
0000
0000
0000
0100
0000
0000
0000
0000
0000
0010
0000
0000
0000
0000
0000
0000
0000
0000
00M0
0000
0000
1000
0000
0000
0000
0000
0000
0001
0000
0000
0000
0000
0000
1000
0000
0000
0000
0000
0000
0010
0000
0000
0000
0000
0000
0000
0000
0000
00M0
0000
0000
0001
0000
0000
0000
0100
0000
0000
0000
0001
0000
0000
0000
0100
0000
0000
0000
0000
0000
0010
0000
0000
0000
0000
0000
0000
0000
0000
00M0
0000
0000
0001
0000
0000
0000
0000
0000
,
0010
0000
0000
0000
0000
0000
0100
0000
0000
0000
0000
0000
1000
0000
0000
0000
0000
0000
0001
0000
0000
0000
0000
0000
1000
0000
0000
0000
0010
0000
0000
0000
1000
0000
0000
0000
0010
0000
0000
0000
0000
0000
0000
0000
0000
0000
0000
0000
0100
0000
0000
0000
0001
0000
0000
0000
0100
0000
0000
0000
0001
0000
0000
0000
0000
0000
1000
0000
0000
0000
0000
0000
0010
0000
0000
0000
0000
0000
0000
0000
0000
00M0
0000
0000
0001
0000
0000
0000
0010
0000
0000
0000
0001
0000
0000
0000
,
0010
0000
0000
0000
0000
0000
0000
0000
0000
0000
0000
0000
0100
0000
0000
0000
1000
0000
0000
0000
0100
0000
0000
0000
1000
0000
0000
0000
0000
0000
0001
0000
0000
0000
0000
0000
0010
0000
0000
0000
0000
0000
0000
0000
0000
00M0
0000
0000
1000
0000
0000
0000
0001
0000
0000
0000
1000
0000
0000
0000
0001
0000
0000
0000
0000
0000
0000
0000
0000
0000
0000
0000
0100
0000
0000
0000
0010
0000
0000
0000
0100
0000
0000
0000
0010
0000
0000
0000
0000
0000
1000
0000
0000
0000
0000
0000
,
0001
0000
0000
0000
1000
0000
0100
0000
0000
0000
0010
0000
0000
00M0
1000
0000
0100
0000
00M0
0000
0100
0000
0000
0000
0001
0000
0100
0000
0000
0000
0010
0000
,
0000
00M0
0001
0000
0100
0000
0100
0000
0100
0000
0000
0000
0001
0000
1000
0000
0000
0000
0010
0000
0000
00M0
0001
0000
0100
0000
0010
0000
0100
0000
0000
0000
,
0001
0000
0000
0000
0000
0000
1000
0000
0000
0000
0000
0000
0000
0000
0000
0000
0000
0000
0100
0000
0000
0000
0000
0000
0000
0000
0000
0M00
0000
0000
0001
0000
0000
0000
0000
0000
0010
0000
0000
0000
0000
0000
0M00
0000
0000
0000
0000
0000
0010
0000
0000
0000
0000
0000
0000
0000
0000
0000
0000
0000
1000
0000
0000
0000
0010
0000
0000
0000
1000
0000
0000
0000
0001
0000
0000
0000
0000
0000
0010
0000
0000
0000
0000
0000
0000
0000
0000
00M0
0000
0000
1000
0000
0000
0000
0000
0000
,
0100
0000
0000
0000
0000
0000
0100
0000
0000
0000
0000
0000
0100
0000
0000
0000
0000
0000
0000
0000
0000
0000
0000
0000
1000
0000
0000
0000
0010
0000
0000
0000
0100
0000
0000
0000
0001
0000
0000
0000
0000
0000
0010
0000
0000
0000
0000
0000
0000
0000
0000
00M0
0000
0000
1000
0000
0000
0000
0000
0000
0100
0000
0000
0000
0000
0000
00M0
0000
0000
0000
0000
0000
0100
0000
0000
0000
0000
0000
0000
0000
0000
0000
0000
0000
0001
0000
0000
0000
0010
0000
0000
0000
0001
0000
0000
0000
,
1000
0000
0000
0000
0000
0000
0010
0000
0000
0000
0000
0000
0000
0000
0000
00M0
0000
0000
0001
0000
0000
0000
0000
0000
0100
0000
0000
0000
0000
0000
0100
0000
0000
0000
0000
0000
0100
0000
0000
0000
0000
0000
0000
0000
0000
0000
0000
0000
0001
0000
0000
0000
0010
0000
0000
0000
0100
0000
0000
0000
1000
0000
0000
0000
0000
0000
0010
0000
0000
0000
0000
0000
0000
0000
0000
00M0
0000
0000
0001
0000
0000
0000
0000
0000
0100
0000
0000
0000
0000
0000
0000
0000
0000
0000
0000
0000
,
1001
0000
0001
0100
0010
1000
0000
0100
00M0
0100
0001
0000
0010
0000
0100
0000
,
1000
0010
0M00
0010
0000
0001
1000
0000
0010
0000
0100
0010
1000
0100
00M0
0100
,
0000
0001
0010
0000
0100
0000
1000
0000
0010
0100
0000
0001
0000
0001
1000
0000
,
0100
0000
1000
0010
0100
0001
0000
0010
0M00
0010
1000
0000
0100
0000
0010
0000
,
0001
0100
00M0
0100
0000
1000
0001
0000
0100
0000
0010
0100
0001
0010
0M00
0010
,
0000
1000
0100
0000
0010
0000
0001
0000
2000
0010
0000
0001
0000
3100
0010
0001
,
1000
0000
0002
0010
0000
1000
0000
0103
0010
1000
0001
0000
0020
1000
0000
0100
,
0000
0031
0010
0100
1000
0000
0020
0001
0000
0100
0000
1030
0010
0100
0010
0100
,
0001
1000
0100
0000
0010
0100
0000
1000
0100
0000
0010
000M
0010
0000
0100
0001
,
1000
0001
0000
0001
0100
0000
0010
M000
0010
0000
0100
0000
1000
0100
1000
0001
,
0100
0000
0010
1000
0010
0000
0100
0001
1000
0001
0100
1000
0100
0000
0010
M000
,
0010
0001
0100
0000
0010
0100
0000
0001
0100
0000
0010
M000
0010
0000
0100
1000
,
0001
1000
0000
1000
0100
0000
0010
000M
0010
0000
0100
0000
0001
0100
0001
1000
,
0100
0000
0010
0001
0010
0000
0100
1000
0001
1000
0100
0001
0100
0000
0010
000M
,
0010
0000
0000
1000
0000
0000
0001
0000
0100
0000
0001
0000
0100
0000
0000
0010
0000
0000
0M00
0000
0000
0010
0000
0000
0001
0000
0000
0000
0000
0000
1001
0000
0000
0000
0000
0000
1001
0000
0000
0000
0000
0000
1000
0000
0100
0000
1000
0000
,
0100
0000
0000
0010
0000
0000
0000
0000
0000
0001
0000
0000
0100
0000
0000
0000
0000
0000
0110
0000
0000
0000
0000
0000
0110
0000
0000
0000
0000
0000
1000
0000
0010
0000
1000
0000
0010
0000
0000
0100
0000
0000
00M0
0000
0000
0100
0000
0000
,
1000
0000
0000
0000
0000
0000
1001
0000
0000
0000
0000
0000
1001
0000
0000
0000
0000
0000
0001
0000
0010
0000
0001
0000
0010
0000
0000
0100
0000
0000
0000
0000
0000
1000
0000
0000
0010
0000
0000
0000
0000
0000
0110
0000
0000
0000
0000
0000
,
0110
0000
0000
0000
0000
0000
0000
0000
0000
0000
0000
0000
0001
0000
0000
0000
0100
0000
0000
0000
0010
0000
0000
0000
0100
0000
0000
0000
0000
0000
1000
0000
0000
0000
0000
0000
0000
0000
0000
M000
0000
0000
0010
0000
0000
0000
0000
0000
1000
0000
0000
0000
0000
0000
0000
0000
0000
0000
0000
0000
1001
0000
0000
0000
0000
0000
0000
0000
0000
0000
0000
0000
1001
0000
0000
0000
0000
0000
0000
0000
0000
0000
0000
0000
1000
0000
0000
0000
0100
0000
0000
0000
0010
0000
0000
0000
,
0100
0000
0000
0000
0000
0000
0001
0000
0000
0000
0000
0000
0000
0000
0000
000M
0000
0000
0010
0000
0000
0000
0000
0000
0001
0000
0000
0000
0000
0000
0000
0000
0000
0000
0000
0000
1000
0000
0000
0000
0001
0000
0000
0000
1000
0000
0000
0000
0001
0000
0000
0000
0000
0000
1000
0000
0000
0000
0000
0000
0001
0000
0000
0000
0010
0000
0000
0000
0100
0000
0000
0000
1000
0000
0000
0000
0000
0000
0010
0000
0000
0000
0000
0000
0100
0000
0000
000M
0000
0000
0100
0000
0000
0000
0000
0000
,
1000
0000
0000
0000
0000
0000
0000
0000
0000
0000
0000
0000
1001
0000
0000
0000
0000
0000
0000
0000
0000
0000
0000
0000
1001
0000
0000
0000
0000
0000
0000
0000
0000
0000
0000
0000
1000
0000
0000
0000
0010
0000
0000
0000
0100
0000
0000
0000
0001
0000
0000
0000
0000
0000
0010
0000
0000
0000
0000
0000
0100
0000
0000
M000
0000
0000
0100
0000
0000
0000
0000
0000
0001
0000
0000
0000
0000
0000
0000
0000
0000
0000
0000
0000
1000
0000
0000
0000
0001
0000
0000
0000
1000
0000
0000
0000
,
0001
1000
0001
0100
00M0
0100
1000
0000
0010
0000
0100
0000
0010
0000
1000
0000
,
0100
0000
1000
0000
0010
0000
0100
0000
0001
0000
1000
0100
00M0
0100
0001
0000
,
0010
0100
0010
0001
0100
0001
0010
0100
,
1000
0000
0000
0000
0001
0000
0010
0000
0000
000M
0010
0000
1000
0000
0000
0000
0001
0000
0000
0000
0100
0000
0000
0000
0001
0000
0000
0000
1000
0000
0000
0000
,
0010
0000
0000
0000
0001
0000
0000
0000
0010
0000
0000
0000
1000
0000
0000
0000
0100
0000
0000
0000
1000
0000
0010
0000
0000
M000
0010
0000
0001
0000
0000
0000
,
1000
0000
0000
0000
0000
0000
0100
0000
0000
0000
0000
0000
1000
0000
0000
0000
0000
0000
0010
0000
0000
0000
0000
0000
0100
0000
0000
0000
0000
0000
0001
0000
0000
0000
0000
0000
1000
0000
0000
0001
0000
0010
0000
0100
0000
1000
0000
0000
,
0010
0000
0000
1000
0000
0000
0001
0000
0000
1000
0000
0000
0100
0000
0000
1000
0000
0000
0001
0000
0100
0000
0010
0000
1000
0000
0000
0001
0000
0000
0010
0000
0000
0001
0000
0000
0100
0000
0000
0001
0000
0000
1000
0000
0000
0001
0000
0010
,
0000
0100
0000
1000
0000
0000
0010
0000
0000
1000
0000
0000
0001
0000
0000
1000
0000
0000
0100
0000
0000
2000
0000
0000
0000
0000
0000
0000
0000
0000
0000
0000
0000
0000
0000
0000
0000
0000
0000
0000
0000
0000
0000
0000
0000
3000
0000
0000
;
