#VERSION:0.83;
#TITLE:The Return;
#ARTIST:NIVIRO;
#CREDIT:tikal.+ as "banjokazoo";
#GENRE:Haunted big room house;
#BANNER:The Return.png;
#BACKGROUND:The Return-bg.png;
#CDTITLE:cdtitle.png;
#MUSIC:The Return.ogg;
#OFFSET:0.485;
#SAMPLESTART:80.14;
#SAMPLELENGTH:15;
#DISPLAYBPM:64:128;
#BPMS:0=64,36=128;
#TIMESIGNATURES:0=4=4;
#TICKCOUNTS:0=4;
#COMBOS:0=1;
#SPEEDS:0=1.000=0=0;
#SCROLLS:0=1;
#LABELS:0=Song Start;

//---------------dance-single - ----------------
#NOTEDATA:;
#CHARTNAME:;
#STEPSTYPE:dance-single;
#DESCRIPTION:tikal.+ as "banjokazoo";
#CHARTSTYLE:;
#DIFFICULTY:Easy;
#METER:5;
#RADARVALUES:0.265898,0.349537,0.034954,0.148553,0.061169,213.000000,209.000000,4.000000,17.000000,0.000000,0.000000,0.000000,0.000000,0.000000,0.265898,0.349537,0.034954,0.148553,0.061169,213.000000,209.000000,4.000000,17.000000,0.000000,0.000000,0.000000,0.000000,0.000000;
#CREDIT:tikal.+ as "banjokazoo";
#DISPLAYBPM:64.000000:128.000000;
#NOTES:
// measure 0
0000
0000
0000
0000
,  // measure 1
0000
0000
0000
0000
,  // measure 2
0000
0000
0000
0000
,  // measure 3
0001
0000
0000
0001
0000
0000
0010
0000
0100
1000
0000
0000
,  // measure 4
1000
0000
0010
0100
0000
0001
0010
0000
0010
0100
0000
0000
,  // measure 5
1000
0000
0000
1000
0000
0100
1000
0000
0010
0100
0000
0000
,  // measure 6
0001
0000
0000
0010
0000
0000
1000
0010
0100
1000
0000
0000
,  // measure 7
0001
0000
0010
0001
0000
0100
0001
0000
0010
0100
0000
0000
,  // measure 8
1000
0000
0100
0010
0000
0001
0100
0000
0100
0010
0000
0000
,  // measure 9
0000
0000
0000
0000
,  // measure 10
1000
0000
1000
0000
1000
0100
0010
0000
,  // measure 11
0010
0001
1000
0001
0200
0000
0300
0000
,  // measure 12
0010
0000
0010
0000
1000
0001
0000
0000
,  // measure 13
0010
0000
0010
0000
0001
1000
0100
0010
,  // measure 14
0001
0000
0001
0000
0001
0100
0010
0000
,  // measure 15
0010
1000
0001
1000
0200
0000
0300
0000
,  // measure 16
0010
0000
0010
0000
0001
1000
0000
0000
,  // measure 17
0010
0000
0010
0000
1000
0001
0100
0010
,  // measure 18
2000
0000
0001
0000
,  // measure 19
0100
0000
0001
0100
,  // measure 20
3002
0000
1000
0000
,  // measure 21
0100
0000
0000
0000
1003
0100
0010
0001
,  // measure 22
2000
0010
3002
0010
,  // measure 23
2003
0000
0010
0000
3001
0010
0001
0100
,  // measure 24
0002
0100
2003
0100
,  // measure 25
3002
0000
0100
0000
1003
0100
1000
0010
,  // measure 26
1000
0100
1000
0100
,  // measure 27
0010
0000
0100
0000
0010
0000
0001
1000
,  // measure 28
0001
0100
0001
0100
,  // measure 29
0010
0000
0100
0000
0010
0000
1000
0001
,  // measure 30
0020
0000
0000
0000
,  // measure 31
0000
0000
0000
0000
,  // measure 32
0000
0000
0000
0000
,  // measure 33
0030
0000
0000
1001
,  // measure 34
0001
0000
0010
0100
0010
0000
0001
1000
,  // measure 35
0001
0000
0100
0000
0100
0010
0200
0000
,  // measure 36
0301
0000
1000
0010
1000
0000
0001
0100
,  // measure 37
0001
0000
0010
0001
0100
0000
0020
0000
,  // measure 38
1030
0000
0010
0100
0010
0000
1000
0001
,  // measure 39
1000
0000
0100
0000
0100
0010
0200
0000
,  // measure 40
1300
0000
0001
0100
0001
0000
1000
0000
,  // measure 41
0100
0100
0020
0000
,  // measure 42
0031
0000
0100
0010
1000
0000
1100
0000
,  // measure 43
0001
0000
0101
0000
0100
0010
1000
0000
,  // measure 44
0001
0000
1000
0010
0100
0000
1001
0000
,  // measure 45
0001
0010
1000
0100
,  // measure 46
0001
0000
0100
0010
0100
0000
0001
1000
,  // measure 47
0001
0000
0010
0000
0010
0100
0020
0000
,  // measure 48
0031
0000
1000
0010
1000
0000
0001
0000
,  // measure 49
0010
0010
0200
0000
,  // measure 50
0300
0000
0000
0000
;

//---------------dance-single - ----------------
#NOTEDATA:;
#CHARTNAME:;
#STEPSTYPE:dance-single;
#DESCRIPTION:tikal.+ as "banjokazoo";
#CHARTSTYLE:;
#DIFFICULTY:Medium;
#METER:7;
#RADARVALUES:0.379498,0.458768,0.034954,0.113600,0.170399,304.000000,300.000000,4.000000,13.000000,11.000000,0.000000,1.000000,0.000000,0.000000,0.379498,0.458768,0.034954,0.113600,0.170399,304.000000,300.000000,4.000000,13.000000,11.000000,0.000000,1.000000,0.000000,0.000000;
#CREDIT:tikal.+ as "banjokazoo";
#OFFSET:0.485000;
#BPMS:0.000000=64.000000
,38.000000=128.000000
,134.000000=32.000000
,134.500000=64.000000
,135.000000=128.000000
;
#STOPS:;
#DELAYS:;
#WARPS:130.000000=4.000000
;
#TIMESIGNATURES:0.000000=4=4
;
#TICKCOUNTS:0.000000=4
;
#COMBOS:0.000000=1
;
#SPEEDS:0.000000=1.000000=0.000000=0
,118.000000=72.000000=12.000000=0
,130.000000=1.000000=0.000000=0
;
#SCROLLS:0.000000=1.000000
,19.000000=0.750000
,19.333334=0.000000
,19.375000=2.250000
,19.416666=0.000000
,19.458334=2.250000
,19.500000=0.000000
,19.541666=2.250000
,19.583334=0.000000
,19.625000=2.250000
,19.666666=0.000000
,19.708334=2.250000
,19.750000=0.000000
,19.791666=2.250000
,19.833334=0.000000
,19.875000=2.250000
,19.916666=0.000000
,19.958334=2.250000
,20.000000=1.000000
,35.000000=0.800000
,37.500000=2.000000
,38.000000=1.000000
,118.000000=0.042000
,130.000000=16.000000
,134.000000=1.600000
,134.500000=0.800000
,135.000000=1.000000
,180.000000=0.800000
,184.000000=1.000000
;
#FAKES:;
#LABELS:0.000000=Song Start
;
#DISPLAYBPM:64.000000:128.000000;
#NOTES:
// measure 0
0000
0000
0000
0000
,  // measure 1
0000
0000
0000
0000
,  // measure 2
0000
0000
0000
0000
,  // measure 3
0001
0000
0000
0001
0000
0000
0010
0100
1000
0001
0000
0000
,  // measure 4
1000
0100
1000
0010
0100
0100
0001
0010
0001
2000
3000
0000
,  // measure 5
0010
0000
0000
0010
0000
0100
0010
0100
0001
0010
0000
0100
,  // measure 6
1000
0000
0000
0001
0000
0000
0100
1000
0100
0001
0000
0000
,  // measure 7
0010
0000
0100
0010
0000
1000
0010
0000
0001
0010
0000
0000
,  // measure 8
0001
0100
0001
0010
0100
0100
1000
0010
1000
0002
0000
0000
,  // measure 9
0000
0000
0000
0003
1000
1000
0010
1000
,  // measure 10
0001
0010
0100
1000
0010
0100
1000
0100
,  // measure 11
0002
0000
0003
1000
0001
0001
0100
0010
,  // measure 12
0100
0001
0000
0001
1000
1000
0100
0010
,  // measure 13
0100
1000
0001
0100
0001
0001
0010
0001
,  // measure 14
1000
0010
0100
0001
0010
0100
0001
0100
,  // measure 15
2000
0000
3000
0001
1000
1000
0100
0010
,  // measure 16
0100
1000
0000
1000
0001
0001
0100
0100
,  // measure 17
0010
0000
1000
0000
0001
0000
0010
0000
0100
0000
0000
0000
1000
0000
0000
1000
,  // measure 18
0000
0000
0000
0000
0001
0000
0000
0001
0000
0000
0000
0000
0100
0000
0000
0100
,  // measure 19
0000
0010
1000
0001
0010
0000
0100
1000
,  // measure 20
0010
0000
0100
0001
0010
0000
0100
1000
,  // measure 21
0001
0100
0010
1000
0001
0000
0010
0010
,  // measure 22
0001
0100
0010
0010
1000
0100
0010
0010
,  // measure 23
0001
0000
0100
0000
1000
0000
0100
0000
0001
0000
0000
0000
1000
0000
0000
1000
,  // measure 24
0010
0000
0100
0000
0001
0000
0000
0001
0010
0000
0100
0000
1000
0000
0000
1000
,  // measure 25
0001
0010
1000
0010
0001
0000
0001
0000
,  // measure 26
1000
1000
0010
0010
,  // measure 27
0100
0000
0000
0000
0100
0001
1000
0000
0001
0000
0000
0000
0001
0000
0000
0000
,  // measure 28
1000
1000
0100
0100
,  // measure 29
0010
0000
0000
0000
0010
0001
1000
0000
0040
0000
0000
0000
0000
0000
0000
0000
,  // measure 30
0000
0000
0000
0000
,  // measure 31
0000
0000
0000
0000
,  // measure 32
0000
0000
0030
0000
,  // measure 33
0000
0000
0000
1001
,  // measure 34
0001
1000
0010
M010
0001
0100
010M
1000
,  // measure 35
1000
0010
0010
0100
0001
1000
0002
0000
,  // measure 36
1003
0000
0001
0000
0010
0000
001M
0000
1000
0000
0001
0000
0100
0001
0100
0000
,  // measure 37
0010
1000
1000
0100
0001
0100
2000
0000
,  // measure 38
3001
1000
0100
M100
0001
0010
001M
1000
,  // measure 39
1000
0000
0100
1000
0100
0000
0010
0000
0001
0000
1000
0000
0002
0000
0000
0000
,  // measure 40
1003
0010
0100
01M0
1000
0010
M010
0001
,  // measure 41
0100
1000
0100
0001
2000
0000
0000
0000
,  // measure 42
3001
0020
0100
0100
0031
1000
1010
0010
,  // measure 43
1000
0000
0001
0000
0011
0000
0010
0100
1000
0000
0010
0000
0100
0000
0002
0000
,  // measure 44
1003
0020
0100
0100
1030
0001
0011
0010
,  // measure 45
0001
0000
0000
0000
0100
0000
0000
0000
0010
0000
0000
1000
0000
0000
0100
0000
,  // measure 46
1000
0000
0001
0000
0100
0000
010M
0000
1000
0000
0010
0000
M010
0000
0001
1000
,  // measure 47
0001
0000
0100
0001
0100
0000
0010
0000
1000
0000
0001
0000
2000
0000
0000
0000
,  // measure 48
3001
0010
0100
01M0
0001
0010
001M
1000
,  // measure 49
0100
0000
0001
0100
0000
1000
0002
0000
0000
0000
0000
0000
,  // measure 50
0003
0000
0000
0000
;

//---------------dance-single - ----------------
#NOTEDATA:;
#CHARTNAME:;
#STEPSTYPE:dance-single;
#DESCRIPTION:tikal.+ as "banjokazoo";
#CHARTSTYLE:;
#DIFFICULTY:Hard;
#METER:9;
#RADARVALUES:0.475620,0.567998,0.087384,0.410706,0.493721,381.000000,371.000000,10.000000,47.000000,20.000000,0.000000,8.000000,0.000000,0.000000,0.475620,0.567998,0.087384,0.410706,0.493721,381.000000,371.000000,10.000000,47.000000,20.000000,0.000000,8.000000,0.000000,0.000000;
#CREDIT:tikal.+ as "banjokazoo";
#OFFSET:0.485000;
#BPMS:0.000000=64.000000
,38.000000=128.000000
,134.000000=64.000000
,136.000000=128.000000
;
#STOPS:;
#DELAYS:;
#WARPS:130.000000=4.000000
;
#TIMESIGNATURES:0.000000=4=4
;
#TICKCOUNTS:0.000000=4
;
#COMBOS:0.000000=1
;
#SPEEDS:0.000000=1.000000=0.000000=0
,118.000000=72.000000=12.000000=0
,130.000000=1.000000=0.000000=0
;
#SCROLLS:0.000000=1.000000
,19.000000=0.750000
,19.333334=0.000000
,19.375000=2.250000
,19.416666=0.000000
,19.458334=2.250000
,19.500000=0.000000
,19.541666=2.250000
,19.583334=0.000000
,19.625000=2.250000
,19.666666=0.000000
,19.708334=2.250000
,19.750000=0.000000
,19.791666=2.250000
,19.833334=0.000000
,19.875000=2.250000
,19.916666=0.000000
,19.958334=2.250000
,20.000000=1.000000
,35.000000=0.600000
,37.500000=0.000000
,37.750000=1.500000
,37.916668=3.000000
,38.000000=1.000000
,118.000000=0.042000
,130.000000=32.000000
,134.000000=0.600000
,135.500000=0.000000
,135.750000=1.500000
,135.916672=3.000000
,136.000000=1.000000
,164.000000=0.750000
,166.000000=0.500000
,167.000000=0.750000
,167.666672=1.500000
,168.000000=1.000000
,175.500000=1.500000
,175.666672=0.750000
,176.000000=1.000000
,180.000000=0.750000
,184.000000=1.000000
,196.000000=0.750000
;
#FAKES:;
#LABELS:0.000000=Song Start
;
#DISPLAYBPM:64.000000:128.000000;
#NOTES:
// measure 0
0000
0000
0000
0000
,  // measure 1
0000
0000
0000
0000
,  // measure 2
0000
0000
0000
0000
,  // measure 3
0001
0000
0000
0000
0010
0000
0001
0000
0000
0000
1000
0100
0010
0000
0100
0000
1000
0000
0001
0000
0000
0000
0010
0001
,  // measure 4
0001
0100
0001
1000
0010
0010
0100
1000
0100
0020
0030
0000
,  // measure 5
2000
3000
0000
0002
0003
0010
1000
0010
0100
0010
0001
0100
,  // measure 6
0020
0030
0001
0020
0030
1000
0100
0010
0001
0100
0000
0000
,  // measure 7
0002
0003
0010
2000
3000
0010
0002
0003
0100
0020
0030
0000
,  // measure 8
1000
0100
1000
0001
0010
0010
0100
0001
0100
0020
0000
0000
,  // measure 9
0000
0000
0000
0000
0000
0000
0030
0000
0100
0000
0100
1000
0100
0000
0010
0000
,  // measure 10
0100
1000
0010
0100
0010
1000
0001
1000
,  // measure 11
0200
0000
0000
0000
0000
0000
0000
0000
0300
0000
0000
0000
0010
0000
0001
0000
0100
0000
0000
000M
0100
0000
1000
0000
0100
0000
0000
0000
0001
0000
0000
0000
,  // measure 12
0200
0000
0000
0000
2000
0000
0000
0000
0300
0000
0000
0000
3010
0000
1000
0000
0100
0000
0000
M000
0100
0000
0001
0000
0100
0000
0000
0000
1000
0000
0000
0000
,  // measure 13
0100
0000
0001
0000
1000
0000
0100
0000
0010
0000
0010
0001
0010
0000
0100
0000
,  // measure 14
0010
0001
0100
0010
0100
0001
1000
0001
,  // measure 15
0020
0000
0000
0000
0000
0000
0000
0000
0030
0000
0000
0000
0100
0000
1000
0000
0010
0000
0000
M000
0010
0000
0001
0000
0010
0000
0000
0000
1000
0000
0000
0000
,  // measure 16
0020
0000
0000
0000
0002
0000
0000
0000
0030
0000
0000
0000
0103
0000
0001
0000
0010
0000
0000
000M
0010
0000
1000
0000
0010
0000
0000
0000
0010
0000
0000
0000
,  // measure 17
1000
0000
0100
0000
0010
0000
0001
0000
0100
0000
0000
0000
0010
0000
0010
1000
,  // measure 18
0000
0000
0000
0000
1000
0000
0000
0000
0100
0000
0000
M000
0100
0000
0001
0000
0000
0000
0000
0000
0001
0000
0000
0000
0010
0000
0000
000M
0010
0000
1000
0000
,  // measure 19
0000
0000
1000
0000
0001
0000
0010
0000
0100
0000
0000
0000
1000
0000
1000
0100
,  // measure 20
0010
0000
0000
0000
0001
0000
0001
0100
0010
0000
0000
0000
1000
0000
1000
0010
,  // measure 21
0200
0000
0000
0000
2300
0000
0000
0000
3200
0000
0000
0000
0302
0000
0000
0000
1003
0000
0000
0000
0000
0000
0000
0000
0100
0000
0000
00M0
0100
0000
0001
0000
,  // measure 22
1000
0000
0000
0000
0010
0000
0000
0000
0100
0000
0000
000M
0100
0000
1000
0000
0001
0000
0000
0000
0010
0000
0000
0000
0100
0000
0000
M000
0100
0000
0001
0000
,  // measure 23
1000
0000
0000
0000
0010
0000
0000
0000
0001
0000
0000
0000
0010
0000
0000
0000
1000
0000
0000
0000
0000
0000
0000
0000
0100
0000
0000
00M0
0100
0000
0010
0000
,  // measure 24
1000
0000
0000
0000
0001
0000
0000
0000
0100
0000
0000
000M
0100
0000
0010
0000
0001
0000
0000
0000
1000
0000
0000
0000
0100
0000
0000
M000
0100
0000
0010
0000
,  // measure 25
1000
0100
0001
0100
1000
0000
0100
0000
,  // measure 26
0010
0001
1000
0010
,  // measure 27
0100
0000
0000
0000
0001
0010
0100
1000
0001
0000
0000
0000
0100
0000
0000
0000
,  // measure 28
0010
1000
0001
0010
,  // measure 29
0100
0000
0000
0000
1000
0010
0100
0001
0040
0000
0000
0000
0000
0000
0000
0000
,  // measure 30
0000
0000
0000
0000
,  // measure 31
0000
0000
0000
0000
,  // measure 32
0000
0000
0030
0000
,  // measure 33
0000
0000
0000
0000
0000
0000
0000
1001
,  // measure 34
0001
0000
1000
0000
0010
1000
0100
1000
0200
0000
0320
0000
0031
4000
3010
1000
,  // measure 35
0020
0000
0130
0010
0200
0000
0301
0100
0020
0000
0032
0000
0023
0000
1000
0000
,  // measure 36
1030
0000
0001
0000
0010
0004
0103
0001
0200
0000
0320
0000
1030
0001
0100
01M0
,  // measure 37
1000
0000
0000
0000
0000
0000
0000
0000
0100
0000
0000
0000
00M0
0100
0000
0000
0001
0000
0000
0000
0000
0000
0000
0000
4000
0000
0000
0000
3001
0000
0000
0000
1000
0000
0000
0000
0000
0100
0000
0000
0010
0000
0000
0000
0001
0000
0000
0000
0100
0000
0000
0000
0000
0000
00M0
0000
0100
0000
0000
0000
0000
0000
0000
0000
,  // measure 38
1000
0000
0001
0000
0100
0004
0013
0001
0020
0000
0230
0000
1300
0004
0103
0001
,  // measure 39
0200
0000
0310
0100
0020
0000
1030
0010
0200
0000
2300
0000
3200
0000
0001
0000
,  // measure 40
0301
0000
0000
0000
1000
0000
0000
0000
0010
0000
0000
0M00
0010
0000
0001
0000
0010
0000
0000
0000
0100
0000
0000
0000
1000
0000
0010
0000
1000
0000
0000
0000
,  // measure 41
0100
0001
0100
1000
0002
0000
0000
0000
,  // measure 42
1003
0000
0010
0000
1010
0000
1001
0000
0001
0010
0100
0000
1100
0000
0100
01M0
,  // measure 43
0001
0100
0010
0000
1010
0000
0010
0M10
0001
0000
1000
0000
0010
0000
0200
0000
,  // measure 44
0301
0000
0010
0000
0011
0000
1001
0000
1000
0010
0100
0000
0101
0000
0100
01M0
,  // measure 45
2000
0000
3000
0000
0020
0000
0130
0001
0010
0000
0000
0110
0000
0000
1001
0000
,  // measure 46
0001
0000
1000
0000
0100
4000
3010
1000
0020
0000
0230
0000
0301
4000
3100
1000
,  // measure 47
0200
0000
0310
0100
0020
0000
0031
0010
0200
0000
0301
0000
0200
0000
1000
0000
,  // measure 48
1300
0000
0000
0000
0001
0000
0000
0000
0010
0000
0000
0M00
0010
0000
1000
0000
0010
0000
0000
0000
0100
0000
0000
0000
0001
0000
0010
0000
0001
0000
0000
0000
,  // measure 49
0100
0000
1000
0100
0000
0001
2000
0000
0000
0000
0000
0000
,  // measure 50
3000
0000
0000
0000
;
