#VERSION:0.83;
#TITLE:THE PEERLESS UNDER HEAVEN;
#ARTIST:Yuta Imai Vs. L.E.D.-G;
#GENRE:Hard mixture;
#CREDIT:tikal.+ as "rostrumcamera";
#BANNER:THE PEERLESS UNDER HEAVEN.png;
#BACKGROUND:THE PEERLESS UNDER HEAVEN-bg.png;
#CDTITLE:cdtitle.png;
#MUSIC:THE PEERLESS UNDER HEAVEN.ogg;
#SAMPLESTART:96;
#SAMPLELENGTH:22.588;
#BPMS:0=170;
#TIMESIGNATURES:0=4=4;
#TICKCOUNTS:0=4;
#COMBOS:0=1;
#SPEEDS:0=1=0=0;
#SCROLLS:0=1;
#LABELS:0=Song Start;

//---------------dance-single - ----------------
#NOTEDATA:;
#CHARTNAME:;
#STEPSTYPE:dance-single;
#DESCRIPTION:tikal.+ as "rostrumcamera";
#CHARTSTYLE:;
#DIFFICULTY:Easy;
#METER:7;
#RADARVALUES:0.435357,0.553080,0.098838,0.527135,0.094720,370.000000,358.000000,12.000000,64.000000,0.000000,0.000000,0.000000,0.000000,0.000000,0.435357,0.553080,0.098838,0.527135,0.094720,370.000000,358.000000,12.000000,64.000000,0.000000,0.000000,0.000000,0.000000,0.000000;
#CREDIT:tikal.+ as "rostrumcamera";
#NOTES:
// measure 0
0000
0000
0000
0000
,  // measure 1
0000
0000
0000
0000
,  // measure 2
0000
0000
0000
0000
,  // measure 3
0000
0000
0000
0000
,  // measure 4
0000
0000
0000
0000
,  // measure 5
0000
0000
0000
0000
,  // measure 6
1001
0000
0000
0000
0000
0000
0000
1000
,  // measure 7
0020
0000
0000
0230
0000
0000
0302
0000
0000
0000
0000
0000
2003
0000
0000
0000
,  // measure 8
3200
0000
0000
0000
0000
0320
0230
2300
,  // measure 9
0000
0000
0002
3003
,  // measure 10
1000
1000
1000
1000
,  // measure 11
0001
0001
0001
0001
,  // measure 12
0100
0010
0100
0000
0001
1000
0001
0000
,  // measure 13
0010
0100
1000
0010
0100
0001
0100
0010
,  // measure 14
2000
0000
0000
0000
,  // measure 15
3001
0010
0100
1000
0010
0100
0001
0000
,  // measure 16
1000
0010
1000
0000
0200
0000
0310
0000
,  // measure 17
0001
0010
0001
0000
0200
0000
0310
0010
,  // measure 18
1000
0001
1000
0000
0200
0000
0310
0001
,  // measure 19
1000
0000
0000
1000
0000
0000
0001
0000
0000
0001
0000
0000
0000
0000
0000
0000
,  // measure 20
1000
0010
0100
0000
2000
0000
3100
0000
,  // measure 21
0001
0010
0100
0000
0002
0000
0103
1000
,  // measure 22
0010
0000
0100
0000
0001
1000
0001
0000
,  // measure 23
2002
0000
0000
3003
,  // measure 24
1000
0100
0020
0000
0031
0000
0020
0000
,  // measure 25
1030
0020
0130
1000
,  // measure 26
0001
0100
0020
0000
1030
0000
0020
0000
,  // measure 27
0031
0000
0020
0000
0130
0001
1000
0000
,  // measure 28
0001
0010
0200
0000
0310
0100
2000
0000
,  // measure 29
3100
0010
0002
0000
1003
0010
0100
0000
,  // measure 30
0001
0100
0001
1000
0100
1000
0001
0000
,  // measure 31
2002
0000
0000
3003
,  // measure 32
0110
0000
0000
0000
,  // measure 33
1000
0000
0001
0000
,  // measure 34
1000
1000
0001
0001
,  // measure 35
0010
0010
0010
1001
,  // measure 36
0002
0100
0100
0103
,  // measure 37
0200
0000
0000
0000
1000
0000
0000
0000
1300
0000
0000
0100
0000
0000
0010
0000
,  // measure 38
2000
0100
0100
3100
,  // measure 39
0200
0000
0000
0001
0000
0000
0301
0000
0100
0000
0010
0000
,  // measure 40
0002
0000
1000
0000
1000
0000
1003
0010
,  // measure 41
0200
0000
0000
0000
0010
0000
0000
0000
0310
0000
0000
1000
0000
0000
0001
0000
,  // measure 42
1000
0100
1000
0001
0100
0001
1000
0000
,  // measure 43
2002
0000
0000
3003
,  // measure 44
0001
0010
0100
0000
0010
0000
0001
0001
,  // measure 45
0100
0000
0010
0000
1000
0000
1000
0001
,  // measure 46
1000
0010
0100
0000
0010
0000
1000
1000
,  // measure 47
0100
0010
0001
0000
0001
1000
0001
0000
,  // measure 48
1000
0010
0100
0000
1000
0000
0100
0000
,  // measure 49
0001
0010
0100
0000
0001
0100
1000
0000
,  // measure 50
0001
0100
0010
1000
0100
0010
0001
0000
,  // measure 51
2002
0000
0000
3003
,  // measure 52
0110
0000
0000
0000
0000
0000
0000
2000
,  // measure 53
3200
0000
0000
0320
0000
0000
0032
0000
0000
0000
0000
0000
2003
0000
0000
0000
,  // measure 54
3020
0000
0000
0000
0000
0000
0130
0020
,  // measure 55
0000
0000
1000
0000
1000
0000
1030
0001
,  // measure 56
0010
0000
0000
0000
0000
0000
0000
0001
,  // measure 57
0020
0000
0000
0230
0000
0000
2300
0000
0000
0000
0000
0000
3002
0000
0000
0000
,  // measure 58
0203
0000
0000
0000
0000
0320
0230
0302
,  // measure 59
0000
0000
2000
3003
,  // measure 60
1001
0000
0000
0000
,  // measure 61
0001
0000
0000
1000
0000
0000
0000
0000
0000
0000
0000
0000
0000
0000
0000
0000
,  // measure 62
0110
0000
0000
0000
0000
0000
0000
0001
,  // measure 63
1000
0000
0000
0001
0000
0000
1000
0000
0000
0001
0000
0000
1000
0000
0000
0000
,  // measure 64
0001
0001
1000
0100
0100
1000
0000
0001
,  // measure 65
1000
1000
0001
0100
0100
0001
0000
1000
,  // measure 66
0001
0010
0100
1000
0010
0100
0001
1000
,  // measure 67
0100
0000
0000
0110
,  // measure 68
0001
0010
0200
0000
0301
0100
0020
0000
,  // measure 69
0130
0010
0002
0000
1003
1000
0001
0000
,  // measure 70
1000
0010
0200
0000
1300
0100
0020
0000
,  // measure 71
0130
0010
2000
0000
3001
0001
1000
0000
,  // measure 72
0001
0010
2000
0000
3010
0100
1000
0001
,  // measure 73
1000
0010
0002
0000
0013
0010
0100
0000
,  // measure 74
0001
0100
0001
0001
1000
0100
1000
1000
,  // measure 75
2002
0000
0000
3003
,  // measure 76
1000
0000
0000
1000
0000
0000
0010
0000
0100
0000
0000
0100
0000
0000
0001
0000
,  // measure 77
0010
0000
0000
0010
0000
0000
0100
0000
1000
0000
0000
1000
0000
0000
0000
0000
,  // measure 78
0001
0000
0000
0001
0000
0000
0100
0000
0010
0000
0000
0010
0000
0000
1000
0000
,  // measure 79
0100
0000
0100
0000
0100
1000
0001
0000
,  // measure 80
0100
0000
0000
0100
0000
0000
1000
0000
0100
0000
0010
0000
1000
0000
0000
0000
,  // measure 81
0100
0000
0000
0100
0000
0000
0001
0000
0100
0000
0000
0010
0000
0000
0001
0000
,  // measure 82
1000
0010
0100
0010
1000
0001
0010
0100
,  // measure 83
0010
0000
0000
0000
0001
0000
0000
0001
0000
0000
0000
0000
1000
0000
0000
1000
;

//---------------dance-single - ----------------
#NOTEDATA:;
#CHARTNAME:;
#STEPSTYPE:dance-single;
#DESCRIPTION:tikal.+ as "rostrumcamera";
#CHARTSTYLE:;
#DIFFICULTY:Medium;
#METER:10;
#RADARVALUES:0.690688,0.864188,0.164730,0.436534,0.555963,587.000000,567.000000,20.000000,53.000000,0.000000,0.000000,0.000000,0.000000,0.000000,0.690688,0.864188,0.164730,0.436534,0.555963,587.000000,567.000000,20.000000,53.000000,0.000000,0.000000,0.000000,0.000000,0.000000;
#CREDIT:tikal.+ as "rostrumcamera";
#NOTES:
// measure 0
0000
0000
0000
0000
,  // measure 1
0000
0000
0000
0000
,  // measure 2
0000
0000
0000
0000
,  // measure 3
0000
0000
0000
0000
,  // measure 4
0000
0000
0000
0000
,  // measure 5
0000
0000
0000
0000
,  // measure 6
1001
0000
0000
0000
0000
0000
1000
0000
0000
0000
0000
0000
0000
0000
0001
0100
,  // measure 7
0020
0000
0000
0230
0000
0000
0302
0000
0000
0000
0000
0000
2003
0000
0000
0000
,  // measure 8
3200
0000
0010
0000
0000
2300
3020
0200
,  // measure 9
0000
0030
0002
0303
,  // measure 10
1000
0000
0000
0000
1000
0000
0000
0000
1000
0000
0000
0000
1000
0000
0100
0010
,  // measure 11
0001
0000
0000
0000
0001
0000
0000
0000
0001
0000
0000
0000
0001
0000
0100
0010
,  // measure 12
1000
1000
0001
0001
1000
1000
0001
0001
,  // measure 13
1000
0100
1000
0000
0001
0100
0001
0000
1000
0010
1000
0000
0001
0010
0001
0000
,  // measure 14
0200
0000
0000
0000
,  // measure 15
0310
1000
0100
0010
0001
0100
0110
0000
,  // measure 16
1000
0010
1000
0010
0200
0301
0001
1000
,  // measure 17
0001
0010
0001
0010
0200
1300
1000
0001
,  // measure 18
0001
0100
0001
0100
0020
1030
1000
0001
,  // measure 19
0011
0000
0000
1010
0000
0000
1100
0000
0000
0101
0000
0000
2000
0000
0000
0000
,  // measure 20
3001
0010
0100
0010
0002
1003
1000
0010
,  // measure 21
0100
0000
0010
0000
1000
0000
0100
0000
0020
0000
0031
0000
1000
0001
1000
0001
,  // measure 22
1000
0010
0100
0010
2000
3001
0001
0010
,  // measure 23
0200
0000
0001
1300
,  // measure 24
0001
0000
0010
0000
0200
0000
0000
0000
0310
0000
0001
0000
0100
0001
0100
0001
,  // measure 25
1000
0000
0010
0000
0200
0000
0000
0000
0310
1000
0000
1000
0001
0000
0010
0000
,  // measure 26
0100
1000
0100
1000
0020
0000
0000
0000
1030
0000
0100
0000
0020
0000
0000
0000
,  // measure 27
0031
0000
0100
0000
0020
0000
0000
0000
0130
0001
0000
0001
2000
0000
3100
0010
,  // measure 28
0001
0001
0200
0000
1300
1000
0200
0000
,  // measure 29
0310
0000
0010
0000
0200
0000
0000
0000
0301
1000
0000
1000
0010
0000
0100
0001
,  // measure 30
1000
0000
1000
0000
0001
0000
0001
0000
0010
0001
0010
0001
1000
0010
1000
0010
,  // measure 31
0100
0100
0020
0000
1030
0001
0010
0000
,  // measure 32
0200
0000
0000
0000
,  // measure 33
0001
0000
1000
0300
,  // measure 34
0001
0001
1000
1000
,  // measure 35
0010
0000
0010
0000
0010
0100
1001
0000
,  // measure 36
2100
0000
3100
0001
0100
1000
0100
0010
,  // measure 37
0001
0000
0100
0000
1000
0000
0100
0000
0010
1000
0000
0010
1000
0000
0010
1000
,  // measure 38
0002
0000
0013
1000
0010
0001
0010
0100
,  // measure 39
1000
0000
0000
0000
0000
0000
0010
0000
0000
0000
0000
0000
0001
0000
0000
0000
0000
0000
0010
0000
0000
0100
0000
0000
0001
0000
0000
0000
0100
0000
0000
0000
0001
0000
0000
0000
1000
0000
0000
0000
0100
0000
0000
0000
1000
0000
0000
0000
,  // measure 40
0020
0000
0000
0000
1030
0000
0100
0000
0001
0000
0100
0000
1000
0000
0100
0010
,  // measure 41
0001
0000
1000
0000
0010
0000
0001
0000
0010
0000
0000
0101
0000
0000
1100
0000
,  // measure 42
0001
0000
0001
0000
1000
0000
1000
0000
0100
1000
0100
1000
0001
0100
0001
0100
,  // measure 43
0010
0010
0200
0000
0301
1000
0100
1000
,  // measure 44
0001
0010
0001
0100
0010
1000
0100
0100
,  // measure 45
1000
0000
0010
0000
1000
0000
0100
0000
0010
0001
0000
0010
0001
0000
0001
0000
,  // measure 46
1000
0100
1000
1000
0010
0100
0001
0010
,  // measure 47
0001
0000
0001
0000
1000
0010
1000
0001
0100
0001
0000
0000
2000
0000
3100
0010
,  // measure 48
0001
0000
0100
0000
1000
0000
0100
0000
0010
1000
0000
1000
0001
0000
0010
0000
,  // measure 49
1000
0000
0010
0000
0001
0000
1000
0000
0010
0100
0001
0000
1000
0000
1000
0000
,  // measure 50
0001
0010
0001
0000
1000
0010
1000
0000
0001
0100
0001
1000
0100
1000
0001
0100
,  // measure 51
0020
0000
0001
1030
,  // measure 52
1001
0000
0000
0000
0000
0000
0000
0000
0000
0000
0000
0000
0000
0000
0001
0010
,  // measure 53
0200
0000
0000
0320
0000
0000
0032
0000
0000
0000
0000
0000
2003
0000
0000
0000
,  // measure 54
3020
0000
0100
0000
0100
0000
1030
0002
,  // measure 55
0010
0000
0010
0000
1000
0000
0103
0010
,  // measure 56
1000
0000
0000
0000
0000
0000
0001
0000
0000
0000
0000
0000
0000
0000
1000
0100
,  // measure 57
0020
0000
0000
0230
0000
0000
2300
0000
0000
0000
0000
0000
3002
0000
0000
0000
,  // measure 58
0203
0000
0010
0000
0000
0302
0023
0200
,  // measure 59
0000
0030
2000
3300
,  // measure 60
1001
0000
0000
0000
0001
0000
0000
0100
0000
0000
0000
0000
0010
0000
0000
1000
,  // measure 61
0000
0000
0000
0000
0001
0000
0000
0010
0000
0000
0000
0000
0100
0000
0000
1000
,  // measure 62
0001
0000
0000
0000
1000
0000
0000
0010
0000
0000
0000
0000
0100
0000
0000
0001
,  // measure 63
1000
0000
0000
0100
0000
0000
0001
0000
0000
0010
0000
0000
1000
0000
0000
0000
,  // measure 64
0001
0100
0001
0000
0010
0000
0100
1000
0100
0000
0010
0000
0001
0000
0001
0000
,  // measure 65
1000
0100
1000
0000
0010
0000
0100
0001
0100
0000
0010
0000
1000
0000
1000
0000
,  // measure 66
0001
0010
0100
0000
0010
0100
1000
0000
0001
0100
0001
0100
0010
1000
0010
1000
,  // measure 67
0001
0000
0001
0000
0000
0000
1000
0100
1000
0000
0001
0100
0020
0000
0000
0000
,  // measure 68
1030
0000
0010
0000
0100
0001
0000
0001
0100
0000
0010
0000
1000
0100
0000
0100
,  // measure 69
1000
0000
0001
0000
0100
0010
0000
0100
0010
0000
0010
0000
1000
0000
0000
1000
,  // measure 70
0001
0000
0010
0000
0100
1000
0000
1000
0100
0000
0010
0000
0001
0100
0000
0100
,  // measure 71
0001
0000
1000
0000
0100
0010
0000
0100
0010
0000
0010
0000
0001
0000
1000
0001
,  // measure 72
1000
0000
1000
0000
0010
0100
0000
0001
0100
0000
0010
0000
1000
0100
0000
0010
,  // measure 73
0100
0000
1000
0000
0001
0100
0000
0010
1000
0010
0000
0100
0001
0000
0000
0001
,  // measure 74
1000
0100
1000
0000
0010
0000
0100
0000
0001
0010
0001
0000
1000
0010
1000
0000
,  // measure 75
0100
0100
0020
0000
0031
1000
0010
0000
,  // measure 76
1010
0000
0000
1010
0000
0000
1000
0010
0100
0001
0000
0001
0000
0000
0000
0000
,  // measure 77
0001
0010
0000
0011
0000
0000
0001
0010
0100
1000
0000
1000
0001
0000
0000
0000
,  // measure 78
0101
0000
0000
0101
0000
0000
0001
0100
0010
1000
0000
1000
0000
0000
0000
0000
,  // measure 79
0100
0000
0001
0000
0100
0000
0010
0000
0100
0000
1000
0000
0002
0000
0103
0010
,  // measure 80
1000
0000
0000
1100
0000
0000
0100
0010
0001
0000
0001
0000
1000
0001
1000
0000
,  // measure 81
1001
0000
0000
1001
0000
0000
0001
0100
0010
0000
0010
1000
0000
0000
0001
0000
,  // measure 82
1000
0100
1000
0000
0001
0100
0001
0000
1000
0010
0100
0010
0100
0001
1000
0001
,  // measure 83
0010
0000
0000
0000
0001
0000
0000
1000
0000
0000
0000
0000
0010
0000
0000
0100
;

//---------------dance-single - ----------------
#NOTEDATA:;
#CHARTNAME:;
#STEPSTYPE:dance-single;
#DESCRIPTION:tikal.+ as "rostrumcamera";
#CHARTSTYLE:;
#DIFFICULTY:Hard;
#METER:11;
#RADARVALUES:0.866008,1.037025,0.238858,0.461243,1.091334,736.000000,707.000000,29.000000,56.000000,0.000000,0.000000,0.000000,0.000000,0.000000,0.866008,1.037025,0.238858,0.461243,1.091334,736.000000,707.000000,29.000000,56.000000,0.000000,0.000000,0.000000,0.000000,0.000000;
#CREDIT:tikal.+ as "rostrumcamera";
#NOTES:
// measure 0
0000
0000
0000
0000
,  // measure 1
0000
0000
0000
0000
,  // measure 2
0000
0000
0000
0000
,  // measure 3
0000
0000
0000
0000
,  // measure 4
0000
0000
0000
0000
,  // measure 5
0000
0000
0000
0000
,  // measure 6
1000
0000
0000
0000
0001
0000
0000
0000
0000
0001
0000
0000
0001
0000
1000
0100
,  // measure 7
0020
0000
0000
0230
0000
0000
2300
0000
0000
0000
0000
0000
3002
0000
0000
0000
,  // measure 8
0203
0000
0010
0000
0000
0302
0023
0200
,  // measure 9
0000
0030
2000
3300
,  // measure 10
1000
0000
0000
0010
1000
0000
0001
0000
1000
0010
0000
0000
1000
0000
0100
1000
,  // measure 11
0001
0000
0000
0010
0001
0000
1000
0000
0001
0010
0000
0000
0001
0000
0100
0001
,  // measure 12
0010
0010
0100
0100
1000
1000
0001
0001
,  // measure 13
1000
0010
1000
0001
1000
0001
0010
0001
1000
0100
1000
0001
0100
0001
1000
0010
,  // measure 14
0200
0000
0000
0000
,  // measure 15
0301
0010
0100
1000
0010
0100
1001
0000
,  // measure 16
1000
0010
1000
0000
0001
0100
0001
0000
0020
0000
0031
0000
1000
0100
1000
0000
,  // measure 17
0001
0010
0001
0000
1000
0100
1000
0000
0020
0000
1030
0000
0001
0100
0001
1000
,  // measure 18
0001
0100
0001
0000
1000
0010
1000
0000
0200
0000
1300
0000
0001
0010
0001
0000
,  // measure 19
0101
0000
0000
1010
0000
0000
1100
0000
0000
0011
0000
0000
2000
0000
0000
0000
,  // measure 20
3001
0100
0010
0000
0100
0010
1000
0000
0002
0000
1003
0000
0100
0010
0001
0000
,  // measure 21
0010
0001
1000
0000
0001
1000
0010
0000
0200
0000
0310
0000
1000
0010
0100
0001
,  // measure 22
1000
0001
0010
0000
0001
0010
0100
0000
1000
0000
1000
0000
0001
1000
0010
0000
,  // measure 23
0200
0000
1000
0301
,  // measure 24
1000
0010
1000
0010
0200
0000
0000
0000
0310
1000
0000
1000
0001
0010
0001
1000
,  // measure 25
0001
0010
0001
0010
0200
0000
0000
0000
0310
0001
0000
0001
0100
0000
0010
0000
,  // measure 26
2000
0000
0000
3100
0020
0000
0000
0000
0130
1000
0000
1000
0002
0000
0000
0000
,  // measure 27
0103
0001
0100
0001
0020
0000
0000
0000
0130
1000
0000
1000
0002
0000
1003
0001
,  // measure 28
0100
0010
0100
0000
1000
0000
0100
0000
0010
1000
0000
1000
0001
0000
0010
0000
,  // measure 29
0100
0010
0100
0000
0001
0000
0100
0000
0010
0001
0000
0001
1000
0010
0100
0001
,  // measure 30
1000
0100
1000
0000
0001
0100
0001
0000
0010
0001
1000
0010
0100
0001
0010
0100
,  // measure 31
1000
0001
1000
0001
0020
0000
0000
0000
0130
0000
1000
0000
0001
0000
0000
0000
,  // measure 32
0200
0000
0000
0000
,  // measure 33
1000
0000
0001
0300
,  // measure 34
1000
1000
0001
0001
,  // measure 35
0010
0100
0000
0000
0010
0100
0000
0000
0010
0100
0010
0000
1001
0000
0000
0000
,  // measure 36
0201
0000
0000
0000
0310
0100
0001
0100
0010
0100
0001
0100
0010
0000
0100
0001
,  // measure 37
2000
0000
3100
0000
0010
0100
1000
0100
0010
0001
0000
1000
0001
0000
0100
0001
,  // measure 38
0020
0000
0031
0000
0100
0001
0010
0001
0100
0001
0010
0001
0100
0000
0001
1000
,  // measure 39
0010
0000
0000
1000
0000
0000
0100
0000
0000
1000
0000
0000
0010
0000
0000
1000
0000
0000
0100
0000
0000
0010
0000
0000
0001
0000
0000
0000
0001
0000
0000
0000
0001
0000
0000
0000
1000
0000
0000
0000
1000
0000
0000
0000
1000
0000
0000
0000
,  // measure 40
1020
0000
0000
0000
0130
0010
1000
0010
0100
0010
1000
0010
0100
0000
0010
1000
,  // measure 41
0001
0010
0100
0000
0010
0001
1000
0001
0100
0000
0000
1010
0000
0000
0011
0000
,  // measure 42
1000
0000
0001
0000
0100
0010
1000
0010
0100
0001
0010
0100
0010
0000
0001
0000
,  // measure 43
1000
0001
1000
0001
0200
0000
0000
0000
0310
0000
1000
0000
0001
0000
1000
0000
,  // measure 44
0100
0000
0100
0010
0100
1000
0001
0000
1000
0010
0100
0000
0010
0000
1000
0000
,  // measure 45
0001
0010
0100
0000
0010
1000
0000
0010
0100
0010
0001
1000
0001
0100
0001
0100
,  // measure 46
0010
0000
0100
0000
0010
1000
0100
0000
1000
0001
0000
1000
0010
0100
0010
1000
,  // measure 47
0001
0000
0010
0001
0100
0010
1000
0001
1000
0100
0010
0000
0002
0000
1003
0001
,  // measure 48
0010
0000
0100
0000
0010
0001
0100
0000
0001
1000
0000
0001
0010
0100
0010
0001
,  // measure 49
1000
0010
0100
0000
0010
0001
0000
0010
0100
0001
1000
0000
0100
0010
0001
0010
,  // measure 50
0100
1000
0100
1000
0001
0100
0001
0100
0010
1000
0100
0010
0001
0100
0001
1000
,  // measure 51
0200
0000
0001
1300
,  // measure 52
1001
0000
0000
0000
0001
0000
0000
0000
0001
0000
0000
0000
0001
0000
1000
0100
,  // measure 53
0020
0000
0000
0230
0000
0000
2300
0000
0000
0000
0000
0000
3002
0000
0000
0000
,  // measure 54
0203
0000
1000
0000
0010
0000
0301
0020
,  // measure 55
1000
0000
0000
0000
0100
0000
0000
0000
0001
0000
0000
0000
0130
1000
0000
1000
,  // measure 56
0001
0000
0000
0000
1000
0000
0000
0000
0000
1000
0000
0000
1000
0000
0001
0100
,  // measure 57
0020
0000
0000
0230
0000
0000
0302
0000
0000
0000
0100
0000
2003
0000
0000
0000
,  // measure 58
3100
0100
0010
0010
0100
2000
3020
0200
,  // measure 59
0000
0030
0002
0303
,  // measure 60
1001
0000
0000
0000
,  // measure 61
1100
0000
0000
0011
0000
0000
0000
0000
0000
0000
0000
0000
0000
0000
0000
0000
,  // measure 62
1001
0000
0000
0000
0000
0000
0000
0000
0000
0000
0000
0000
0000
0000
0001
0100
,  // measure 63
0101
0000
0000
1010
0000
0000
1100
0000
0000
0011
0000
0000
1001
0000
0000
0000
,  // measure 64
1000
0100
1000
0100
0020
0000
0031
0100
0001
0100
0020
0000
0130
0001
2000
0000
,  // measure 65
3001
0010
0001
0010
0200
0000
1300
0010
1000
0010
0200
0000
0310
1000
0002
0000
,  // measure 66
1003
0100
1000
0001
0100
0010
1000
0001
0010
0001
1000
0100
0010
0100
1000
0001
,  // measure 67
0100
0000
0100
0000
0000
0000
0010
1000
0001
0010
0001
1000
0200
0000
0000
0000
,  // measure 68
1300
0001
0100
0000
0010
1000
0000
0001
0100
0001
1000
0000
0001
0010
0000
0100
,  // measure 69
1000
0100
0010
0000
0001
0100
0000
0010
1000
0000
1000
0000
0100
1000
0000
0010
,  // measure 70
1000
0001
0010
0000
0100
1000
0000
0001
0010
0001
1000
0000
0001
0100
0000
0010
,  // measure 71
1000
0010
0100
0000
0001
0010
0000
0100
1000
0000
1000
0000
0010
0100
0001
1000
,  // measure 72
0100
0010
0100
0000
0010
0001
0000
1000
0100
1000
0001
0000
1000
0010
0100
0001
,  // measure 73
0100
0010
1000
0000
0100
0010
0000
0100
1000
0001
0000
0100
0001
0010
0000
0100
,  // measure 74
1000
0001
1000
0010
0100
0001
0100
0010
1000
0001
1000
0001
1000
0100
0010
0001
,  // measure 75
1000
0001
1000
0001
0200
0000
0000
0000
0310
0000
1000
0000
0001
0000
0000
0000
,  // measure 76
0011
0000
0000
1100
0000
0000
0001
0010
0100
1000
0000
1000
0010
0000
0100
0000
,  // measure 77
0001
0100
0000
1010
0000
0000
1000
0100
0010
0001
0000
0001
0100
0000
0000
0000
,  // measure 78
1010
0000
0000
0011
0000
0000
1000
0010
0100
0001
0000
0001
0010
0000
0100
1000
,  // measure 79
0001
0100
0001
0000
1000
0000
1000
0000
0010
0100
0010
0000
2000
0000
3001
1000
,  // measure 80
1100
0000
0000
0011
0000
0000
0001
0100
0010
1000
0010
0000
0100
0001
1000
0000
,  // measure 81
1010
0000
0000
0101
0000
0000
1000
0010
0100
0000
0001
0010
0000
0000
0100
1000
,  // measure 82
0001
0100
0001
1000
0010
1000
0001
0010
0100
0010
0001
1000
0010
0100
0001
0010
,  // measure 83
0100
0000
0000
0000
1000
0000
0000
0001
0000
0000
0000
0000
0100
0000
0000
0010
;
