#TITLE:System "Z";
#SUBTITLE:;
#ARTIST:Jimmy Weckl;
#TITLETRANSLIT:;
#SUBTITLETRANSLIT:;
#ARTISTTRANSLIT:;
#GENRE:Fusion;
#CREDIT:tikal.;
#MUSIC:System Z.ogg;
#BANNER:System Z.png;
#BACKGROUND:;
#CDTITLE:cdtitle.png;
#SAMPLESTART:9.388;
#SAMPLELENGTH:19.592;
#SELECTABLE:YES;
#OFFSET:0.000;
#BPMS:0.000=147.000;
#STOPS:;
#BGCHANGES:;
#FGCHANGES:;

//--------------- dance-single - tikal. ----------------
#NOTES:
     dance-single:
     tikal.:
     Hard:
     10:
     0,0,0,0,0:
0000
0000
0000
0000
,
0000
0000
0000
0000
,
0000
0000
0000
0000
,
0000
0000
0000
0000
,
0000
0000
0000
0000
,
0000
0000
0000
0000
,
2000
0000
0000
0000
3020
0000
0100
0000
0000
0100
0000
0000
0001
0000
0000
0130
,
0000
0101
0000
0000
0000
1100
0000
0000
0110
0000
0000
0110
0000
0000
0000
0000
,
0001
0010
0100
0001
0100
0010
0001
1000
,
0000
1010
0000
0000
0000
1010
0000
0000
0210
0000
0000
0000
0301
0000
1000
0000
,
0002
0000
0000
0000
0023
0000
0100
0000
0000
0100
0000
0000
1000
0000
0000
0130
,
0000
1100
0000
0000
0000
0101
0000
0000
0110
0000
0000
0110
0000
0000
0000
0000
,
1000
0010
0100
1000
0100
0010
1000
0001
,
1000
0100
0010
0000
0000
0001
0000
0001
0000
0001
0000
0001
1000
0000
0010
0000
,
0120
0000
0000
1030
0000
0000
0001
0000
0010
0000
0100
0000
0120
0000
0000
0031
,
0000
0000
1000
0000
0010
0000
0001
0000
1000
0000
0100
0010
0000
1010
0000
0000
,
0000
0011
0000
0000
0110
0000
0000
0210
0000
0000
0000
0000
0001
0000
0000
0000
,
0010
0000
0000
0000
1300
0000
0000
0001
0000
0001
0000
0100
0000
0010
0100
0000
,
0001
0010
0000
0000
0010
0100
0000
0000
2000
0000
0000
0000
3020
0000
0000
0130
,
0000
0110
0000
0000
0000
0002
0000
0000
0023
0000
0000
0130
0000
0000
1000
0000
,
0001
0000
0201
0000
0000
0310
1000
0002
0000
0000
0000
0000
1003
0100
0000
0010
,
0100
0000
0001
0000
0100
0000
0010
0000
0001
0100
0000
0001
0100
0010
1000
0000
,
0000
0000
0000
0000
0000
0000
0001
0000
0000
0000
0000
0000
0010
0000
0000
0000
0000
0000
0100
0000
0000
0010
0000
0000
0002
0000
0000
0000
0000
0000
0000
0000
0103
0000
0000
0000
0000
0000
0000
0000
0000
0000
0000
0000
0010
0000
0000
0000
,
2000
0000
0000
0000
0000
0000
0000
0000
3100
0000
0000
0000
0010
0000
0000
0000
0000
0000
0001
0000
0000
1000
0000
0000
0000
0000
0000
0010
0000
0000
0100
0000
0000
0000
0000
0000
0001
0000
0000
0000
0000
0000
0010
0000
0000
0100
0000
0000
,
0000
1100
0000
0000
0110
0000
0000
0011
0000
0000
0000
1000
0000
0001
0000
0100
,
0010
0000
0000
1010
0000
0000
0000
0110
0000
0000
0101
0000
0000
0000
0000
0000
,
1001
0000
0000
0000
1000
0100
1000
0100
0000
0000
0000
0000
0010
0001
0100
0010
,
0000
0000
0000
0000
0100
0001
0100
0001
0000
0000
0000
0000
0010
0100
1000
0010
,
0000
0000
0000
0000
1000
0001
0010
0100
0000
0000
0000
0000
0020
0000
0130
0001
,
0000
0100
0001
0000
2000
0000
3010
0100
0000
0010
0100
0000
0010
0001
0000
0000
,
1001
0000
0000
0000
0001
0100
0001
0100
0000
0000
0000
0000
0010
1000
0100
0010
,
0000
0000
0000
0000
0100
1000
0100
1000
0000
0000
0000
0000
0010
0100
0001
0010
,
0000
0000
0000
0000
0001
1000
0010
0100
0000
0000
0000
0000
0020
0000
0130
1000
,
0000
0100
1000
0000
0002
0000
0013
0100
0000
0010
0100
0000
0010
1000
0000
0000
,
0002
0000
0000
0000
0010
0000
0000
0000
1003
0000
0000
0010
0000
0000
0100
0000
,
0200
0000
0000
0000
1000
0000
0000
0000
0301
0000
0000
0010
0000
0000
0100
0000
,
2000
0000
0000
0000
0010
0000
0000
0000
3001
0000
0000
0010
0000
0000
0100
0000
,
0110
0000
1000
1001
0000
0001
0110
0000
,
2000
0000
0000
0000
0100
0000
0000
0000
3001
0000
0000
0100
0000
0000
0010
0000
,
0020
0000
0000
0000
0001
0000
0000
0000
1030
0000
0100
0000
0000
0010
0000
0000
,
0011
0001
1000
1010
0000
0010
0100
0001
,
0010
0100
1100
0000
0001
0101
0000
0000
,
1000
0010
0100
1000
0001
0010
0100
0002
,
1000
0000
0000
0000
1000
0000
0000
0000
0013
0100
0010
0100
1000
0001
1000
0001
,
0000
0101
0000
0000
0000
1001
0000
0000
1100
0000
0000
1000
0001
0000
1000
0000
,
0002
0000
0000
0000
0203
0000
0010
0000
0000
0010
0000
0000
1000
0000
0000
0310
,
0000
1010
0000
0000
0000
0011
0000
0000
0110
0000
0000
0110
0000
0000
0000
0000
,
1000
0100
0010
1000
0010
0100
1000
0001
,
0000
0101
0000
0000
0000
0101
0000
0000
0120
0000
0000
0000
1030
0000
0001
0000
,
2000
0000
0000
0000
3200
0000
0010
0000
0000
0010
0000
0000
0001
0000
0000
0310
,
0000
0011
0000
0000
0000
1010
0000
0000
0110
0000
0000
0110
0000
0000
0000
0000
,
0001
0010
0100
0000
0000
1000
0000
1000
0000
1000
0000
1000
0001
0000
0100
0000
,
0210
0000
0000
0301
0000
0000
1000
0000
0100
0000
0010
0000
0210
0000
0000
1300
,
0000
0000
0001
0000
0100
0000
1000
0000
0001
0000
0010
0100
0000
0101
0000
0000
,
0000
1100
0000
0000
0110
0000
0000
0120
0000
0000
0000
0000
1000
0000
0000
0000
,
0100
0000
0000
0000
0031
0000
0000
1000
0000
0000
1000
0000
0010
0100
0001
0000
,
0101
0000
0000
0000
0100
0010
0001
1000
0000
0000
0000
0000
0100
0010
1000
0001
,
0000
0000
0000
0000
0010
0100
0001
1000
0000
0000
0000
0000
0010
0100
1000
0001
,
0000
0000
0000
0000
1000
0100
0010
1000
0000
0000
0000
0000
0001
0100
0010
0001
,
0000
0010
0001
0000
1000
0010
0100
1000
0000
0100
1000
0000
0100
0001
0000
0000
,
0011
0000
0000
0000
0010
0100
0001
1000
0000
0000
0000
0000
0010
0100
1000
0001
,
0000
0000
0000
0000
0100
0010
0001
1000
0000
0000
0000
0000
0100
0010
1000
0001
,
0000
0000
0000
0000
1000
0010
0100
1000
0000
0000
0000
0000
0001
0010
0100
0001
,
0000
0100
0001
0000
1000
0100
0010
1000
0000
0010
1000
0000
0010
0001
0000
0000
,
1000
0000
0000
0010
0000
0000
0100
0000
0000
0000
0000
0000
0000
0000
0000
0001
0000
0000
0000
0000
0000
0001
0000
0000
1000
0000
0001
0000
1000
0000
0001
0000
0000
0000
0000
0000
1000
0000
0000
0000
0000
0000
0100
0000
0000
0000
0000
0000
,
0110
0000
0100
1000
0000
1000
0001
0000
0100
0000
0010
0000
0110
0000
0100
0001
,
0000
0001
1000
0000
0100
0010
0100
0000
1000
0001
0100
0010
0000
1010
0000
0000
,
0000
0011
0000
0000
0110
0000
0000
0110
0000
0000
0000
0000
0000
0000
0000
0000
;

//--------------- dance-single - tikal. ----------------
#NOTES:
     dance-single:
     tikal.:
     Challenge:
     11:
     0,0,0,0,0:
0000
0000
0000
0000
,
0000
0000
0000
0000
,
0000
0000
0000
0000
,
0000
0000
0000
0000
,
0000
0000
0000
0000
,
0000
0000
0000
0000
0000
0000
0000
0000
0000
0000
0000
0000
1000
0100
0010
0100
,
1000
0000
0001
0200
0010
0000
1000
0000
0000
1000
0000
0000
0310
0000
0000
1000
,
0000
1100
0000
0000
0000
0101
0000
0000
0110
0000
0000
0110
0000
0000
0000
0000
,
1000
0000
0001
0010
0100
0000
0010
1000
0000
0010
0001
0000
1000
0010
0100
0001
,
0000
1000
0100
0000
0001
1000
0000
0010
0002
0000
0000
1003
0001
0100
0010
0100
,
0001
0000
1000
0200
0010
0000
0001
0000
0000
0001
0000
0000
0310
0000
0000
0001
,
0000
0101
0000
0000
0000
1100
0000
0000
0110
0000
0000
0110
0000
0000
0000
0000
,
0001
0000
1000
0010
0100
0000
0010
0001
0000
0010
1000
0000
0001
0010
0100
1000
,
0001
0100
0001
0000
1000
001M
0000
M010
0000
001M
0000
M010
0001
1000
0100
1000
,
0020
0000
0130
1000
0000
1000
0100
0010
1000
0001
0100
0001
0020
0000
0130
0001
,
0000
0001
0100
1000
0100
0010
0001
1000
0010
0100
0001
0010
0000
0011
0000
0000
,
0000
0000
0000
1010
0000
0000
0000
0000
0000
0000
0000
0000
0110
0000
0000
0000
0000
0000
0000
0000
0000
0110
0000
0000
0000
0000
0000
0000
0000
0000
0000
0000
0000
0000
0000
0000
1000
0000
0000
0000
0001
0000
1000
0000
0010
0000
0100
0000
,
0001
0000
1000
0000
0010
0000
1000
0000
0001
0000
0010
0000
0001
0000
0010
0000
0100
0000
1000
0000
0100
0000
0010
0000
0100
0000
0000
0001
0000
0000
0100
0000
0000
1000
0000
0000
0000
0000
0000
1000
0000
0000
0001
0000
0000
0000
0000
0000
,
0000
0101
0000
0000
0000
0110
0000
0000
2010
0000
0000
0000
3002
0000
0000
0013
,
0000
0110
0000
0000
0000
1100
0000
0000
1001
0000
0000
0101
0000
0100
0001
1000
,
0100
0000
2100
0000
0000
3010
0100
0002
0000
0000
0000
0000
1003
0100
0010
1000
,
0010
0100
1000
0000
0001
0100
0010
0000
0100
0001
0000
0100
0001
1000
0100
0000
,
0000
0000
0000
0010
0000
0000
0100
0000
0000
1000
0000
0000
0001
0000
0000
0100
0000
0000
0010
0000
0000
1000
0000
0000
0200
0000
0000
0000
0000
0000
0000
0000
0301
0000
0000
0000
1000
0000
0000
0000
0000
0000
0000
0000
0010
0000
0000
0000
,
0200
0000
0000
0000
0000
0000
0000
0000
1300
0000
0000
0000
0010
0000
0000
0100
0000
0000
0001
0000
0000
1000
0000
0000
0000
0000
0000
0001
0000
0000
0010
0000
0000
0100
0000
0000
0001
0000
0000
0100
0000
0000
0010
0000
0000
0001
0000
0000
,
0000
1001
0000
0000
1010
0000
0000
0110
0000
0000
0000
0101
0000
1001
0000
1000
,
0100
0000
0000
0110
0000
0000
0000
0011
0000
0000
1001
0000
0000
0001
1000
0001
,
0100
0000
0000
0000
0010
0100
1000
0001
0000
0000
0000
0000
0010
0100
0001
1000
,
0000
0000
0000
0000
0100
0010
1000
0001
0000
0000
0000
0000
0100
0010
0001
1000
,
0000
0000
0000
0000
0001
0010
0100
0001
0000
0000
0000
0000
1000
0010
0100
1000
,
0000
0100
1000
0000
0001
0100
0010
0001
0000
0010
0001
0000
0010
1000
0001
1000
,
0100
0000
0000
0000
0010
0100
0001
1000
0000
0000
0000
0000
0010
0100
1000
0001
,
0000
0000
0000
0000
0100
0010
0001
1000
0000
0000
0000
0000
0100
0010
1000
0001
,
0000
0000
0000
0000
1000
0010
0100
1000
0000
0000
0000
0000
0001
0010
0100
0001
,
0000
0100
0001
0000
1000
0100
0010
1000
0000
0010
1000
0000
0010
0001
1000
0001
,
0200
0000
0000
0000
1000
0000
0000
0000
0310
0000
0000
1000
0000
0000
0100
0000
,
0200
0000
0000
0000
0001
0000
0000
0000
0310
0000
0000
0001
0000
0000
0100
0000
,
0020
0000
0000
0000
0001
0000
0000
0000
1030
0000
0000
0100
0000
0000
0010
0000
,
0011
0000
0000
0000
0100
0000
1010
0000
0000
0000
0001
1000
0001
0010
0100
1000
,
0020
0000
0000
0000
0001
0000
0000
0000
0130
0000
0000
0001
0000
0000
0010
0000
,
0200
0000
0000
0000
0001
0000
0000
0000
0310
0000
0001
0000
0000
1000
0000
0000
,
1010
0100
0001
0011
0000
0110
0100
1000
,
0001
1000
0001
0000
1000
0010
0100
0001
0010
0000
0220
0000
0000
0000
0330
0000
,
1000
0001
1000
0100
0010
0001
0100
0010
1000
0001
0010
0100
1000
0010
0200
0000
,
1000
0000
0000
0000
0000
0000
0001
0000
0000
0000
0000
0000
0310
1000
0001
0010
0001
1000
0010
1000
0001
0010
0100
1000
,
0010
0100
0000
0000
0000
0101
0000
0000
1100
0000
0000
0001
1000
0010
0100
0010
,
1000
0000
0001
0020
0100
0000
1000
0000
0000
1000
0000
0000
0130
0000
0000
1000
,
0000
1010
0000
0000
0000
0011
0000
0000
0110
0000
0000
0110
0000
0000
0000
0000
,
1000
0000
0001
0100
0010
0000
0100
1000
0000
0100
0001
0000
1000
0100
0010
0001
,
0000
1000
0010
0000
0001
1000
0000
0100
0002
0000
0000
1003
0001
0010
0100
0010
,
0001
0000
1000
0020
0100
0000
0001
0000
0000
0001
0000
0000
0130
0000
0000
0001
,
0000
0011
0000
0000
0000
1010
0000
0000
0110
0000
0000
0110
0000
0000
0000
0000
,
0001
0010
0001
0000
1000
010M
0000
M100
0000
010M
0000
M100
0001
1000
0010
1000
,
0200
0000
0310
1000
0000
1000
0010
0100
1000
0001
0010
0001
0200
0000
0310
0001
,
0000
0001
0010
1000
0010
0100
0001
1000
0100
0010
0001
0100
0000
0101
0000
0000
,
0000
0000
0000
1100
0000
0000
0000
0000
0000
0000
0000
0000
0110
0000
0000
0000
0000
0000
0000
0000
0000
0110
0000
0000
0000
0000
0000
0000
0000
0000
0000
0000
0000
0000
0000
0000
1000
0000
0000
0000
0001
0000
1000
0000
0001
0000
1000
0000
,
0001
0000
0100
0000
0010
0000
1000
0000
0010
0000
0100
0000
0010
0000
0000
0001
0000
0000
0010
0000
0000
1000
0000
0000
0000
0000
0000
0001
0000
0000
1000
0000
0000
0000
0000
0000
0100
0000
0000
0010
0000
0000
0001
0000
0000
0000
0000
0000
,
1001
0000
1000
0000
0001
0010
0100
0010
0000
0100
0001
0000
0100
1000
0010
0100
,
0000
0000
0001
0000
1000
0010
0100
0010
0000
0100
1000
0000
0100
0001
0010
0100
,
0000
0000
0010
0000
0001
1000
0100
0001
0000
0100
0010
0000
1000
0010
0100
1000
,
0000
0100
1010
0000
0001
0100
0010
0001
0000
0010
0101
0000
0010
1100
0000
0000
,
1001
0000
0001
0000
1000
0100
0010
0100
0000
0010
1000
0000
0010
0001
0100
0010
,
0000
0000
1000
0000
0001
0100
0010
0100
0000
0010
0001
0000
0010
1000
0100
0010
,
0000
0000
0100
0000
1000
0001
0010
1000
0000
0010
0100
0000
0001
0100
0010
0001
,
0000
0010
0101
0000
1000
0010
0100
1000
0000
0100
1010
0000
0100
0011
0000
0000
,
1000
0000
0000
0100
0000
0000
1000
0000
0000
0000
0000
0000
0001
0000
0000
M100
0000
0000
0000
0000
0000
010M
0000
0000
1000
0000
0001
0000
1000
0000
0001
0000
0000
0000
0000
0000
1000
0000
0000
0001
0000
0000
0010
0000
0000
0001
0000
0000
,
1200
0000
0310
0001
0000
0001
0010
0100
0001
1000
0010
1000
0201
0000
0310
1000
,
0000
1000
0010
0001
0010
0100
1000
0001
0100
1000
0001
0010
0000
1010
0000
0000
,
0000
0011
0000
0010
0100
0000
0000
0110
0000
0000
0000
0000
0000
0000
0000
0000
;
