#VERSION:0.83;
#TITLE:Sudden Visitor;
#ARTIST:黒魔;
#ARTISTTRANSLIT:Chroma;
#GENRE:Outer space chiptune;
#CREDIT:tikal.+ as "rolypoly";
#MUSIC:Sudden Visitor.ogg;
#BANNER:Sudden Visitor.png;
#BACKGROUND:Sudden Visitor-bg.png;
#CDTITLE:cdtitle.png;
#SAMPLESTART:96.088;
#SAMPLELENGTH:15;
#OFFSET:-0.022;
#BPMS:0=178,16=44.5,16.5=89,17=356,17.5=178,17.75=89,18=356,18.5=178,18.75=89,19=178,31=356,31.5=178,31.75=89,32=356,32.5=178,32.75=89,33=356,33.5=178,33.75=89,34=356,34.5=178,34.75=89,35=356,35.25=178,35.375=89,35.5=356,35.75=178,35.875=89,36=178,47=356,47.5=178,47.75=89,48=356,48.5=178,48.75=89,49=356,49.5=178,49.75=89,50=356,50.5=178,50.75=89,51=178,63=356,63.5=178,63.75=89,64=356,64.5=178,64.75=89,65=356,65.5=178,65.75=89,66=356,66.5=178,66.75=89,67=356,67.25=178,67.375=89,67.5=356,67.75=178,67.875=89,68=178,82=267,82.75=133.5,83.5=267,84.25=133.5,85=178,93=356,93.5=178,93.75=89,94=267,94.75=133.5,95.5=267,96.25=133.5,97=178,105=356,105.5=178,105.75=89,106=178,118=44.5,118.5=89,119=356,119.5=178,119.75=89,120=178,159.5=118.667,159.667=237.333,160=178,166=44.5,168=178,174=44.5,176=178,192=89,192.25=178,192.5=356,199=267,202=178,205=133.5,208=89,226=178,257.5=118.667,257.667=237.333,258=178,270=44.5,270.5=89,271=356,271.5=178,271.75=89,272=356,272.5=178,272.75=89,273=178,332=44.5,332.5=89,333=178,334=356,334.5=178,334.75=89,335=178,347=356,347.5=178,347.75=89,348=356,348.5=178,348.75=89,349=356,349.5=178,349.75=89,350=356,350.5=178,350.75=89,351=356,351.25=178,351.375=89,351.5=356,351.75=178,351.875=89,352=178,364=118.667,364.167=237.333,364.5=118.667,364.667=237.333,365=356,365.5=178,365.75=89,366=267,366.75=133.5,367.5=267,368.25=133.5,369=178,378=44.5,378.5=89,379=356,379.5=178,379.75=89,381=178,382=267,385=356,387=534,393=178;
#STOPS:;
#WARPS:85=4,97=4,166.021=1.5,174.021=1.5;
#SPEEDS:0=1=0=0,89=0.400=0=0,89.021=1=3.979=0,101=0.400=0=0,101.021=1=3.979=0,120=0.75=3=0,123=1=3=0,128=0.8=0=0,128.021=1=1.979=0,130=0.8=0=0,130.021=1=1.979=0,132=0.8=0=0,132.021=1=1.979=0,134=0.8=0=0,134.021=1=1.979=0,136=0.8=0=0,136.021=1=1.979=0,138=0.8=0=0,138.021=1=1.979=0,140=0.8=0=0,140.021=1=1.979=0,142=0.8=0=0,142.021=1=1.979=0,144=0.8=0=0,144.021=1=1.979=0,146=0.8=0=0,146.021=1=1.979=0,148=0.8=0=0,148.021=1=1.979=0,150=0.8=0=0,150.021=1=1.979=0,152=0.8=0=0,152.021=1=1.979=0,154=0.8=0=0,154.021=1=1.979=0,156=0.8=0=0,156.021=1=2.979=0,160=0.75=0=0,160.021=1=1.979=0,162=0.7=0=0,162.021=1=1.979=0,164=0.65=0=0,164.021=1=1.979=0,168=0.75=0=0,168.021=1=1.979=0,170=0.7=0=0,170.021=1=1.979=0,172=0.65=0=0,172.021=1=1.979=0,369=0.4=0=0,369.021=1.5=8.98=0;
#SCROLLS:0=1,30=0,30.25=2,30.5=0,30.625=2,30.75=0,30.875=2,31=1,46=0,46.25=2,46.5=0,46.625=2,46.75=0,46.875=2,47=1,62=0,62.25=2,62.5=0,62.625=2,62.75=0,62.875=2,63=1,85=2.5,87=256,88=1,97=2.5,99=256,100=1,159=0,159.25=2,159.5=1,166.125=3,166.25=256,167.25=1,174.125=3,174.25=256,175.25=1,177.5=0,177.625=2,177.75=0,177.875=2,178=1,179.5=0,179.625=2,179.75=0,179.875=2,180=1,181.5=0,181.625=2,181.75=0,181.875=2,182=1,183.5=0,183.625=2,183.75=0,183.875=2,184=1,225.5=0,225.75=2,226=1,254=0,254.25=2,254.5=0,254.625=2,254.75=0,254.875=2,255=0,255.125=2,255.25=0,255.375=2,255.5=0,255.625=2,255.75=0,255.875=2,256=0,256.125=2,256.25=0,256.375=2,256.5=0,256.625=2,256.75=0,256.875=2,257=0,257.25=2,257.5=1,346=0,346.25=2,346.5=0,346.625=2,346.75=0,346.875=2,347=1,378=0.667,393=2;
#TICKCOUNTS:0=4;
#TIMESIGNATURES:0=4=4;
#LABELS:0=Song Start;
#COMBOS:0=1;
#DISPLAYBPM:89:178;

//--------------- dance-single - ----------------
#NOTEDATA:;
#STEPSTYPE:dance-single;
#DESCRIPTION:tikal.+ as "rolypoly";
#DIFFICULTY:Easy;
#METER:6;
#RADARVALUES:0,0,0,0,0;
#CREDIT:tikal.+ as "rolypoly";
#NOTES:
0000
0000
0000
0000
,
0000
0000
0000
0000
,
0000
0000
0000
0000
,
0000
0000
0000
0000
,
0200
0000
0000
0000
0300
0000
0000
0000
2002
0000
0000
3003
1000
0000
0000
0000
,
0100
1000
0100
0010
,
0100
0010
0100
0001
,
0100
0000
0001
0000
0100
0010
0002
0000
,
0203
0000
0320
0000
2030
0000
3001
1000
,
0001
0010
0001
0010
,
0100
0010
0100
0010
,
1000
0000
0010
0000
1000
0010
0002
0000
,
0023
0230
2300
3001
,
0100
0001
0100
0010
,
0100
0010
0100
1000
,
0100
0000
1000
0000
0100
0010
2000
0000
,
3200
0000
0320
0000
0032
0000
1003
0001
,
1000
0010
1000
0010
,
0100
0010
0100
0010
,
0001
0010
0001
0010
,
0100
0010
1000
0000
1100
0000
0000
1100
,
0000
0000
0000
0000
0000
0000
0000
0000
0000
0000
0000
0000
0000
0000
0000
0000
0000
0000
0000
0000
0000
0000
0000
0000
0000
0000
0000
0000
0000
0000
0000
0000
0000
0000
0000
0000
0000
0000
0000
0000
0000
0000
0000
0000
0000
0000
0000
0000
1100
0000
0000
0000
0000
0000
0000
0000
0000
0000
0000
0000
0000
0000
0000
0000
0000
0000
0000
0000
0000
0000
0000
0000
0000
0000
0000
0000
0000
000M
0000
0000
0000
0000
0000
0000
0000
0000
000M
0000
0000
0000
0000
0000
0000
0000
0000
0000
000M
0000
0000
0000
0000
0000
0000
0000
0000
0000
000M
0000
0000
0000
0000
0000
0000
0000
0000
000M
0000
0000
0000
0000
0000
0000
0000
0000
0000
0M0M
0000
0000
0000
0000
0000
0000
0000
0000
0000
0000
0000
0000
0000
0000
0000
0000
0000
0000
0000
0000
0000
0000
0000
0000
0000
0000
0000
0000
0000
0000
0000
0000
0000
0000
0000
0000
0000
0000
0000
0000
0000
0000
0000
0000
0000
0000
0000
0000
0000
0000
0000
0000
0000
0000
0000
0000
0000
0000
0000
0000
0000
0000
0000
0000
0000
0000
,
0000
0000
1100
0000
0000
0002
0000
0000
,
0000
0000
0103
0000
0101
0000
0000
0101
,
0000
0000
0000
0000
0000
0000
0000
0000
0000
0000
0000
0000
0000
0000
0000
0000
0000
0000
0000
0000
0000
0000
0000
0000
0000
0000
0000
0000
0000
0000
0000
0000
0000
0000
0000
0000
0000
0000
0000
0000
0000
0000
0000
0000
0000
0000
0000
0000
0101
0000
0000
0000
0000
0000
0000
0000
0000
0000
0000
0000
0000
0000
0000
0000
0000
0000
0000
0000
0000
0000
0000
0000
0000
0000
0000
0000
0000
M000
0000
0000
0000
0000
0000
0000
0000
0000
M000
0000
0000
0000
0000
0000
0000
0000
0000
0000
M000
0000
0000
0000
0000
0000
0000
0000
0000
0000
M000
0000
0000
0000
0000
0000
0000
0000
0000
M000
0000
0000
0000
0000
0000
0000
0000
0000
0000
MM00
0000
0000
0000
0000
0000
0000
0000
0000
0000
0000
0000
0000
0000
0000
0000
0000
0000
0000
0000
0000
0000
0000
0000
0000
0000
0000
0000
0000
0000
0000
0000
0000
0000
0000
0000
0000
0000
0000
0000
0000
0000
0000
0000
0000
0000
0000
0000
0000
0000
0000
0000
0000
0000
0000
0000
0000
0000
0000
0000
0000
0000
0000
0000
0000
0000
0000
,
0000
0000
0101
0000
0000
2000
0000
0000
,
0000
3100
0010
0001
,
1000
0001
0100
0010
,
1000
0000
0001
0000
1000
0100
1000
0000
,
0001
0100
0001
0000
0020
0000
0030
0000
,
0210
0000
1000
0000
,
0001
0000
1300
0001
,
4000
0000
0000
0000
0000
0000
0000
3000
0004
0000
0000
0000
0000
0000
0000
0003
,
4000
0000
0000
0000
0000
0000
0000
3000
0004
0000
0000
0000
0000
0000
0000
0003
,
0400
0000
0000
0000
0000
0000
0000
0300
0040
0000
0000
0000
0000
0000
0000
0030
,
0400
0000
0000
0000
0000
0000
0000
0300
0040
0000
0000
0000
0000
0000
0000
0030
,
4000
0000
0000
0000
0000
0000
0000
3000
0400
0000
0000
0000
0000
0000
0000
0300
,
0040
0000
0000
0000
0000
0000
0000
0030
0004
0000
0000
0000
0000
0000
0000
0003
,
4000
0000
0000
0000
0000
0000
0000
3000
0040
0000
0000
0000
0000
0000
0000
0030
,
0100
0002
0000
0000
0000
0000
1003
0000
,
4100
0000
0000
3000
4001
0000
0000
3000
,
4010
0000
3100
0000
,
0014
0000
0000
0003
1004
0000
0000
0003
,
0104
0000
0013
0000
,
0001
0001
0000
0000
1000
1000
0000
0000
,
0010
0010
0000
0000
0100
0100
0000
0000
,
0001
0010
0100
1000
,
0010
0100
0010
0000
1000
0001
1000
0100
,
0000
0220
0000
0000
,
0000
0000
0000
0000
,
0000
0000
0000
0000
,
0000
0000
0000
0000
,
0000
0330
0002
0203
,
0320
0230
0320
2030
,
3200
0300
2000
3200
,
0320
0230
0320
0032
,
2000
0000
0000
3003
2000
0000
0010
0000
,
3002
0100
0023
0100
,
0032
0100
2003
0010
,
3200
0001
0320
1000
,
0100
0000
0031
1000
0002
0000
0100
0000
,
2003
0010
3200
0010
,
2300
0010
3002
0100
,
0023
0000
1000
0000
0030
0002
0000
0000
,
0000
0000
1003
0000
0010
0010
0000
0000
,
0100
0100
0000
0000
0001
0001
0000
0000
,
1000
1000
0000
0000
0001
0010
0100
0000
,
1000
0010
0100
0000
0002
0000
0003
0000
,
2001
3001
0010
1000
,
0010
0100
0010
0001
,
2000
3100
0002
0103
,
2000
3010
0110
1001
,
0002
0013
2000
3010
,
0002
0103
2000
3100
,
0001
0010
0001
0000
1000
0010
1000
0000
,
0001
0010
0100
0000
1000
0010
0100
0000
,
0001
1000
0010
0001
,
0010
0100
0010
1000
,
0002
0103
2000
3100
,
0002
0013
0110
1001
,
2000
3010
0002
0013
,
2000
3100
0002
0103
,
1000
0010
1000
0000
0001
0010
0001
0000
,
2000
0000
0000
0000
3000
0000
0000
0000
2002
0000
0000
3003
1000
0000
0000
0000
,
0100
0000
0010
0001
0010
0000
0100
0000
,
1000
0000
0001
0010
0001
0000
1000
0000
,
0100
0000
0010
0001
1000
0001
2000
0000
,
3020
0000
0230
0000
0302
0000
1003
0001
,
1000
0000
0100
0001
0100
0000
1000
0000
,
0010
0000
0100
1000
0100
0000
0001
0000
,
0010
0000
0100
0001
0100
0000
1000
0000
,
0010
0100
0001
0000
0202
0000
0303
2020
,
0000
3030
2002
0000
0000
0000
0000
0000
,
0000
0000
0000
0000
,
0000
0000
3003
0000
,
0220
0000
0000
0000
0000
0000
0000
0000
0000
0000
0000
0000
0000
0000
0000
0000
0000
0000
0000
0000
0000
0000
0000
0000
0000
0000
0000
0000
M000
0000
0000
000M
,
0000
0000
M000
0000
0000
000M
0000
0000
M000
0000
0000
0000
000M
0000
0000
0000
M000
0000
0000
0000
000M
0000
0000
0000
M000
0000
0000
0000
0000
0000
000M
0000
,
0000
0000
M000
0000
0000
000M
0000
0000
M000
0000
0000
000M
0000
0000
M000
0000
,
0000
000M
0000
0000
0330
0000
0000
0000
0000
0000
0000
0000
0000
0000
0000
0000
;

//--------------- dance-single - ----------------
#NOTEDATA:;
#STEPSTYPE:dance-single;
#DESCRIPTION:tikal.+ as "rolypoly";
#DIFFICULTY:Medium;
#METER:9;
#RADARVALUES:0,0,0,0,0;
#CREDIT:tikal.+ as "rolypoly";
#NOTES:
0000
0000
0000
0000
,
0000
0000
0000
0000
,
0000
0000
0000
0000
,
0000
0000
0000
0000
,
0200
0000
0000
0000
0300
0000
0000
0000
2002
0000
0000
3003
1000
0000
0100
0000
,
1000
0001
1000
0010
0100
0001
1000
0100
,
1000
0001
1000
0010
0100
0001
1000
0100
,
1000
0000
0001
0000
1000
0000
0010
0000
0200
0000
0310
1000
0002
0000
0000
0000
,
0023
0000
0230
0000
2300
0000
0001
0001
,
3001
1000
0001
0010
0100
1000
0001
0100
,
0001
1000
0001
0010
0100
1000
0001
0100
,
0001
0000
1000
0000
0001
0000
0010
0000
0200
0000
0310
0001
2000
0000
0000
0000
,
3020
0000
0230
0000
0302
0000
1003
0100
,
1000
0010
1000
0100
0010
0001
1000
0010
,
1000
0100
1000
0010
0100
0001
1000
0100
,
1000
0000
0010
0000
1000
0000
0100
0000
0020
0000
0130
1000
0002
0000
0000
0000
,
0203
0000
0320
0000
2030
0000
0001
0001
,
3001
0010
0001
0100
0010
1000
0001
0010
,
0001
0100
0001
0010
0100
1000
0001
0100
,
0001
0010
0001
0100
0010
1000
0010
0100
,
0001
0001
1000
0000
2200
0000
3300
2200
,
0000
3300
2200
0000
0000
0000
3300
0000
,
0000
0000
0000
0000
11MM
00MM
00MM
00MM
00MM
00MM
04MM
40MM
00MM
00MM
00MM
00MM
,
00MM
000M
000M
030M
301M
0000
0000
0000
0202
0000
0000
0000
0303
0000
0202
0000
,
0000
0303
0202
0000
0000
0000
0303
0000
,
0000
0000
0000
0000
M1M1
M0M0
M0M0
M0M0
M0M0
M0M0
M0M4
M4M0
M0M0
M0M0
M0M0
M0M0
,
M0M0
M000
M000
M003
M310
0000
0000
0000
2000
0000
0010
0000
0000
0000
0010
0000
,
3200
0010
0000
0310
0002
0010
0000
0010
,
0203
0010
0000
0310
1000
0100
0001
0100
,
1000
0010
0100
0001
0020
0000
0030
0000
,
0210
0000
1000
0000
,
0001
0000
0000
0000
1300
0001
0100
0000
,
0020
0000
1000
1030
0002
0000
1000
1003
,
0020
0000
1000
1030
0002
0000
1000
1003
,
2000
0000
0001
3001
0020
0000
0001
0031
,
2000
0000
0001
3001
0020
0000
0001
0031
,
0200
0000
0010
0310
2000
0000
0010
3010
,
0200
0000
0010
0310
0002
0000
0010
0013
,
2000
0000
0100
3100
0002
0000
0100
0103
,
0000
0040
0000
0000
0000
0030
0110
0000
,
0002
0010
0010
0013
0200
1000
1000
1300
,
0002
0000
0010
0000
0010
0000
0013
0000
0100
M000
0000
0000
0000
0000
0000
0000
,
2000
0010
0010
3010
0200
0001
0001
0301
,
2000
0000
0010
0000
0010
0000
3010
0000
0100
000M
0000
0000
0000
0000
0000
0000
,
0001
0010
0100
0100
0010
0001
0100
0100
,
0010
1000
0100
0100
1000
0010
0100
0100
,
0001
0010
1000
0010
0001
0100
1000
0100
,
0010
0000
0100
0000
0010
0000
0100
0000
0001
0000
1000
0000
0001
1000
0001
1000
,
0000
2002
0000
0000
,
0000
0000
0000
0000
,
0000
0000
0000
0000
,
0000
0000
0000
0000
,
0000
3003
2000
3200
,
0320
0230
0320
0032
,
0203
0300
0002
0203
,
0320
0230
0320
2030
,
0002
0000
0000
3003
2000
0100
0000
3100
,
0020
0001
0000
0031
0200
0001
0000
0301
,
0020
0100
0000
0130
0200
1000
0000
1300
,
0002
0100
0000
0103
0020
1000
0000
0100
,
0000
0001
0000
0130
0002
0100
0000
0103
,
0020
1000
0000
1030
0200
1000
0000
1300
,
0020
0100
0000
0130
0200
0001
0000
0301
,
2000
0100
0000
3100
0000
0040
0000
0000
,
0000
0000
0031
1000
0100
0100
0100
1000
,
0100
0100
0100
0010
0100
0100
0100
0001
,
0100
0100
0100
0010
0001
0001
1000
1000
,
0010
1000
0010
0000
0100
0001
0100
0000
0020
0000
0000
0000
0130
0000
0000
0000
,
1002
0000
1003
0100
0001
0100
0010
0001
,
0100
0001
0010
0100
1000
0010
0001
0010
,
0200
0000
0000
0001
0000
0000
0310
0000
2000
0000
0000
0001
0000
0000
3100
0000
,
0020
0000
0000
0001
0000
0000
0130
0000
1000
0000
0010
0000
0001
0000
0010
0000
,
1000
0000
0000
0001
0000
0010
0100
0000
1000
0000
0000
0100
0000
0010
0001
0000
,
1000
0000
0000
0001
0000
0100
0010
0000
1000
0000
0000
0010
0000
0100
0001
0000
,
1000
0100
0001
0100
1000
0010
0001
0010
,
0100
0010
1000
0001
0010
0100
2000
0000
,
3001
1000
0001
0100
1000
0100
0010
1000
,
0100
1000
0010
0100
0001
0010
1000
0010
,
0200
0000
0000
1000
0000
0000
0310
0000
0002
0000
0000
1000
0000
0000
0103
0000
,
0020
0000
0000
1000
0000
0000
0130
0000
0001
0000
0010
0000
1000
0000
0010
0000
,
0001
0000
0000
1000
0000
0010
0100
0000
0001
0000
0000
0100
0000
0010
1000
0000
,
0001
0000
0000
1000
0000
0100
0010
0000
0001
0000
0000
0010
0000
0100
1000
0000
,
0001
0100
1000
0100
0001
0010
1000
0010
,
0200
0000
0000
0000
0310
0000
0000
0000
2002
0000
0000
3003
0001
0000
0100
0000
,
0010
0100
0001
0100
1000
0100
0010
1000
,
0100
1000
0010
0001
0010
1000
0100
0010
,
0100
0000
0001
0000
0100
0000
1000
0000
0020
0000
0130
0001
2000
0000
0000
0000
,
3200
0000
0320
0000
0032
0000
1000
1000
,
1003
0000
0001
0000
0100
0000
0010
1000
0000
1000
0010
0000
0100
0000
0001
0000
,
1000
0000
0001
0000
0010
0000
0100
1000
0000
1000
0100
0000
0010
0000
0001
0000
,
1000
0001
0100
0010
1000
1000
0001
0001
,
0010
0010
0100
0000
2200
0000
3300
0022
,
0000
0033
2002
0000
0000
0000
0000
0000
,
0000
0000
0000
0000
3003
0000
0000
0000
4000
0004
0000
0000
0000
0000
0000
0000
,
0000
0000
0000
0000
0000
0000
0000
3000
0003
0000
0000
0000
0000
0000
0000
0000
,
0220
0000
0000
0000
0000
0000
0000
0000
0000
0000
0000
0000
0000
0000
0000
0000
0000
0000
0000
0000
0000
0000
0000
0000
0000
0000
0000
0000
M000
0000
0000
000M
,
0000
0000
M000
0000
0000
000M
0000
0000
M000
0000
0000
0000
000M
0000
0000
0000
M000
0000
0000
0000
000M
0000
0000
0000
M000
0000
0000
0000
0000
0000
000M
0000
,
0000
0000
M000
0000
0000
000M
0000
0000
M000
0000
0000
000M
0000
0000
M000
0000
,
0000
000M
0000
0000
0330
0000
0000
0000
0000
0000
0000
0000
0000
0000
0000
0000
;

//--------------- dance-single - ----------------
#NOTEDATA:;
#STEPSTYPE:dance-single;
#DESCRIPTION:tikal.+ as "rolypoly";
#DIFFICULTY:Hard;
#METER:10;
#RADARVALUES:0,0,0,0,0;
#CREDIT:tikal.+ as "rolypoly";
#NOTES:
0000
0000
0000
0000
,
0000
0000
0000
0000
,
0000
0000
0000
0000
,
0000
0000
0000
0000
,
0200
0000
0000
0000
0300
0000
0000
0000
2002
0000
0000
3003
1000
0000
0100
0000
,
0010
0100
1000
0100
0001
0100
0010
0001
,
0100
0001
0010
1000
0010
0001
0100
0010
,
0100
0000
1000
0000
0100
0000
0001
0000
0020
0000
0130
1000
0002
0000
0000
0000
,
0203
0000
0000
0000
0320
0000
0000
0000
2030
0000
0000
0000
3100
00M0
0100
0000
,
0001
0100
0010
0100
1000
0100
0010
1000
,
0100
1000
0010
0001
0010
1000
0100
0010
,
0100
0000
0001
0000
0100
0000
1000
0000
0020
0000
0130
0001
2000
0000
0000
0000
,
3200
0000
0000
0000
0320
0000
0000
0030
2002
0000
0000
3003
0001
0000
0100
0000
,
0010
0000
0100
0000
1000
0000
0100
0010
0000
1000
0001
0000
1000
0000
0100
0000
,
0010
0000
0100
0000
0001
0000
0100
0010
0000
0001
1000
0000
0010
0000
0001
0000
,
0010
0000
0100
0000
0010
0000
1000
0001
0200
0000
0310
1000
0002
0000
0000
0000
,
0023
0000
0000
0000
0230
0000
0000
0000
2300
0000
0000
0000
3010
0M00
0010
0000
,
0001
1000
0100
0000
0001
0000
0100
0010
0000
0001
1000
0000
0001
0000
0100
0000
,
0010
0000
0100
0000
1000
0000
0100
0010
0000
1000
0001
0000
0010
0000
1000
0000
,
0010
0000
0100
0000
0010
0000
0001
1000
0001
0100
0010
0000
0100
0010
1000
0000
,
0100
00M0
0100
0000
0001
0000
0000
0000
0202
0000
0000
0000
0303
0000
2020
0000
,
0000
3030
0022
0000
0000
0000
0033
0000
,
0000
0000
0000
0000
MM11
MM00
MM00
MM00
MM00
MM00
MM01
MM10
MM01
MM00
MM10
MM01
,
MM10
M000
M001
M010
M100
0000
0000
0000
2200
0000
0000
0000
3300
0000
0022
0000
,
0000
0033
2020
0000
0000
0000
3030
0000
,
0000
0000
0000
0000
1M1M
0M0M
0M0M
0M0M
0M0M
0M0M
1M0M
0M1M
1M0M
0M0M
0M1M
1M0M
,
0M1M
000M
100M
001M
010M
0000
0000
0000
0020
0000
1000
0000
0000
0000
1000
0001
,
0000
0000
0001
0000
0000
0000
0031
1000
0200
0000
1000
0000
0000
0000
1000
0001
,
0000
0000
0001
0000
0000
0000
0301
1000
0010
0000
0010
0000
0100
0000
0100
0000
,
0001
0010
0001
0000
1000
0010
1000
0000
0200
0000
0000
0000
0300
0000
0000
0000
,
0120
0000
0001
0000
,
1000
0000
0000
0000
0000
0000
0000
0000
0000
0000
0000
0000
0000
0000
0000
0000
0031
0000
0000
0000
1000
0000
0000
0000
0100
00M0
0100
0000
0001
0000
0000
0000
,
0020
0000
0100
0000
0130
1000
0100
0000
0200
0000
1000
0000
1300
0010
1000
0000
,
2000
0000
0010
0000
3010
0100
0010
0000
0020
0000
0100
0000
0130
0001
0100
0000
,
0200
0000
0001
0000
0301
0010
0001
0000
0002
0000
0010
0000
0013
0100
0010
0000
,
0020
0000
0001
0000
0031
0100
0001
0000
0002
0000
0100
0000
0103
0010
0100
0000
,
0200
0000
0010
0000
0310
1000
0010
0000
0020
0000
1000
0000
1030
0100
1000
0000
,
2000
0000
0100
0000
3100
0010
0100
0000
0200
0000
0010
0000
0310
0001
0010
0000
,
0020
0000
0001
0000
0031
1000
0100
0000
0200
0000
1000
0000
1300
0001
0100
0000
,
0010
4000
0000
0000
0000
0000
3001
1000
,
0001
0010
0001
0010
0100
0000
0010
0000
0001
0100
0001
0100
0010
0000
0100
0000
,
0001
0010
0001
0010
0100
0000
0010
0000
0001
M000
0000
0000
0000
0000
0000
0000
,
1000
0010
1000
0010
0100
0000
0010
0000
1000
0100
1000
0100
0010
0000
0100
0000
,
1000
0010
1000
0010
0100
0000
0010
0000
1000
000M
0000
0000
0000
0000
0000
0000
,
0001
0010
0001
0010
0200
0000
1000
0000
1300
0100
1000
0100
0020
0000
0001
0000
,
0031
0100
0001
0100
0020
0000
1000
0000
1030
0010
1000
0010
0200
0000
0001
0000
,
0301
0010
0001
0000
1000
0010
1000
0000
0001
0100
0001
0000
1000
0100
1000
0000
,
0001
0010
0100
0000
1000
0010
0100
0000
0010
1000
0001
1000
0100
0010
0001
0100
,
0000
2002
0000
0000
,
0000
0000
0000
0000
,
0000
0000
0000
0000
,
0000
0000
0000
0000
,
0000
3003
2000
3200
,
0302
0203
0320
0032
,
0203
0300
0002
0203
,
2300
3200
0320
2030
,
0002
0000
0000
0000
0000
0000
3MM3
0000
2000
0000
0100
0000
0000
0000
3100
1000
,
0020
0000
0100
0000
0000
0000
0130
0010
2000
0000
0100
0000
0000
0000
3100
0010
,
0002
0000
1000
0000
0000
0000
1003
0010
0200
0000
1000
0000
0000
0000
1300
0100
,
0020
0000
1000
0000
0000
0000
1030
0100
0001
0000
0100
0000
0010
0000
0100
0000
,
1000
0000
0001
0000
0010
0000
0010
0000
0002
0000
0100
0000
0000
0000
0103
0001
,
0020
0000
0100
0000
0000
0000
0130
0010
0002
0000
0100
0000
0000
0000
0103
0010
,
2000
0000
0001
0000
0000
0000
3001
0010
0200
0000
0001
0000
0000
0000
0301
0100
,
0020
0000
0001
0000
0000
0000
0031
0100
0000
0000
0040
0000
0000
0000
0000
0000
,
0000
0000
0000
0000
1030
0000
0001
0000
0010
0001
0010
0001
0010
0000
0100
0000
,
1000
0010
1000
0010
1000
0000
0001
0000
1000
0100
1000
0100
1000
0000
0010
0000
,
0100
0001
0100
0001
0100
0000
0010
0000
1000
0010
1000
0000
0001
0010
0001
0000
,
1000
0100
1000
0001
0100
0001
1000
0010
0200
0000
0000
0000
0310
0000
0000
0000
,
2001
0000
0000
0000
3001
0010
0001
0000
0010
0100
0010
0000
0100
1000
0100
0000
,
1000
0001
1000
0000
0010
1000
0010
0000
0100
0010
0100
0000
0001
0100
0001
0000
,
0010
0000
0001
1000
0000
1000
0100
0000
0010
0000
0100
1000
0000
1000
0001
0000
,
0100
0000
0010
1000
0000
1000
0001
0000
0011
0000
1000
0000
1010
0000
0001
0000
,
1001
0000
1000
0100
0000
0010
0001
0000
1000
0000
0001
0100
0000
0010
1000
0000
,
0001
0000
1000
0010
0000
0100
0001
0000
1000
0000
0001
0010
0000
0100
1000
0000
,
0001
0010
0100
0000
0010
1000
0010
0000
0100
0010
0001
0000
1000
0010
0100
0000
,
0010
0001
0010
0000
0100
0010
1000
0000
0001
0010
0100
1000
0020
0000
0000
0000
,
1030
0000
0001
0000
1000
0010
1000
0000
0010
0100
0010
0000
0100
0001
0100
0000
,
0001
1000
0001
0000
0010
0001
0010
0000
0100
0010
0100
0000
1000
0100
1000
0000
,
0010
0000
1000
0001
0000
0001
0100
0000
0010
0000
0100
0001
0000
0001
1000
0000
,
0100
0000
0010
0001
0000
0001
1000
0000
1010
0000
0001
0000
0011
0000
1000
0000
,
1001
0000
0001
0100
0000
0010
1000
0000
0001
0000
1000
0100
0000
0010
0001
0000
,
1000
0000
0001
0010
0000
0100
1000
0000
0001
0000
1000
0010
0000
0100
0001
0000
,
1000
0010
0100
0000
0010
0001
0010
0000
0100
0010
1000
0000
0001
0010
0100
1000
,
0002
0000
0000
0000
0000
0000
0000
0000
0103
00M0
0100
0000
1000
0000
0000
0000
2002
0000
0000
0000
0000
0000
3003
0000
0001
0000
0100
0000
0001
0000
0000
0000
,
0010
0000
0100
0000
0010
0001
0100
0000
0001
0000
0010
0000
0100
1000
0100
0000
,
0010
0000
0001
0000
1000
0100
0010
0000
0100
0000
1000
0000
0010
0100
0010
0000
,
1000
0000
0100
0000
0010
0100
1000
0000
0020
0000
0130
0001
2000
0000
0000
0000
,
3200
0000
0000
0000
0320
0000
0000
0000
0032
0000
0000
0000
0103
00M0
0100
0000
,
1000
0000
0010
0000
1000
0100
0010
0000
0001
0000
0100
0000
0010
1000
0010
0000
,
0100
0000
0001
0000
1000
0010
0100
0000
0001
0000
0100
0000
0001
0010
0001
0000
,
0100
0000
0010
0000
0100
0001
0010
0000
0001
0010
0100
0000
0010
0100
1000
0000
,
0010
0M00
0010
0000
0001
0000
0000
0000
0022
0000
0000
0000
0033
0000
2200
0000
,
0000
3300
2002
0000
0000
0000
0000
0000
,
0000
0000
0000
0000
3003
0000
0000
0000
1000
0001
1000
0001
1000
0001
1000
0001
,
1000
0001
1000
0001
1000
0001
1000
0001
2000
0000
0000
0000
3001
0000
0000
0000
,
0220
0000
0000
0000
0000
0000
0000
0000
0000
0000
0000
0000
0000
0000
0000
0000
0000
0000
0000
0000
0000
0000
0000
0000
0000
0000
0000
0000
M000
0000
0000
000M
,
0000
0000
M000
0000
0000
000M
0000
0000
M000
0000
0000
0000
000M
0000
0000
0000
M000
0000
0000
0000
000M
0000
0000
0000
M000
0000
0000
0000
0000
0000
000M
0000
,
0000
0000
M000
0000
0000
000M
0000
0000
M000
0000
0000
000M
0000
0000
M000
0000
,
0000
000M
0000
0000
0330
0000
0000
0000
0000
0000
0000
0000
0000
0000
0000
0000
;

//--------------- dance-single - ----------------
#NOTEDATA:;
#STEPSTYPE:dance-single;
#DESCRIPTION:tikal.+ as "rolypoly";
#DIFFICULTY:Challenge;
#METER:12;
#RADARVALUES:0,0,0,0,0;
#CREDIT:tikal.+ as "rolypoly";
#NOTES:
0000
0000
0000
0000
,
0000
0000
0000
0000
,
0000
0000
0000
0000
,
0000
0000
0000
0000
,
0200
0000
0000
0000
0300
0000
0000
0000
2002
0000
0000
3003
0001
0100
0001
0000
,
0010
0000
0100
0000
0010
0001
0100
0000
0001
0000
0010
0000
0100
1000
0100
0000
,
0010
0000
0001
0000
1000
0100
0010
0000
0100
0000
1000
0000
0010
0100
0010
0000
,
1000
0000
0100
0000
0010
0100
1000
0000
0020
0000
0130
0001
2000
0000
0000
0000
,
3200
0000
0000
0000
0320
0000
0000
0000
0032
0000
0000
0000
0103
00M0
0100
0000
,
1000
0000
0010
0000
1000
0100
0010
0000
0001
0000
0100
0000
0010
1000
0010
0000
,
0100
0000
0001
0000
1000
0010
0100
0000
0001
0000
0100
0000
0001
0010
0001
0000
,
0100
0000
0010
0000
0100
0001
0010
0000
0200
0000
0310
0001
2000
0000
0000
0000
,
3020
0000
0000
0000
0230
0000
0000
0300
2002
0000
0000
3003
1000
0000
0010
0100
,
0000
0100
0001
0000
0010
0000
0001
0100
0000
0010
1000
0000
0001
0000
0010
0100
,
0000
0100
1000
0000
0010
0000
1000
0100
0000
0010
0001
0000
1000
0000
0001
0100
,
0000
0100
0010
0000
1000
0000
0001
0010
0200
0000
0310
0001
2000
0000
0000
0000
,
3020
0000
0000
0000
0230
0000
0000
0000
0302
0000
0000
0000
0013
0M00
0010
0000
,
1000
0010
1000
0000
0100
0000
1000
0010
0000
0100
0001
0000
1000
0000
0100
0010
,
0000
0010
0001
0000
0100
0000
0001
0010
0000
0100
1000
0000
0001
0000
1000
0010
,
0000
0010
0100
0000
0001
0000
1000
0100
0010
0001
1000
0001
0100
0010
1000
0010
,
0100
0000
0100
0000
0001
0000
1000
0001
0202
0000
0000
0000
0303
0000
2020
0000
,
0000
3030
0022
0000
0000
0000
0033
0000
,
0000
0000
0000
0000
MM11
MM00
MM00
MM00
MM00
MM00
MM01
MM10
MM01
MM10
MM01
MM10
,
MM01
M010
M001
M010
M100
0000
0000
0000
2200
0000
0000
0000
3300
0000
0022
0000
,
0000
0033
2020
0000
0000
0000
3030
0000
,
0000
0000
0000
0000
1M1M
0M0M
0M0M
0M0M
0M0M
0M0M
1M0M
0M1M
1M0M
0M1M
1M0M
0M1M
,
1M0M
001M
100M
001M
010M
0000
0000
0000
0020
0000
1000
0001
0000
0000
0001
1000
,
0000
0000
1000
0001
0000
0000
0031
1000
0200
0000
1000
0001
0000
0000
0001
1000
,
0000
0000
1000
0001
0000
0000
0301
1000
0200
0010
0001
0000
0000
0010
1000
0000
,
0000
0310
0001
1000
0001
0100
0010
1000
0200
0000
0000
0000
0300
0000
0000
0000
,
0120
0000
0001
0000
,
1000
0000
0000
0000
0000
0000
0000
0000
0000
0000
0000
0000
0000
0000
0000
0000
0031
0000
0000
0000
1000
0000
0000
0000
0100
00M0
0100
0000
0001
0000
0000
0000
,
0020
0000
0130
1000
0100
1000
0100
1000
0020
0000
1030
0100
1000
0100
1000
0100
,
0020
0000
0130
1000
0100
1000
0100
1000
0020
0000
1030
0100
1000
0100
1000
0100
,
0020
0000
0031
0100
0001
0100
0001
0100
0020
0000
0130
0001
0100
0001
0100
0001
,
0020
0000
0031
0100
0001
0100
0001
0100
0020
0000
0130
0001
0100
0001
0100
0001
,
0020
0000
0130
1000
0100
0010
0100
1000
0020
0000
1030
0100
0010
0100
1000
0100
,
0020
0000
0031
0100
0010
0100
0001
0100
0020
0000
0130
0001
0100
0010
0100
0001
,
0020
0000
0130
1000
0010
1000
0100
1000
0020
0000
0130
0001
0010
0001
0100
0001
,
0010
0400
0000
0000
0000
0000
1300
0001
,
1000
0010
0100
0001
0100
0001
0100
0001
1000
0010
0100
0001
0100
0001
0100
0001
,
1000
0010
0100
0001
0100
0001
0100
0001
1000
000M
0000
0000
0000
0000
0000
0000
,
0001
0010
0100
1000
0100
1000
0100
1000
0001
0010
0100
1000
0100
1000
0100
1000
,
0001
0010
0100
1000
0100
1000
0100
1000
0001
M000
0000
0000
0000
0000
0000
0000
,
1000
0100
1000
0100
0020
0000
0430
4300
3001
0100
0001
0100
0020
0000
0430
0304
,
1003
0010
1000
0010
0200
0000
0340
4030
3001
0010
0001
0010
0200
0000
0340
0034
,
1003
0010
0100
0001
1000
0100
0010
0001
1000
0010
0100
0001
1000
0100
0010
0001
,
1000
0100
1000
0001
0100
0001
1000
0001
0010
0100
1000
0010
0100
0001
0010
0100
,
0000
2002
0000
0000
,
0000
0000
0000
0000
,
0000
0000
0000
0000
,
0000
0000
0000
0000
,
0000
3003
2000
3200
,
0302
0203
0320
0032
,
0203
0300
0002
0203
,
2300
3200
0320
2030
,
0002
0000
0000
0000
0000
0000
3MM3
0000
2000
0000
0010
0100
0000
0000
3100
0010
,
0200
0000
0001
1000
0000
0000
1300
0100
0002
0000
0100
0010
0000
0000
1003
0001
,
0200
0000
0001
1000
0000
0000
1300
0001
0020
0000
0001
0100
0000
0000
0130
0010
,
0002
0000
0010
0100
0000
0000
0013
0001
0200
0000
0001
1000
0000
0000
1000
0001
,
0000
0000
0010
1000
0000
0000
0310
0000
0002
0000
0010
0100
0000
0000
0103
0010
,
0200
0000
1000
0001
0000
0000
0301
0100
2000
0000
0100
0010
0000
0000
3001
1000
,
0200
0000
1000
0001
0000
0000
0301
1000
0020
0000
1000
0100
0000
0000
0130
0010
,
2000
0000
0010
0100
0000
0000
3010
0100
0000
0000
0001
1000
0001
1000
0001
1000
,
0001
1000
0001
1000
0100
0000
0010
0000
0001
0010
0100
0010
0001
0010
0100
1000
,
0001
0100
0010
0100
0001
0100
0010
1000
0100
0010
0100
1000
0100
0010
0001
1000
,
0010
0100
0010
1000
0010
0100
0001
1000
0100
0010
0001
1000
0010
0100
0001
1000
,
0100
0001
0100
1000
0001
0100
0010
1000
0200
0000
0000
0000
0310
0000
0000
0000
,
1002
0000
0000
0000
1003
0010
1000
0001
0100
0001
0010
0100
0010
0001
0100
0010
,
1000
0010
0100
0001
1000
0100
1000
0001
0010
0001
1000
0001
0100
0010
1000
0001
,
0020
0000
0031
0100
00M0
0100
1000
0000
0020
0000
1030
0100
00M0
0100
0001
0000
,
0020
0000
0031
0100
00M0
0100
1000
0000
1010
0000
0001
0000
0011
0000
1000
0000
,
1001
0000
0001
0010
0000
0100
0001
0000
1000
0000
0001
0100
0000
0010
0001
0000
,
1000
0000
0010
0100
0000
0001
0010
0000
1000
0000
0010
0001
0000
0100
0010
0000
,
1000
0010
0100
0001
0100
0010
1000
0001
1000
0100
0010
0100
1000
0001
0010
0001
,
1000
0010
0100
0001
1000
0001
0010
0100
1000
0100
0010
0001
0200
0000
0000
0000
,
0301
0010
0100
1000
0001
0010
0001
1000
0100
1000
0010
0100
0010
1000
0100
0010
,
0001
0010
0100
1000
0001
0100
0001
1000
0010
1000
0001
1000
0100
0010
0001
1000
,
0020
0000
1030
0100
00M0
0100
0001
0000
0020
0000
0031
0100
00M0
0100
1000
0000
,
0020
0000
1030
0100
00M0
0100
0001
0000
0011
0000
1000
0000
1010
0000
0001
0000
,
1001
0000
1000
0010
0000
0100
1000
0000
0001
0000
1000
0100
0000
0010
1000
0000
,
0001
0000
0010
0100
0000
1000
0010
0000
0001
0000
0010
1000
0000
0100
0010
0000
,
0001
0010
0100
1000
0100
0010
0001
1000
0001
0100
0010
0100
0001
1000
0010
1000
,
0002
0000
0000
0000
0000
0000
0000
0000
0103
00M0
0100
0000
1000
0000
0000
0000
2002
0000
0000
0000
0000
0000
3003
0000
0001
0000
0010
0000
0001
0000
1000
0000
,
0001
0100
0010
0000
1000
0010
1000
0001
1000
0100
0010
0000
0100
1000
0001
1000
,
0010
0100
0001
0000
0100
0001
1000
0001
0010
0100
1000
0000
0001
0100
0001
1000
,
0001
0010
0100
0000
1000
0100
1000
0001
0200
0000
0310
1000
0002
0000
0000
0000
,
0023
0000
0000
0000
0230
0000
0000
0000
2300
0000
0000
0000
3010
0M00
0010
0000
,
0001
0010
0100
0000
1000
0100
1000
0001
1000
0010
0100
0000
0010
1000
0001
1000
,
0100
0010
0001
0000
0010
0001
1000
0001
0100
0010
1000
0000
0001
0010
0001
1000
,
0001
0100
0010
0000
1000
0010
1000
0001
0010
0100
1000
0001
0100
0010
0100
0001
,
0010
0M00
0010
0000
1000
0000
0000
0000
2020
0000
0000
0000
3030
0000
0202
0000
,
0000
0303
2002
0000
0000
0000
0000
0000
,
0000
0000
0000
0000
3003
0000
0000
0000
1000
0001
1000
0001
1000
0001
1000
0001
,
1000
0001
1000
0001
1000
0001
1000
0001
2000
0000
0000
0000
3001
0000
0000
0000
,
0220
0000
0000
0000
0000
0000
0000
0000
0000
0000
0000
0000
0000
0000
0000
0000
0000
0000
0000
0000
0000
0000
0000
0000
0000
0000
0000
0000
M000
0000
0000
000M
,
0000
0000
M000
0000
0000
000M
0000
0000
M000
0000
0000
0000
000M
0000
0000
0000
M000
0000
0000
0000
000M
0000
0000
0000
M000
0000
0000
0000
0000
0000
000M
0000
,
0000
0000
M000
0000
0000
000M
0000
0000
M000
0000
0000
000M
0000
0000
M000
0000
,
0000
000M
0000
0000
0330
0000
0000
0000
0000
0000
0000
0000
0000
0000
0000
0000
;
