#TITLE:SAY WHAT YOU MEAN;
#SUBTITLE:;
#ARTIST:Monaural Heads;
#TITLETRANSLIT:;
#SUBTITLETRANSLIT:;
#ARTISTTRANSLIT:;
#GENRE:Melo core;
#CREDIT:tikal.;
#MUSIC:SAY WHAT YOU MEAN.ogg;
#BANNER:;
#BACKGROUND:;
#CDTITLE:;
#SAMPLESTART:29.730;
#SAMPLELENGTH:11.294;
#SELECTABLE:YES;
#OFFSET:-0.083;
#BPMS:0.000=170.000
,116.000=168.000
,117.250=172.000
,121.000=175.000
,125.313=177.000
,148.000=170.000
,193.000=173.150
,194.000=173.325
,195.000=173.500
,196.000=173.675
,197.000=173.850
,198.000=174.025
,199.000=174.200
,200.000=174.375
,201.000=174.550
,202.000=174.725
,203.000=174.900
,204.000=174.075
,205.000=175.250
,206.000=175.425
,207.000=175.600
,208.000=175.775
,209.000=175.950
,210.000=176.125
,211.000=176.300
,212.000=176.475
,213.000=176.650
,214.000=176.825
,215.000=177.000
,216.000=177.175
,217.000=177.350
,218.000=177.525
,219.000=177.700
,220.000=177.875
,221.000=178.050
,222.000=178.225
,223.000=178.400
,224.000=178.575
,225.000=178.750
,226.000=178.925
,227.000=179.100
,228.000=179.450
,229.000=179.625
,230.000=179.800
,231.000=179.975
,232.000=180.150
,233.000=180.325
,234.000=180.500
,235.000=180.675
,236.000=180.850
,237.000=181.025
,238.000=181.200
,239.000=181.375
,240.000=181.550
,241.000=181.725
,242.000=181.900
,243.000=182.075
,244.000=182.250
,245.000=182.425
,254.000=182.600
,254.063=176.785
,254.229=170.969
,254.333=165.154
,254.479=159.338
,254.563=153.523
,254.729=147.708
,254.813=141.892
,255.000=136.077
,255.083=130.262
,255.167=124.446
,255.250=118.631
,255.417=112.815
;
#STOPS:;
#DISPLAYBPM:170.000:183.000;
#BGCHANGES:-4.000=SAY WHAT YOU MEAN.avi=1.000=1=0=0=StretchNoLoop==CrossFade==,
99999.000=-nosongbg-=1.000=0=0=0=StretchNoLoop====
;
#FGCHANGES:;

//--------------- dance-single - tikal. ----------------
#NOTES:
     dance-single:
     tikal.:
     Medium:
     8:
     0,0,0,0,0:
0000
0000
0000
0000
,
0000
0000
0000
0000
,
0000
0000
0000
0000
,
0000
0000
0000
0000
,
1000
0000
1000
0100
0001
0000
0001
0100
,
0010
0000
0010
0100
1000
0000
0001
0100
,
1000
0000
1000
0100
0010
0000
0010
0100
,
0001
0000
1000
0001
0000
0001
1000
0001
,
0000
0000
0010
0000
0010
0000
0000
0010
0000
0010
0000
0000
0010
0000
0000
0000
,
0001
0010
1000
0001
0000
0001
0100
1000
,
0001
0100
1000
0001
0000
0001
0010
1000
,
0001
0000
1000
0100
0010
0100
0001
0100
,
0010
0000
0001
1000
0000
1001
0000
0001
,
1000
0010
0001
1000
0000
1000
0100
0001
,
1000
0100
0001
1000
0000
1000
0010
0001
,
1000
0000
0001
0100
0010
0100
1000
0100
,
0010
0000
1000
0001
0000
1001
0000
1000
,
0001
0100
0000
0100
0000
0100
0010
1010
,
0000
1010
0000
1000
0000
1000
0000
0001
,
0011
0010
0000
0010
0000
0010
0100
1100
,
0000
1001
0000
0101
0000
0110
1000
0001
,
0010
0100
0020
0000
0130
1000
0200
0000
,
1300
0001
2000
0000
3001
0100
0001
0100
,
0010
0100
0020
0000
0130
0001
0200
0000
,
0301
1000
0002
0000
1003
0010
0001
0010
,
0100
0010
0200
0000
0310
1000
0020
0000
,
1030
0001
2000
0000
3001
0010
0001
0010
,
0100
0010
0200
0000
0310
0001
0020
0000
,
0031
1000
0002
0000
1003
0100
0001
0100
,
0010
0000
0000
0001
0000
1000
0000
0001
,
0000
1000
0000
0010
0000
0100
0000
0010
,
0000
0100
0000
0001
0000
0010
0000
0100
,
0000
0000
0000
1000
0000
0000
0000
0000
0000
0001
0000
0000
0000
0000
1000
0000
0000
0000
0001
0000
0000
0000
0000
0000
,
1000
0010
0001
0010
,
0100
0100
0001
0010
,
1000
0010
0100
0100
,
1000
0000
0000
0000
,
0001
0000
1000
0010
0001
0000
0001
0010
,
0100
0000
0100
0010
1000
0001
0010
0100
,
1000
0000
0001
0010
1000
0000
1000
0010
,
0100
0010
0001
1000
0010
0100
0001
0100
,
0010
0010
0100
0001
,
1000
0001
1000
0100
0000
0100
0010
0001
,
0100
0010
1000
0001
,
1001
0000
0000
0000
0000
1000
0100
1100
,
0000
1001
0000
0101
0000
0110
0000
0000
,
1001
0000
0000
0001
0000
0010
0000
0011
,
0000
1001
0000
1010
0000
0110
0000
0000
,
0000
0001
0001
0001
0100
0010
0200
0000
,
0310
1000
0020
0000
1030
0001
1000
0000
,
0001
0010
0001
0010
0100
0010
0200
0000
,
0310
0001
0020
0000
0031
1000
0002
0000
,
1003
0100
0001
0100
0010
0100
0020
0000
,
0130
1000
0200
0000
1300
0001
2000
0000
,
3001
0100
0001
0100
0010
0100
0020
0000
,
0130
0000
0001
0000
0200
0000
0000
0300
1001
0000
0000
0000
0110
0000
0000
0000
,
0001
0010
0100
1000
0001
0010
0011
0000
,
0001
1000
1001
0000
0001
0100
0101
0000
,
1000
0001
1000
0001
1000
0100
1100
0000
,
1000
0001
1001
0000
1000
0010
1010
0000
,
0001
0010
1000
0010
0001
0100
0101
0000
,
0001
1000
1001
0000
0001
0010
0011
0000
,
1000
0001
1000
0001
1000
0010
1010
0000
,
1000
0000
0000
0001
0000
0000
1001
0000
0000
0000
0000
0000
1000
0000
0000
0000
0100
0000
0000
0000
0010
0000
0000
0000
,
2002
0000
0000
0000
,
0000
0000
0000
0000
0000
0000
0000
0000
0000
0000
0000
3003
,
0000
0000
0000
0110
0000
0000
0000
0000
0000
0000
0000
0000
0000
0000
0000
0000
;

//--------------- dance-single - tikal. ----------------
#NOTES:
     dance-single:
     tikal.:
     Hard:
     10:
     0.793602,0.855167,0.441542,0.308052,0.698252,541,498,43,30,2,0,0.793602,0.855167,0.441542,0.308052,0.698252,541,498,43,30,2,0:
0000
0000
0000
0000
,
0000
0000
0000
0000
,
0000
0000
0000
0000
,
0000
0000
0000
0000
,
1002
0000
0000
0000
0013
0001
0010
0001
0020
0000
0000
0000
0130
0010
0100
0010
,
0200
0000
0000
0000
1300
0100
1000
0100
1000
0000
0001
0000
0100
0000
0010
0000
,
2000
0000
0000
0000
3010
0100
0010
0100
0020
0000
0000
0000
0130
0001
0100
0001
,
1000
1000
0100
1000
0000
0001
0100
0001
,
0000
0000
1000
0000
0100
0010
0000
0001
0000
0100
0010
0000
0200
0000
0000
0000
,
0302
0000
0000
0000
0103
0001
2000
0000
0000
0000
3001
0100
0001
0100
0010
1000
,
0002
0000
0000
0000
0013
0001
2000
0000
0000
0000
3001
0010
0001
0010
0100
1000
,
0002
0000
1003
0010
0001
1000
0100
0001
,
0101
0000
1001
1100
0000
0110
0000
0001
,
2000
0000
0000
0000
3100
1000
0002
0000
0000
0000
1003
0100
1000
0100
0010
0001
,
2000
0000
0000
0000
3010
1000
0002
0000
0000
0000
1003
0010
1000
0010
0100
0001
,
2000
0000
3001
0010
1000
0001
0100
1000
,
1100
0000
0000
0000
1001
0000
0101
0000
0000
0000
0110
0000
1000
0001
1000
0001
,
1000
0000
0100
0000
0000
0000
0100
0000
0000
0000
0100
0010
0100
0010
0001
0000
,
0000
0000
0011
0000
0000
0000
0001
0000
1000
0001
1000
0000
0000
0000
0001
0000
,
0101
0000
0100
0000
0000
0000
0100
0000
0000
0000
0100
0010
0100
0010
1000
0000
,
0000
0000
1010
0000
0000
0000
1001
0000
0000
0000
0011
0000
0010
0100
1000
0000
,
0001
0000
0001
0000
0001
0000
1000
0010
0100
0000
0100
0000
0001
0000
0000
0000
,
1000
0000
1000
0000
1000
0000
0000
0000
0001
0010
0001
0000
1000
0010
1000
0000
,
0001
0000
0001
0000
0001
0000
1000
0100
0010
0000
0010
0000
0001
0000
0000
0000
,
1000
0000
1000
0000
1000
0000
0000
0000
0001
0100
0010
0100
0010
1000
0100
0000
,
1000
0000
1000
0000
1000
0000
0001
0010
0100
0000
0100
0000
1000
0000
0000
0000
,
0001
0000
0001
0000
0001
0000
0000
0000
1000
0010
1000
0000
0001
0010
0001
0000
,
1000
0000
1000
0000
1000
0000
0001
0100
0010
0000
0010
0000
1000
0000
0000
0000
,
0001
0000
0001
0000
0001
0000
0000
0000
1000
0100
0010
0100
0010
0001
0100
0010
,
1000
0000
0000
0000
0000
0000
1001
0000
0000
0000
0101
0000
0001
0100
0001
0000
,
0000
0000
1100
0000
1000
0100
1000
0000
0000
0000
0011
0000
0001
0010
0001
0000
,
0000
0000
1010
0000
1000
0010
1000
0000
0000
0000
1100
0000
0100
0010
0001
0000
,
0000
0000
0000
0000
0000
0000
0101
0000
0000
0000
0000
0000
0100
0000
0000
0010
0000
0000
1000
0000
0000
0000
0000
0000
0000
0000
0000
0000
0001
0000
0000
0000
0000
0000
0000
0000
1000
0000
0000
0000
0000
0000
0000
0000
0001
0000
0000
0000
,
1000
0100
0010
0100
0010
0001
0010
0001
1000
0010
0100
0001
,
0010
0000
0010
0001
0100
0010
1000
0100
0010
0100
0000
0000
,
2000
0000
0000
0000
0000
0000
3001
0100
0010
0100
0010
1000
,
0000
0000
0000
0001
,
2001
0000
0000
0000
3010
1000
0010
1000
0020
0000
0000
0000
0130
0010
0100
0010
,
0200
0000
0000
0000
0301
0100
0001
0100
0001
0000
1000
0000
0100
0000
0010
0000
,
0002
0000
0000
0000
0103
0001
0100
0001
0200
0000
0000
0000
0310
0100
0010
0100
,
0010
1000
0001
0010
0100
1000
0100
0010
,
0002
0000
0000
0003
0002
0000
0000
0000
2003
0000
0000
0000
3020
0000
0000
0000
,
1030
1000
1000
0001
0002
0000
1003
0100
,
0020
0000
0000
0130
1000
0001
0100
0010
1000
0001
0010
0100
,
1000
0000
0000
0000
0000
0000
0000
0000
0000
0000
0010
1000
0010
0000
1010
0000
,
0000
0000
0000
0000
0000
0000
0011
0000
0000
0000
0000
0000
0010
0000
0000
0001
0000
0000
0010
0000
0000
0000
0000
0000
0001
0000
0000
0000
0010
0000
0000
0000
0100
0000
0000
0000
1000
0000
0000
0100
0000
0000
0010
0000
0000
0000
0000
0000
,
1001
0000
0000
0000
0000
0000
0000
0000
0000
0000
0000
0000
0001
0000
0000
1000
0000
0000
0001
0000
0000
1000
0000
0000
0001
0000
0000
0000
1000
0000
0000
0000
0001
0000
0000
0000
1000
0000
0000
0000
0000
0000
1100
0000
0000
0000
0000
0000
,
0000
0000
0101
0000
0000
0000
0011
0000
0000
0000
1010
0000
0000
0000
1000
0001
,
1000
0000
0010
0100
0010
0100
0010
0100
0001
0000
0001
0000
0001
0000
1000
0100
,
0010
0010
0001
0000
1000
1000
1000
0000
,
0001
0100
0001
0000
1000
0100
1000
0000
0001
0000
0001
0000
0001
0000
1000
0010
,
0100
0100
0001
0000
1000
1000
1000
0000
,
0001
0010
0100
0010
0100
1000
0010
0000
1000
0000
1000
0000
1000
0000
0001
0100
,
0010
0010
1000
0000
0001
0001
0001
0000
,
1000
0100
1000
0000
0001
0100
0001
0000
1000
0000
1000
0000
1000
0000
0001
0010
,
0100
0100
1000
0000
1100
0000
0101
0000
,
1000
0010
0100
0010
0100
0001
0010
0100
1000
0000
1000
0000
1100
0000
0100
1000
,
0010
0010
1010
0000
0001
0001
0101
0000
,
1000
0100
1000
0000
0001
0100
0001
0000
1000
0000
1000
0000
1010
0000
0010
1000
,
0100
0100
1100
0000
0001
0001
0011
0000
,
1000
0010
0100
0010
0100
0001
0010
0000
0001
0000
0001
0000
0101
0000
0100
0001
,
0010
0010
0011
0000
1000
1000
1100
0000
,
0001
0100
0001
0000
1000
0100
1000
0000
0001
0000
0001
0000
0011
0000
0000
0000
,
0010
0000
0000
0000
0000
0000
0100
0000
0000
0000
0000
0000
1000
0000
0000
0010
0000
0000
0100
0000
0000
0001
0000
0000
0010
0000
0000
0000
0000
0000
0000
0000
0010
0000
0000
0000
0000
0000
0000
0000
0010
0000
0000
0000
0000
0000
0000
0000
,
2002
0000
0000
0000
,
0000
0000
0000
0000
0000
0000
0000
0000
0000
0000
0000
3003
,
0000
0000
0000
0110
0000
0000
0000
0000
M000
0000
000M
0000
0000
0000
0000
0000
;
