#VERSION:0.83;
#TITLE:Put Your Records On;
#SUBTITLE:;
#ARTIST:Ritt Momney;
#TITLETRANSLIT:;
#SUBTITLETRANSLIT:;
#ARTISTTRANSLIT:;
#GENRE:Lo-fi;
#CREDIT:tikal.;
#MUSIC:Put Your Records On.ogg;
#BANNER:bnlarge.png;
#BACKGROUND:bgwide.png;
#CDTITLE:cdtitle.png;
#SAMPLESTART:42.210;
#SAMPLELENGTH:21.099;
#SELECTABLE:YES;
#OFFSET:-0.012;
#BPMS:0.000=91.000
,96.500=90.000
,97.000=89.000
,97.500=88.000
,98.000=87.000
,98.500=86.000
,98.750=85.000
,99.500=84.000
,100.000=83.000
,100.500=82.000
,101.250=81.000
,101.500=80.000
,102.000=79.000
,102.750=77.000
,103.000=78.000
,103.250=77.000
,103.500=76.000
,104.000=75.000
;
#STOPS:;
#DISPLAYBPM:75.000:91.000;
#LASTSECONDHINT:110;
#BGCHANGES:;
#FGCHANGES:;

//--------------- dance-single - tikal. ----------------
#NOTEDATA:;
#STEPSTYPE:dance-single;
#DESCRIPTION:tikal.;
#DIFFICULTY:Hard;
#METER:7;
#RADARVALUES:0,0,0,0,0;
#NOTES:
0000
0000
0000
0000
,
0000
0000
0000
0000
,
0000
0000
0000
0000
,
0000
0000
0000
0000
,
2000
0000
0000
0000
,
3020
0000
0000
0000
0000
0000
0000
0000
0000
0000
0000
0000
0000
0000
0000
0130
,
0002
0000
0000
0000
,
2000
0000
0000
0000
,
3003
0000
0000
0000
0002
0000
0023
0230
,
0000
2000
0000
0000
0000
0000
3300
0000
,
0000
0000
0000
2000
0000
0000
0000
0000
0000
3020
0000
0000
0000
0000
0230
0000
,
0000
0002
0000
0000
0000
0000
0303
0001
,
0020
0000
0000
0000
1030
0000
0020
0000
0000
0000
0230
0000
0000
2000
0000
0000
,
0000
0000
0000
0000
0000
0000
3300
1000
,
0020
0000
0000
0031
0020
0000
0130
0002
,
0000
1003
0100
0001
1000
0010
0002
0000
,
1003
0000
0000
0000
0100
1000
0000
0000
1000
0000
0000
0000
0110
0000
0010
0001
,
1000
0000
0000
0000
0010
1000
0000
0000
1000
0000
0000
0000
0110
0000
0001
1000
,
0001
0000
0020
0000
2030
0000
3004
0403
0320
0000
0032
0000
2003
0000
0000
3020
,
0000
0000
0000
0200
0000
0000
0330
0000
0002
0000
0023
0000
0230
0000
4300
0000
,
3001
0000
0000
0000
0100
0001
0000
0000
0001
0000
0000
0000
0110
0000
0010
1000
,
0001
0000
0000
0000
0010
0001
0000
0000
0001
0000
0000
0000
0110
0000
1000
0001
,
1000
0000
0020
0000
0032
0000
4003
3400
0320
0000
2030
0000
3002
0000
0020
0003
,
0000
0000
0000
0200
0000
0000
0330
0000
1000
0010
1000
0000
0001
0000
1000
0400
,
1300
0002
0023
2030
3002
0203
0320
0032
,
0000
2000
0000
3003
1000
0020
0230
0302
,
2003
0000
0000
0000
,
0020
0000
0000
0000
0000
0000
0000
3000
,
0200
0000
0000
0000
0000
0030
0002
0000
,
0303
0000
1010
0000
1001
0000
0011
0000
1100
0000
1001
0000
0101
0000
0001
1000
,
0002
0000
0000
0000
,
0020
0000
0000
0003
0200
0030
2000
0300
,
3001
0100
0001
0100
0010
1000
0010
1000
,
0001
0010
0100
1000
0020
0000
0230
0000
,
0302
0000
2003
3200
0302
2003
3020
0032
,
0103
0001
1000
0010
0100
0001
0010
0100
1000
0100
0010
0001
0100
0000
0010
0000
,
1000
0010
0100
0010
1000
0001
0010
0100
1000
0010
0100
0001
0100
0001
0010
0000
,
0100
1000
0010
0100
0001
0010
0100
0100
0010
0001
0100
0010
1000
0100
0010
0001
,
1000
0010
1000
0100
0010
0001
0100
0010
0100
0001
0010
0100
1000
0000
0010
0010
,
0100
0001
1000
0100
0010
0001
0100
0010
1000
0010
0100
0001
0010
0000
0100
0100
,
1000
0100
0010
0100
1000
0001
0100
0010
1000
0100
0010
0001
0010
0001
0100
0000
,
0010
1000
0100
0010
0001
0100
0010
0010
0100
0001
0010
0100
1000
0010
0100
0001
,
1000
0100
1000
0010
0100
0001
0010
0100
0010
0001
1000
0010
1000
0010
0100
0100
,
0010
1000
0001
0010
0100
0001
1000
0010
0001
0100
1000
0001
0010
1000
0100
0100
,
0020
0000
0000
0000
,
0030
0000
0000
0000
;

//--------------- dance-single - tikalllllllllll ----------------
#NOTEDATA:;
#STEPSTYPE:dance-single;
#DESCRIPTION:tikalllllllllll;
#DIFFICULTY:Challenge;
#METER:8;
#RADARVALUES:0,0,0,0,0;
#OFFSET:-0.012;
#BPMS:0.000=91.000
,96.500=90.000
,97.000=89.000
,97.500=88.000
,98.000=87.000
,98.500=86.000
,98.750=85.000
,99.500=84.000
,100.000=83.000
,100.500=82.000
,101.250=81.000
,101.500=80.000
,102.000=79.000
,102.750=77.000
,103.000=78.000
,103.250=77.000
,103.500=76.000
,104.000=37.500
;
#DISPLAYBPM:75.000:91.000;
#NOTES:
0000
0000
0000
0000
,
0000
0000
0000
0000
,
0000
0000
0000
0000
,
0000
0000
0000
0000
,
2000
0000
0000
0000
,
3020
0000
0000
0000
0000
0000
0000
0000
0000
0000
0000
0000
0000
0000
0000
0130
,
0002
0000
0000
0000
,
2000
0000
0000
0000
,
3003
0000
0000
0000
0002
0000
0023
0230
,
0000
2000
0000
0000
0000
0000
3300
0000
,
0000
0000
0000
2000
0000
0000
0000
0000
0000
3020
0000
0000
0000
0000
0230
0000
,
0000
0002
0000
0000
0000
0000
0303
0001
,
0020
0000
0000
0000
1030
0000
0020
0000
0000
0000
0230
0000
0000
2000
0000
0000
,
0000
0000
0000
0000
0000
0000
3300
1000
,
0020
0000
0000
0031
0020
0000
0130
0002
,
0000
1003
0100
0001
1000
0010
0002
0000
,
1003
0000
0000
0000
0100
1000
0000
0000
1000
0000
0000
0000
0110
0000
0010
0001
,
1000
0000
0000
0000
0010
1000
0000
0000
1000
0000
0000
0000
0110
0000
0001
1000
,
0001
0000
0020
0000
2030
0000
3004
0403
0320
0000
0032
0000
2003
0000
0000
3020
,
0000
0000
0000
0200
0000
0000
0330
0000
0002
0000
0023
0000
0230
0000
4300
0000
,
3001
0000
0000
0000
0100
0001
0000
0000
0001
0000
0000
0000
0110
0000
0010
1000
,
0001
0000
0000
0000
0010
0001
0000
0000
0001
0000
0000
0000
0110
0000
1000
0001
,
1000
0000
0020
0000
0032
0000
4003
3400
0320
0000
2030
0000
3002
0000
0020
0003
,
0000
0000
0000
0200
0000
0000
0330
0000
1000
0010
1000
0000
0001
0000
1000
0400
,
1300
0002
0023
2030
3002
0203
0320
0032
,
0000
2000
0000
3003
1000
0020
0230
0302
,
2003
0000
0000
0000
0000
0000
0000
0000
0020
0000
0000
0000
0000
0000
0000
3000
,
0200
0000
0000
0000
0000
0000
0000
0000
0000
0000
0030
0000
0002
0000
0000
0000
0303
0000
1010
0000
1001
0000
0011
0000
1100
0000
1001
0000
0101
0000
0001
1000
,
0002
0000
0000
0000
0000
0000
0000
0000
0020
0000
0000
0003
0200
0030
2000
0300
,
3001
0100
0001
0100
0010
1000
0010
1000
0001
0010
0100
1000
0020
0000
0230
0000
,
0302
0000
0000
0000
0000
0000
0000
0000
0000
0000
0000
0000
0000
0000
0000
0000
0000
0000
0000
0000
0000
0000
0000
0000
2000
0000
0000
0000
0000
0000
0000
0000
0000
0003
0000
0000
0200
0000
0000
0000
0000
0000
0000
0000
0000
3000
0000
0000
0002
0000
0000
0000
0000
0000
0000
0000
0000
0300
0000
0000
2000
0000
0000
0000
0000
0000
0000
0000
0000
0003
0000
0000
0020
0000
0000
0000
0000
0000
0000
0000
0000
3000
0000
0000
0002
0000
0000
0000
0000
0000
0000
0000
0000
0030
0000
0000
2MM0
0000
0000
0000
0000
0003
0020
0000
0000
0000
3000
0000
0200
0000
0000
0000
0030
0000
2000
0000
0000
0000
0300
0000
0M02
0000
0000
0000
3000
0000
M020
0000
0000
0000
0003
0000
2000
0000
0000
0000
0030
0000
0002
0000
0000
0000
3000
0000
M020
0000
0000
0000
0003
0000
0200
0000
0000
0000
0030
0000
0020
0000
0000
0000
0300
0000
2000
0000
0000
0000
0030
0000
00M2
0000
0000
0000
3000
0000
0200
0000
0000
0000
0003
0000
200M
0000
0000
0000
0300
0000
0M20
0000
0000
0000
3000
0000
,
M200
0000
0000
0000
0030
0000
2000
0000
0000
0000
0300
0000
0002
0000
0000
0000
3000
0000
0020
0000
0000
0000
0003
0000
200M
0000
0000
0000
0030
0000
02M0
0000
0000
0000
3000
0000
0020
0000
0000
0000
0300
0000
2000
0000
0000
0000
0030
0000
00M2
0000
0000
0000
3000
0000
0200
0000
0000
0000
0003
0000
2000
0000
0000
0000
0300
0000
0020
0000
0000
0000
3000
0000
M200
0000
0000
0000
0030
0000
2000
0000
0000
0000
0300
0000
02M0
0000
0000
0000
3000
0000
M002
0000
0000
0000
0300
0000
0M20
0000
0000
0000
0003
0000
2000
0000
0000
0000
0030
0000
002M
0000
0000
0000
3000
0000
M002
0000
0000
0000
0030
0000
20M0
0000
0000
0000
0003
0000
0200
0000
0000
0000
3000
0000
M040
0000
0000
000M
0300
0000
M000
0000
0000
000M
0000
0000
M230
0000
0000
0000
0000
0000
2000
0000
0000
0000
0300
0000
0002
0000
0000
0000
3000
0000
0200
0000
0000
0000
0003
0000
200M
0000
0000
0000
0300
0000
0002
0000
0000
0000
3000
0000
M020
0000
0000
0000
0003
0000
020M
0000
0000
0000
0030
0000
,
00M2
0000
0000
0000
0300
0000
2000
0000
0000
0000
0003
0000
0200
0000
0000
0000
3000
0000
0020
0000
0000
0000
0300
0000
2M00
0000
0000
0000
0030
0000
002M
0000
0000
0000
3000
0000
0002
0000
0000
0000
0030
0000
2000
0000
0000
0000
0003
0000
002M
0000
0000
0000
3000
0000
0002
0000
0000
0000
0030
0000
2000
0000
0000
0000
0003
0000
0200
0000
0000
0000
3000
0000
M020
0000
0000
0000
0300
0000
0200
0000
0000
0000
0030
0000
00M1
0000
0000
0000
0300
0000
0M04
0000
0000
M000
0000
0000
0M23
0000
0000
0000
0000
0000
2000
0000
0000
0000
0030
0000
0002
0000
0000
0000
3000
0000
0020
0000
0000
0000
0003
0000
020M
0000
0000
0000
0030
0000
00M2
0000
0000
0000
0300
0000
2000
0000
0000
0000
0003
0000
0020
0000
0000
0000
3000
0000
M002
0000
0000
0000
0030
0000
2000
0000
0000
0000
0003
0000
0020
0000
0000
0000
3000
0000
0200
0000
0000
0000
0030
0000
20M0
0000
0000
0000
0300
0000
0200
0000
0000
0000
3000
0000
M001
0000
0000
00M0
0300
0000
0M02
0000
0000
0000
0000
0000
,
M020
0000
0000
0000
0003
0000
0200
0000
0000
0000
0030
0000
2000
0000
0000
0000
0300
0000
0002
0000
0000
0000
3000
0000
M020
0000
0000
0000
0003
0000
200M
0000
0000
0000
0030
0000
0200
0000
0000
0000
3000
0000
0020
0000
0000
0000
0300
0000
2M00
0000
0000
0000
0030
0000
0020
0000
0000
0000
3000
0000
0002
0000
0000
0000
0030
0000
0200
0000
0000
0000
0003
0000
200M
0000
0000
0000
0300
0000
0002
0000
0000
0000
3000
0000
M020
0000
0000
0000
0003
0000
200M
0000
0000
0000
0030
0000
02M0
0000
0000
0000
3000
0000
0002
0000
0000
0000
0300
0000
2M00
0000
0000
0000
0003
0000
002M
0000
0000
0000
3000
0000
M200
0000
0000
0000
0030
0000
2000
0000
0000
0000
0300
0000
004M
0000
0000
0M00
3000
0000
000M
0000
0000
0M00
0000
0000
203M
0000
0000
0000
0000
0000
0200
0000
0000
0000
3000
0000
0002
0000
0000
0000
0300
0000
0200
0000
0000
0000
0003
0000
002M
0000
0000
0000
0300
0000
0002
0000
0000
0000
0030
0000
20M0
0000
0000
0000
0003
0000
002M
0000
0000
0000
3000
0000
,
M200
0000
0000
0000
0030
0000
2000
0000
0000
0000
0300
0000
0200
0000
0000
0000
3000
0000
M002
0000
0000
0000
0300
0000
2M00
0000
0000
0000
0003
0000
0200
0000
0000
0000
3000
0000
0002
0000
0000
0000
0300
0000
2000
0000
0000
0000
0003
0000
002M
0000
0000
0000
3000
0000
0200
0000
0000
0000
0030
0000
2000
0000
0000
0000
0300
0000
0200
0000
0000
0000
3000
0000
M002
0000
0000
0000
0300
0000
0200
0000
0000
0000
0003
0000
100M
0000
0300
0000
0000
0000
4M00
0000
0000
000M
0000
0000
3M20
0000
0000
0000
0000
0000
0002
0000
0000
0000
0030
0000
2000
0000
0000
0000
0003
0000
0020
0000
0000
0000
3000
0000
M200
0000
0000
0000
0030
0000
20M0
0000
0000
0000
0300
0000
0002
0000
0000
0000
3000
0000
0020
0000
0000
0000
0003
0000
200M
0000
0000
0000
0030
0000
0002
0000
0000
0000
3000
0000
0020
0000
0000
0000
0003
0000
0200
0000
0000
0000
0030
0000
00M2
0000
0000
0000
0300
0000
0200
0000
0000
0000
0003
0000
100M
0000
0000
0000
0300
0000
2M00
0000
0000
0000
0000
0000
,
0020
3000
0000
0000
0000
0000
0000
0000
0000
0000
0000
0000
0000
0000
0000
0000
0000
0000
0000
0000
0000
0000
0000
0000
0030
0000
0000
0000
0000
0000
0000
0000
0000
0000
0000
0000
0000
0000
0000
0000
0000
0000
0000
0000
0000
0000
0000
0000
;
