#VERSION:0.83;
#TITLE:ピアノ協奏曲第1番 "蠍火";
#SUBTITLE:[UNLIMITED];
#ARTIST:virkato;
#TITLETRANSLIT:Piano kyousoukyoku dai 1 ban "Sasoribi";
#SUBTITLETRANSLIT:;
#ARTISTTRANSLIT:;
#GENRE:Dirge;
#CREDIT:tikal. unlimited;
#MUSIC:Piano kyousoukyoku dai 1 ban Sasoribi [UNLIMITED].ogg;
#BANNER:Piano kyousoukyoku dai 1 ban Sasoribi [UNLIMITED].png;
#BACKGROUND:Piano kyousoukyoku dai 1 ban Sasoribi [UNLIMITED]-jacket.png;
#CDTITLE:cdtitle.png;
#SAMPLESTART:65.787;
#SAMPLELENGTH:11.860;
#SELECTABLE:YES;
#OFFSET:-0.011;
#BPMS:0.000=92.500
,22.000=185.000
,177.000=165.000
,179.000=177.000
,182.000=184.000
,210.000=180.000
,214.000=168.000
,216.000=173.000
,218.000=174.000
,226.000=177.000
,228.000=178.000
,229.000=179.000
,230.000=184.000
,250.000=186.000
,266.000=188.000
,272.000=178.000
,274.000=179.000
,294.000=182.000
,298.000=188.000
,322.000=180.000
,324.000=150.000
,325.667=120.000
,327.000=90.000
,331.000=80.000
,333.000=78.750
,336.500=75.000
,337.333=72.000
,338.333=65.455
,339.333=55.385
,340.333=45.000
;
#STOPS:;
#SCROLLS:0.000=1.000,
21.417=2.000,
22.000=1.000
;
#BGCHANGES:;
#FGCHANGES:;

//--------------- dance-single - tikal. unlimited ----------------
#NOTEDATA:;
#STEPSTYPE:dance-single;
#DESCRIPTION:tikal. unlimited;
#DIFFICULTY:Challenge;
#METER:14;
#RADARVALUES:0,0,0,0,0;
#NOTES:
0000
0000
0000
0000
,
0000
0000
0000
0000
,
0000
0000
0000
0000
,
0000
0000
0000
0000
0000
0000
0000
0000
0000
0000
0000
0000
0000
0000
0000
0000
0000
0000
0000
0000
0000
0000
0000
0000
0000
0000
0000
0000
0000
0000
0000
0000
0000
0000
0000
0000
0000
0000
0000
0000
1001
0000
0000
0000
0000
0000
0000
0000
0000
0000
0000
0000
0000
0000
0000
0000
0000
0000
0000
0000
0000
1000
0000
0000
,
0100
0000
0000
0000
0000
0000
0000
0000
0010
0000
0000
0000
0000
0000
0000
0000
0000
0000
0001
0000
0000
0000
0000
0000
0100
0000
0000
0000
0000
0000
0000
0000
0000
0000
0000
0000
0000
0000
0000
0000
0000
0000
0000
0000
0000
0000
0000
0000
0000
0000
0000
0000
0000
0000
0000
0000
0000
0000
0000
0000
0000
0000
0000
0000
0000
0000
0000
0000
0000
0000
0000
0000
0000
0000
0000
0000
0000
0010
0000
0000
0000
0000
0000
0000
1000
0000
0000
0000
0000
0000
0000
0000
0000
0000
0100
0000
0000
0000
0000
0000
0000
0000
0000
0000
0001
0000
0000
0000
0000
0000
0000
0000
0000
0100
0000
0000
0000
0000
0000
0000
0000
0000
1000
0000
0000
0000
0000
0000
0000
0010
0000
0000
0000
0000
0000
0000
0000
0000
0100
0000
0000
0000
0000
0000
0000
0000
0000
0000
0000
0000
0001
0000
0000
0000
0000
0000
0000
0000
0000
0000
0000
0000
0000
0000
0000
0000
0000
0000
0000
0000
0000
0000
0000
0000
0000
0000
0000
0000
0000
0000
0000
0000
0000
0000
0000
0000
0000
0000
0000
0000
0000
0000
,
0000
0000
0000
0000
0000
1000
0000
0000
0000
0000
0000
0000
0000
0000
0000
0000
0000
0000
0000
0000
0000
0000
0000
0000
0000
0000
0000
0000
0000
0000
0000
0000
0000
0000
0220
0000
0000
0000
0000
0000
0000
0000
0000
0000
0000
0000
0000
0000
0000
0000
0000
0000
0000
0000
0000
0000
0000
0000
0000
0000
0000
0000
0000
0000
0000
0000
0000
0000
0000
0000
0000
0000
0000
0000
0000
0000
0000
0000
0000
0000
0000
0000
0000
0000
0000
0000
0000
0000
0000
0000
0000
0000
0000
0000
0000
0000
,
0000
0000
0330
0000
2002
0000
0000
3003
,
1100
0000
0100
0010
1000
0010
0100
1000
0010
0100
0001
1000
0100
0010
0100
1000
,
0001
1000
0010
0100
0001
0100
1000
0100
0010
0100
0001
1000
0100
0010
0011
0000
,
0101
0000
0100
0010
0001
0010
0100
0001
0010
0100
1000
0001
0100
0010
0100
0001
,
1000
0001
0010
0100
1000
0100
0001
0100
0010
0100
1000
0001
0100
0010
1010
0000
,
1100
0000
0100
0001
1000
0010
0100
1000
0010
0100
0001
1000
0001
0100
1000
0100
,
0010
1000
0001
0010
0100
0001
0100
1000
0010
0100
0001
0010
0011
0000
1010
0000
,
0102
0000
0000
1000
1003
0000
0100
0000
0010
0001
0100
1000
0100
0001
1000
0100
,
0010
0000
0000
0001
0000
0000
0100
0000
0000
0010
0000
0000
1000
0000
0000
0100
0000
0000
0001
0000
0000
0100
0000
0000
0020
0000
0000
0000
0000
0000
0031
0000
0000
0001
0000
0000
1000
0000
0000
0000
1000
0000
0000
0000
0010
0000
0000
0000
,
0010
0001
0000
0220
0000
0000
0000
0000
,
0000
0000
0330
0000
,
0000
0000
0000
0000
0000
0000
1000
0100
,
0020
0230
0302
0203
,
2300
3001
0002
0023
,
0230
0302
0203
2300
,
3020
0230
2300
3200
,
0301
0010
1000
0010
0100
0010
1000
0010
,
0001
0100
1000
0100
1000
0100
0020
0000
,
2030
0000
0000
0000
0000
0000
3001
0000
0010
0000
0001
0000
0200
0000
0000
0010
0000
0000
0320
0000
0000
0000
0000
0000
,
2030
0100
3200
0310
0200
0310
0020
0001
,
0032
0013
0100
0010
0001
0100
0020
0130
,
2000
3100
0010
1000
0001
0010
0200
0301
,
0200
1300
0010
0100
0002
0013
2000
3010
,
0200
1300
0010
0200
1300
0100
0002
0013
,
0200
0310
0001
2000
3010
0100
0020
1030
,
0002
0013
2000
3010
0002
0103
2000
3100
,
0002
0013
0100
2000
3010
0100
0002
1003
,
0001
0010
0001
1000
0010
1000
0001
0100
0001
1000
0100
1000
,
0001
0100
0100
0010
0100
0100
0001
0010
0010
1000
0010
0010
,
0100
1000
1000
0010
0100
0100
0001
0010
0010
0100
0001
0001
,
0010
1000
1000
0100
0010
0010
0001
0100
0100
0010
0001
0001
,
0100
1000
0010
0001
1000
0100
0010
1000
0001
0010
0100
1000
,
0010
0001
0001
0100
0010
0100
0001
0010
0100
1000
0010
0100
,
0001
0000
0010
0000
0010
0000
1000
0000
0100
0000
0100
0000
0001
0000
1000
0010
0100
0000
0001
0000
1000
0100
0010
0000
,
1000
0010
0001
0100
0010
1000
0001
0010
0001
1000
0010
0100
,
1000
0100
0100
0001
0100
0100
1000
0100
0100
0010
0001
0100
,
0010
1000
0010
0100
0001
0000
0010
0001
0010
0100
1000
0010
,
0100
0001
0010
0001
1000
0010
1000
1000
1000
0001
0001
0001
,
0110
0000
0000
0000
0000
0000
0000
0000
0000
0000
0000
0000
0000
0000
0000
0000
0000
0000
0000
0000
0000
0000
0000
2000
0000
0000
0000
0000
0000
0000
0000
0000
0000
0000
0000
0000
0000
0000
0000
0000
0000
0000
0000
0000
0000
0000
0000
0000
,
3001
0010
0100
1000
0010
0100
0001
0010
0100
0000
0010
0001
1000
0010
0100
0010
,
0100
0001
1000
0100
0010
0100
1000
0010
0100
0000
0101
0000
0011
0010
0001
1000
,
0010
0100
1000
0100
0001
0010
0100
1000
0010
0000
1010
0000
1100
0100
1000
0010
,
0100
1000
0100
0010
0100
0001
0010
0100
0002
0000
0000
0000
0103
1000
0010
0100
,
0001
0100
0010
1000
0100
0010
0001
0100
2000
0000
0000
0000
3100
0010
1000
0001
,
1000
0100
0010
0100
0001
0100
1000
0100
0020
0000
0000
0000
0031
0100
0010
1000
,
0001
0010
0100
0010
1000
0010
0100
0010
0001
0100
0010
1000
0100
0010
0100
0010
,
1000
0010
0001
1000
0010
0100
0001
0010
1000
0010
0100
1000
0001
0100
0010
0001
,
0010
0100
0010
1000
0001
0010
0100
1000
0002
0000
1003
0100
0010
0001
1000
0010
,
0100
0000
0101
0000
1010
0000
1100
0000
0011
0000
1000
0100
1000
0000
1000
0010
,
1000
0000
0001
0100
0001
0000
0001
0010
0001
0000
0010
1000
0010
0000
0001
0100
,
0001
0000
1000
0010
0100
1000
0100
0001
0010
0000
0100
1000
0100
0000
0100
0001
,
0100
0000
0100
1000
0010
0100
0001
0010
2000
0000
3010
0001
0100
0010
1000
0010
,
0002
0000
0013
0100
0001
0010
0100
1000
0020
0000
0130
0001
0010
0100
0001
0100
,
0010
0001
0100
0010
1000
0001
0010
0001
0200
0000
0310
1000
0100
0010
0001
1000
,
0010
0001
0010
0100
0010
1000
0001
0010
0100
0001
0100
0010
0001
1000
0010
0100
,
1000
0100
0010
1000
0001
0010
0100
1000
0010
0010
0000
0110
0000
0110
0000
0100
,
0001
1000
0100
0001
0100
1000
0001
0100
0010
1000
0010
0000
0100
0001
0100
0000
,
0010
1000
0010
0000
0100
1000
0100
0000
0001
0010
0001
0000
1000
0100
1000
0000
,
0100
0001
0100
0000
0010
0001
0010
0000
0001
0100
0010
0000
0001
0010
0100
0000
,
0001
1000
0100
0000
1000
0100
0010
0000
1000
0010
0100
0000
1000
0001
0100
0000
,
0010
1000
0100
0000
0010
0001
0100
0000
1010
0000
1100
0000
1000
0100
0010
0001
,
0011
0000
0101
0000
0001
0100
0010
1000
1010
0000
0101
0000
0001
0010
0100
1000
,
1001
0000
0001
1000
0001
0100
0010
1000
0200
0000
0000
0000
0001
0000
0000
0000
,
0302
0000
0203
0000
2300
0000
0001
3000
,
1000
0100
0010
0001
0200
0000
1000
0000
,
2300
0000
3200
0000
0302
0000
1003
0010
,
0100
0001
0010
0100
0020
0000
0000
0000
,
0000
0000
0230
0000
,
0000
0000
0000
0000
0301
0100
1000
0010
0001
0000
0000
0000
0001
0010
0100
0001
,
0010
0000
0000
0000
1000
0010
0001
0100
1000
0000
0000
0000
1000
0100
0010
1000
,
0100
0000
0000
0000
0001
0100
1000
0010
0110
0000
0000
0000
1000
0100
0001
0100
,
0110
0000
0000
0000
0000
0000
0000
0000
0000
0000
0000
0000
0001
0000
0000
0100
0000
0000
1000
0000
0000
0100
0000
0000
0110
0000
0000
0000
0000
0000
0000
0000
0000
0000
0000
0000
1000
0000
0100
0000
0010
0000
0001
0000
0010
0000
0100
0000
,
1000
0010
0010
0001
0100
0100
1100
1000
0010
1010
0010
0100
,
0101
0001
0010
0011
0010
0100
1100
1001
0001
0101
1001
1000
,
1010
1001
0011
0110
1100
1001
0101
0000
0000
0220
0000
0000
,
0000
0000
0000
0000
0000
0000
0000
0330
,
0000
2000
0000
0200
,
3000
0010
0020
0000
0000
0000
0300
0000
,
0000
0000
0000
0032
0000
0000
0000
0000
0103
0000
1000
0000
0001
0000
0020
0000
0000
0000
0000
0000
1030
0000
0000
0100
,
0000
0001
0000
0000
0000
0000
0000
0000
0000
0000
0000
0000
;

//--------------- dance-double - tikal. unlimited (true)² ----------------
#NOTEDATA:;
#STEPSTYPE:dance-double;
#DESCRIPTION:tikal. unlimited (true)²;
#DIFFICULTY:Challenge;
#METER:14;
#RADARVALUES:0,0,0,0,0;
#NOTES:
00000000
00000000
00000000
00000000
,
00000000
00000000
00000000
00000000
,
00000000
00000000
00000000
00000000
,
00000000
00000000
00000000
00000000
00000000
00000000
00000000
00000000
00000000
00000000
00000000
00000000
00000000
00000000
00000000
00000000
00000000
00000000
00000000
00000000
00000000
00000000
00000000
00000000
00000000
00000000
00000000
00000000
00000000
00000000
00000000
00000000
00000000
00000000
00000000
00000000
00000000
00000000
00000000
00000000
00011000
00000000
00000000
00000000
00000000
00000000
00000000
00000000
00000000
00000000
00000000
00000000
00000000
00000000
00000000
00000000
00000000
00000000
00000000
00000000
00000000
00010000
00000000
00000000
,
01000000
00000000
00000000
00000000
00000000
00000000
00000000
00000000
10000000
00000000
00000000
00000000
00000000
00000000
00000000
00000000
00000000
00000000
00100000
00000000
00000000
00000000
00000000
00000000
01000000
00000000
00000000
00000000
00000000
00000000
00000000
00000000
00000000
00000000
00000000
00000000
00000000
00000000
00000000
00000000
00000000
00000000
00000000
00000000
00000000
00000000
00000000
00000000
00000000
00000000
00000000
00000000
00000000
00000000
00000000
00000000
00000000
00000000
00000000
00000000
00000000
00000000
00000000
00000000
00000000
00000000
00000000
00000000
00000000
00000000
00000000
00000000
00000000
00000000
00000000
00000000
00000000
00010000
00000000
00000000
00000000
00000000
00000000
00000000
00100000
00000000
00000000
00000000
00000000
00000000
00000000
00000000
00000000
00000000
00001000
00000000
00000000
00000000
00000000
00000000
00000000
00000000
00000000
00000000
00010000
00000000
00000000
00000000
00000000
00000000
00000000
00000000
00000000
00000010
00000000
00000000
00000000
00000000
00000000
00000000
00000000
00000000
00000100
00000000
00000000
00000000
00000000
00000000
00000000
00000001
00000000
00000000
00000000
00000000
00000000
00000000
00000000
00000000
00000100
00000000
00000000
00000000
00000000
00000000
00000000
00000000
00000000
00000000
00000000
00000000
00001000
00000000
00000000
00000000
00000000
00000000
00000000
00000000
00000000
00000000
00000000
00000000
00000000
00000000
00000000
00000000
00000000
00000000
00000000
00000000
00000000
00000000
00000000
00000000
00000000
00000000
00000000
00000000
00000000
00000000
00000000
00000000
00000000
00000000
00000000
00000000
00000000
00000000
00000000
00000000
00000000
00000000
,
00000000
00000000
00000000
00000000
00000000
00010000
00000000
00000000
00000000
00000000
00000000
00000000
00000000
00000000
00000000
00000000
00000000
00000000
00000000
00000000
00000000
00000000
00000000
00000000
00000000
00000000
00000000
00000000
00000000
00000000
00000000
00000000
00000000
00000000
00022000
00000000
00000000
00000000
00000000
00000000
00000000
00000000
00000000
00000000
00000000
00000000
00000000
00000000
00000000
00000000
00000000
00000000
00000000
00000000
00000000
00000000
00000000
00000000
00000000
00000000
00000000
00000000
00000000
00000000
00000000
00000000
00000000
00000000
00000000
00000000
00000000
00000000
00000000
00000000
00000000
00000000
00000000
00000000
00000000
00000000
00000000
00000000
00000000
00000000
00000000
00000000
00000000
00000000
00000000
00000000
00000000
00000000
00000000
00000000
00000000
00000000
,
00000000
00000000
00033000
00000000
02000200
00000000
00000000
03000300
,
01010000
00000000
00010000
00100000
00001000
00010000
00100000
01000000
00010000
10000000
01000000
00100000
01000000
00010000
00001000
00010000
,
00000100
00000010
00000100
00001000
00000010
00000100
00000001
00000010
00001000
00000010
00000001
00000010
00000100
00000000
00001100
00000000
,
00001010
00000000
00001000
00000100
00010000
00001000
00000100
00000010
00001000
00000001
00000010
00000100
00000010
00001000
00010000
00001000
,
00100000
01000000
00100000
00010000
01000000
00100000
10000000
01000000
00010000
01000000
10000000
01000000
00100000
00000000
00110000
00000000
,
01010000
00000000
00010000
01000000
00100000
00010000
00001000
00010000
00000010
00000100
00001000
00000100
00000010
00001000
00000100
00001000
,
00000001
00000010
00000100
00010000
00001000
00000100
00000010
00001000
00000100
00000010
00000001
00000000
00000011
00000000
00001010
00000000
,
00000102
00000000
00000000
00001000
00001003
00000000
00000100
00000000
00010000
00001000
00000010
00000100
00001000
00010000
00100000
01000000
,
10000000
00000000
00000000
00100000
00000000
00000000
01000000
00000000
00000000
00010000
00000000
00000000
00100000
00000000
00000000
00001000
00000000
00000000
00010000
00000000
00000000
00000100
00000000
00000000
00000020
00000000
00000000
00000000
00000000
00000000
00000100
00000000
00000000
00000130
00000000
00000000
00010000
00000000
00000000
00000000
00010000
00000000
00000000
00000000
00001000
00000000
00000000
00000000
,
00001000
00000001
00000000
00000220
00000000
00000000
00000000
00000000
,
00000000
00000000
00000330
00000000
,
00000000
00000000
00000000
00000000
00000000
00000000
00000001
00000100
,
00000020
00000230
00002300
00003200
,
00000302
00001003
00002000
00003020
,
00000230
00002300
00023000
02030000
,
03200000
00320000
20030000
30200000
,
01300000
00010000
00100000
00000000
01000000
10000000
00100000
00000000
,
01000000
00001000
00010000
00001000
00010000
00001000
00200000
00000000
,
02300000
00000000
00000000
00000000
00000000
00000000
03010000
00000000
00001000
00000000
00010000
00000000
00000200
00000000
00000000
00000010
00000000
00000000
00000320
00000000
00000000
00000000
00000000
00000000
,
00000032
00000100
00000203
00000310
00000200
00000310
00000020
00001000
,
00002030
00000001
00000100
00023000
,
00100000
10000000
01000000
00032000
,
00003020
00000000
00000130
00000001
00002000
00000000
00003200
00000000
,
00020300
00000000
01030000
00200000
00010000
00310000
20000000
00100000
,
30200000
00000000
01300000
00020000
00000000
00130000
02000000
00010000
,
03020000
00001000
00032000
00000000
00003200
00000001
00000302
00000010
,
00000023
00000000
00000130
00002000
00000000
00003010
00000020
00000000
,
00000130
00000001
00000000
00001000
00000100
00000000
00010000
00001000
00000000
01000000
00010000
00000000
,
10000000
01000000
01000000
00100000
01000000
01000000
10000000
00100000
00100000
00010000
00100000
00100000
,
00010000
00001000
00001000
00000100
00001000
00001000
00000010
00000001
00000001
00000100
00000001
00000001
,
00000010
00000100
00000100
00000001
00000100
00000100
00001000
00000010
00000010
00000001
00000010
00000010
,
00001000
00000100
00000010
00001000
00010000
00001000
00000100
00001000
00010000
01000000
00100000
00010000
,
01000000
00100000
00100000
00010000
10000000
00010000
01000000
00100000
00010000
00001000
00000100
00000010
,
00001000
00000000
00000100
00000000
00000100
00000000
00000001
00000000
00000010
00000000
00000010
00000000
00001000
00000000
00000100
00001000
00000100
00000000
00010000
00000000
00001000
00010000
00001000
00000000
,
01000000
00100000
10000000
01000000
00100000
01000000
10000000
00000000
10000000
00010000
00100000
00001000
,
00010000
00000100
00000100
00000001
00000010
00000010
00010000
00001000
00001000
00010000
00100000
01000000
,
10000000
00100000
01000000
00010000
00100000
00000000
00001000
00010000
00001000
00000100
00000001
00000010
,
00000100
00010000
00000000
00001000
00100000
00000000
01000000
01000000
01000000
00100000
00100000
00100000
,
10010000
00000000
00000000
00000000
00000000
00000000
00000000
00000000
00000000
00000000
00000000
00000000
00000000
00000000
00000000
00000000
00000000
00000000
00000000
00000000
00000000
00000000
00000000
20000000
00000000
00000000
00000000
00000000
00000000
00000000
00000000
00000000
00000000
00000000
00000000
00000000
00000000
00000000
00000000
00000000
00000000
00000000
00000000
00000000
00000000
00000000
00000000
00000000
,
30010000
00100000
01000000
10000000
00100000
01000000
00010000
00100000
00001000
00000000
00010000
00001000
00000100
00001000
00010000
00000100
,
00001000
00000001
00000010
00000100
00000010
00000100
00010000
00001000
00100000
00000000
01010000
00000000
01000000
00010000
10000000
01000000
,
00100000
01000000
10000000
00010000
10000000
00100000
01000000
00010000
00100000
00000000
00101000
00000000
00001000
00010000
00000100
00010000
,
00001000
00000100
00000010
00001000
00000001
00000010
00000100
00000010
00002000
00000000
00000000
00000000
00003001
00000100
00000010
00000100
,
00001000
00000010
00010000
00001000
00100000
01000000
10000000
00010000
02000000
00000000
00000000
00000000
03100000
10000000
00010000
00100000
,
01000000
00100000
00010000
00100000
00001000
00010000
00000100
00010000
00000020
00000000
00000000
00000000
00001030
00000010
00000100
00000001
,
00000010
00000100
00000001
00000100
00000010
00000100
00001000
00000001
00001000
00000010
00000100
00001000
00010000
00001000
00010000
00001000
,
00010000
01000000
00100000
00010000
10000000
00100000
01000000
00010000
00100000
01000000
00010000
00001000
01000000
00100000
00010000
00001000
,
00000010
00000100
00001000
00010000
00001000
00000100
00000010
00000001
00000200
00000000
00000000
00000000
00000000
00000000
00000000
00000000
,
00000300
00000000
00000101
00000000
00001010
00000000
00011000
00000000
00110000
00000000
10000000
01000000
10000000
00000000
00010000
01000000
,
00010000
00000000
00100000
00001000
01000000
00000000
00001000
00010000
00000100
00000000
00000010
00000001
00000100
00000000
00000001
00000010
,
00000001
00000000
00001000
00000010
00010000
00000100
00000010
00001000
00010000
00000000
00000010
00000100
00001000
00000000
00010000
01000000
,
00100000
00000000
00010000
00100000
00001000
00010000
00000010
00000100
00000002
00000000
00000103
00001000
00010000
00001000
01000000
00100000
,
20000000
00000000
30100000
00010000
00001000
00010000
00000010
00001000
00000200
00000000
00000310
00000100
00001000
00000010
00000100
00000010
,
00001000
00000100
00000010
00001000
00010000
00001000
00010000
00100000
02000000
00000000
03100000
10000000
01000000
00100000
00010000
00001000
,
00010000
00100000
00001000
00010000
00000010
00000100
00000001
00001000
00000001
00000010
00000100
00001000
00000010
00000100
00001000
00010000
,
00001000
00010000
00100000
01000000
00010000
00100000
01000000
10000000
00100000
00100000
00000000
01100000
00000000
01100000
00000000
01000000
,
10000000
01000000
00010000
00100000
00001000
00010000
00000010
00000100
00000001
00000010
00000001
00000000
00001000
00000100
00001000
00000000
,
00000010
00010000
00000010
00000000
00010000
00000100
00010000
00000000
00001000
00100000
00001000
00000000
01000000
00001000
01000000
00000000
,
00010000
00100000
00010000
00000000
01000000
10000000
01000000
00000000
00100000
10000000
00100000
00000000
00010000
00001000
00010000
00000000
,
01000000
10000000
01000000
00000000
00010000
00001000
00010000
00000000
00000010
00001000
00000010
00000000
00000100
00001000
00000100
00000000
,
00000010
00000001
00000010
00000000
00000100
00000001
00000010
00000000
00000011
00000000
00000101
00000000
00000100
00000001
00000010
00000100
,
00001100
00000000
00001010
00000000
00001000
00000100
00010000
00001000
00011000
00000000
00101000
00000000
00100000
00010000
01000000
00100000
,
10100000
00000000
10000000
01000000
00100000
00010000
00001000
00000100
00002000
00000000
00000000
00000000
00000010
00000000
00000000
00000000
,
00000001
00000100
00023000
00100000
,
10030000
01000000
00100000
00010000
00020000
00000000
00100000
00000000
,
10000000
00000000
01000000
00000000
00032000
00000000
00003010
00000100
,
00000001
00000100
00000010
00000000
00020000
00000000
00000000
00000000
,
00000000
00000000
00032000
00000000
,
00000000
00000000
00000000
00000000
00003001
00000010
00001000
00000100
00000001
00000000
00000000
00000000
00001000
00000010
00001000
00010000
,
00000100
00000000
00000000
00000000
00010000
01000000
10000000
00100000
00010000
00000000
00000000
00000000
00100000
00010000
00001000
00010000
,
01000000
00000000
00000000
00000000
10000000
00100000
00010000
00001000
00011000
00000000
00000000
00000000
00001000
00000100
00000001
00001000
,
00001001
00000000
00000000
00000000
00000001
00000010
00001000
00010000
00011000
00000000
00000000
00000000
00001000
01000000
00100000
10000000
,
10010000
00010000
00100000
01000000
10000000
10000000
11000000
00010000
01000000
01001000
00001000
00010000
,
00010010
00000010
00001000
00001100
00000100
00000010
00000011
00000011
00000001
00001100
00001100
00001000
,
00010010
00010000
00011000
00011000
00011000
00011000
00011000
00000000
00000000
00200020
00000000
00000000
,
00000000
00000000
00000000
00000000
00000000
00000000
00000000
00300030
,
00000000
20000000
00000000
02000000
,
30000000
00100000
00200000
00000000
00000000
00000000
03000000
00000000
,
00000000
00000000
00000000
00302000
00000000
00000000
00000000
00000000
00003100
00000000
00000001
00000000
00000010
00000000
00020000
00000000
00000000
00000000
00030000
00000000
00110000
00000000
00000000
00001010
,
00000000
00011000
00000000
00000000
00000000
00000000
00000000
00000000
00000000
00000000
00000000
00000000
;
