#TITLE:Oops! (Sunny Day);
#SUBTITLE:;
#ARTIST:Laugh & Peace;
#TITLETRANSLIT:;
#SUBTITLETRANSLIT:;
#ARTISTTRANSLIT:;
#GENRE:J-pop;
#CREDIT:tikal.;
#MUSIC:oops.ogg;
#BANNER:bn.png;
#BACKGROUND:bg.png;
#CDTITLE:cdtitle.png;
#SAMPLESTART:38.514;
#SAMPLELENGTH:21.102;
#SELECTABLE:YES;
#OFFSET:-0.004;
#BPMS:0.000=120.000
,16.000=120.073
,18.000=118.847
,19.000=124.365
,20.000=123.574
,39.000=126.132
,59.000=128.624
,79.000=131.234
,86.000=131.358
,88.000=133.236
,90.000=133.771
,97.000=136.990
,100.000=136.884
,104.000=133.927
,105.000=139.371
,108.000=137.879
,112.000=140.000
,128.000=145.246
,143.000=148.485
,144.000=144.677
,145.000=148.349
,161.000=150.013
,163.000=151.062
,167.000=151.355
,179.000=154.071
,195.000=154.968
,199.000=158.709
,203.000=159.650
,207.000=162.974
,211.000=163.697
,215.000=166.274
,219.000=168.748
,224.000=171.140
,226.000=173.236
,227.000=171.384
,229.000=175.255
,230.000=175.104
,232.000=174.931
,233.000=175.151
,234.000=177.233
,236.000=183.546
,237.000=194.459
,238.000=205.037
,239.000=216.071
,240.000=228.932
,241.000=239.435
,242.000=247.683
,243.000=264.072
,244.000=269.670
,245.000=288.707
,246.000=289.370
,247.000=310.819
,248.000=312.397
,249.000=334.302
,250.000=329.884
,251.000=355.932
,252.000=365.167
,253.000=341.772
,254.000=356.000
;
#STOPS:;
#DISPLAYBPM:120.000:356.000;
#BGCHANGES:;
#FGCHANGES:;

//--------------- dance-single - tikal. ----------------
#NOTES:
     dance-single:
     tikal.:
     Easy:
     6:
     0,0,0,0,0:
0000
0000
0000
0000
,
0000
0000
0000
0000
,
0000
0000
0000
0000
,
0000
0000
0000
0000
,
0000
1000
0000
1000
,
0000
0001
0000
0001
,
0010
0000
0100
0000
,
1000
0001
1001
0000
,
0000
0001
0000
0001
,
0000
1000
0000
1000
,
0010
0000
0100
0000
,
0001
1000
1001
0000
,
0002
0000
0000
0200
0000
0000
0303
0000
,
2000
0000
0000
0020
0000
0000
3030
0000
,
0002
0000
0000
0020
0000
0000
0033
0000
,
2000
0000
0000
0200
0000
0000
3300
0000
,
0020
0000
0000
0200
0000
0000
0330
0000
,
2000
0000
0000
0002
0000
0000
3003
0000
,
0200
0000
0000
0020
0000
0000
0330
0000
,
0002
0000
2000
3003
,
1100
0101
2200
3300
,
0001
0000
0000
2002
0000
0000
3003
0000
,
1010
0011
2020
3030
,
1001
0000
0000
1001
0000
0000
0000
0000
,
0101
1100
0202
0303
,
1000
0000
0000
2002
0000
0000
3003
0000
,
0011
1010
0022
0033
,
2000
0000
0002
3003
,
0220
0000
0000
0000
,
0330
0000
0000
0000
,
2000
0000
0000
0000
,
3200
0000
0320
0000
,
0030
0001
0000
1000
,
0000
0001
0000
1000
,
0010
0000
0100
0000
,
0001
1000
1001
0000
,
0000
1000
0000
0001
,
0000
1000
0000
0001
,
0010
0000
0100
0000
,
1000
0001
1001
0000
,
2010
0000
0000
0002
0000
0000
3003
0000
,
0012
0000
0000
2000
0000
0000
3003
0000
,
2100
0000
0000
0002
0000
0000
3003
0000
,
0102
0000
0000
2000
0000
0000
3003
0000
,
0021
0000
0000
0200
0000
0000
0330
0000
,
0210
0000
0000
2000
0000
0000
3300
0000
,
1020
0000
0000
0200
0000
0000
0330
0000
,
0002
0000
2000
3003
,
0011
1100
0022
0033
,
1000
0000
0000
2002
0000
0000
3003
0000
,
1010
0101
2020
3030
,
0110
0000
0000
1001
0000
0000
0000
0000
,
1100
0011
2200
3300
,
0001
0000
0000
2002
0000
0000
3003
0000
,
0101
1010
0202
0303
,
0220
0330
2002
3003
,
1000
1000
1000
0000
,
0001
0001
0010
0010
,
0001
0001
0001
0000
,
1000
1000
0010
0010
,
1000
0001
1000
0001
,
0010
0100
0010
0100
,
1000
0010
0100
0001
,
0010
0100
1000
0000
,
1100
1000
1001
0000
,
0202
0000
0303
0000
,
0011
1000
0000
2002
,
0000
0000
3003
0000
,
0102
0000
2000
0003
,
0020
0000
3030
0000
,
0110
0001
1000
0110
,
0000
1001
0000
0000
,
0101
0001
1001
0000
,
2200
0000
3300
0000
,
1010
0001
0000
2002
,
0000
0000
3003
0000
,
2100
0000
0002
3000
,
0020
0000
0033
0000
,
0220
0000
0330
0000
,
2002
0000
3003
0000
,
1010
1000
1001
0000
,
0022
0000
0033
0000
,
0101
1000
0000
2002
,
0000
0000
3003
0000
,
0012
0000
2000
0003
,
0200
3000
0310
0000
,
0110
0001
1000
0110
,
0000
1001
0000
0000
,
0011
0001
1001
0000
,
2020
0000
3030
0000
,
1100
0001
0000
2002
,
0000
0000
3003
0000
,
2010
0000
0002
3000
,
0200
0003
0310
0000
,
0110
0000
1000
0001
,
0000
2002
0000
3003
,
1000
0100
0000
0010
,
0000
0100
0010
0000
,
0001
0010
0100
2000
,
0000
0001
3001
0000
,
0002
0000
0203
0000
,
0310
1000
0000
0010
,
1001
0000
0100
1001
,
0000
1000
0001
0000
,
0020
0000
0130
2000
,
0000
3001
0000
1000
,
0010
0100
0001
0200
,
0000
0301
0020
0000
,
2030
0000
3020
0000
,
0032
0000
0203
0000
,
1300
0100
0010
0100
,
0000
0001
1000
0002
,
2000
0000
0000
0000
,
0000
0000
3003
0000
,
0220
0000
0000
0000
,
0000
0000
0330
0000
,
2002
0000
0000
0000
,
0000
0000
3003
0000
,
0220
0000
0000
0000
,
0000
0000
0330
0000
,
1000
0100
0001
0000
,
1000
0010
0001
0000
,
0001
0100
1000
0000
,
0001
0010
1000
0000
,
0100
0000
0000
0000
;

//--------------- dance-single - tikal. ----------------
#NOTES:
     dance-single:
     tikal.:
     Medium:
     8:
     0,0,0,0,0:
0000
0000
0000
0000
,
0000
0000
0000
0000
,
0000
0000
0000
0000
,
0000
0000
0000
0000
,
1000
0000
0100
0000
0000
1000
0100
0000
,
0010
0000
0001
0000
0000
0010
0001
0000
,
1000
0000
0000
0001
0000
0000
0000
0000
,
0110
0000
0000
1001
0000
0000
0000
0000
,
0001
0000
0100
0000
0000
0001
0100
0000
,
0010
0000
1000
0000
0000
0010
1000
0000
,
0001
0000
1000
0000
,
0110
0000
0000
1001
0000
0000
0000
0000
,
0002
0000
0000
0020
0000
0000
0000
0033
,
2000
0000
0000
0020
0000
0000
0000
3030
,
0002
0000
0000
0203
0000
0000
0302
0000
,
2003
0000
0000
0002
0000
0000
0000
3003
,
2000
0000
0000
0020
0000
0000
0000
3030
,
0002
0000
0000
0020
0000
0000
0000
0033
,
2000
0000
0000
3200
0000
0000
2300
0000
,
3002
0000
0000
0000
2000
0000
0000
3003
,
0101
1100
0101
0100
,
1010
0000
0010
2002
0000
0000
3003
0000
,
0011
1010
0011
0010
,
1001
0000
0000
0110
0000
1001
0000
0000
,
1100
0101
1100
0100
,
0011
0000
0010
2002
0000
0000
3003
0000
,
1010
0011
1010
0010
,
2002
0000
0000
3003
0220
0000
0000
0330
,
2002
0000
0000
0000
,
3003
0000
0000
0000
,
2000
0000
0000
0000
,
3020
0000
0000
0000
0230
0000
0000
0300
,
0101
0000
0001
0100
0000
0100
0001
0000
,
1100
0000
1000
0100
0000
0100
1000
0000
,
1001
0000
0000
0110
0000
0000
0000
0000
,
0110
0000
0000
1001
0000
0000
1000
0000
,
0011
0000
0001
0010
0000
0010
0001
0000
,
1010
0000
1000
0010
0000
0010
1000
0000
,
2002
3003
0220
0330
,
0110
0000
0000
1001
0000
0000
0001
0000
,
2020
0000
0030
0200
0000
0000
3300
0000
,
0202
0000
0300
0020
0000
0000
0033
0000
,
2200
0000
0300
0020
0000
0030
3001
0000
,
0022
0000
0030
0200
0000
0000
0303
0000
,
2200
0000
3000
0020
0300
0000
0031
0000
,
0201
0000
0000
0020
0300
0000
1030
0000
,
2020
0000
0030
0002
3000
0000
0013
0000
,
0110
0100
1001
0001
,
1010
0101
1020
0130
,
1001
0001
0100
0220
0000
0000
0330
0000
,
1020
0032
2003
3100
,
0110
0000
0010
1000
0000
1001
0000
0000
,
0011
1100
0021
0130
,
1001
1000
0100
0220
0000
0000
0330
0000
,
0021
2030
3002
0103
,
0220
0330
2002
3003
,
1000
1000
1000
1000
,
0100
0010
0001
0000
0100
0010
1000
0000
,
0001
0001
0001
0001
,
0010
0100
1000
0000
0010
0100
0001
0000
,
1000
0010
0001
0010
,
1000
0100
0001
0100
,
1000
0100
0010
0001
,
0100
0100
0100
0000
,
1010
1000
1001
0001
,
0022
0000
0033
0000
,
0110
1100
0000
2002
,
0000
0000
3003
0000
,
1000
0010
0101
0000
,
1000
0100
0011
0000
,
0110
0001
1000
0110
,
0000
1001
0000
0000
,
0011
0001
1001
1000
,
2020
0000
3030
0000
,
0110
0101
0000
2002
,
0000
0000
3003
0000
,
0001
0010
1100
0000
,
0001
0100
1010
0000
,
0220
0000
0000
0330
,
2002
0000
0000
3003
,
0101
0001
1001
1000
,
2200
0000
3300
0000
,
0110
0011
0000
2002
,
0000
0000
3003
0000
,
0001
0100
1010
0000
,
0001
0010
1100
0000
,
0110
1000
0001
0110
,
0000
1001
0000
0000
,
1100
1000
1001
0001
,
0202
0000
0303
0000
,
0110
1010
0000
2002
,
0000
0000
3003
0000
,
1000
0100
0011
0000
,
1000
0010
0101
0000
,
0110
0000
1000
0001
,
0000
2002
0000
3003
,
1000
0001
0010
0001
,
1000
0001
0010
0001
,
1000
0001
0100
0001
,
1000
0001
0100
0001
,
1000
0100
0010
0000
,
0100
0010
0001
0000
,
1001
0100
0010
1001
,
0000
0001
1000
0000
,
0001
1000
0010
1000
,
0001
1000
0010
1000
,
0001
1000
0100
1000
,
0001
1000
0200
0000
,
0302
0000
0203
0000
,
2300
0000
3020
0000
,
0031
0010
0100
0010
,
0000
1000
0001
2000
,
0002
0000
0000
0000
,
0000
0000
0000
3003
,
0001
0010
0100
1000
,
0010
0100
0001
0000
,
0220
0000
0000
0000
,
0000
0000
0000
0330
,
1000
0010
0100
0001
,
0010
0100
1000
0000
,
0001
0100
1000
0000
,
0001
0010
1000
0000
,
1000
0100
0001
0000
,
1000
0010
0001
0000
,
0100
0000
0000
0000
;

//--------------- dance-single - tikal. ----------------
#NOTES:
     dance-single:
     tikal.:
     Hard:
     9:
     0,0,0,0,0:
0000
0000
0000
0000
,
0000
0000
0000
0000
,
0000
0000
0000
0000
,
0000
0000
0000
0000
,
0002
0000
0000
0100
0200
0000
0303
0000
,
2000
0000
0000
0100
0200
0000
3300
0000
,
0010
0001
0000
0101
0000
1100
0000
1010
,
0000
0011
0000
2002
0000
0000
3003
0000
,
2000
0000
0000
0010
0020
0000
3030
0000
,
0002
0000
0000
0010
0020
0000
0033
0000
,
1100
0000
0000
0001
0101
0000
0000
0100
,
0110
0010
0000
2002
0000
0000
3003
0000
,
0102
0000
0000
1000
2000
0000
0000
3003
,
2100
0000
0000
0001
0002
0000
0000
3003
,
0012
0000
0000
2000
0003
0000
3100
0000
,
0001
0010
0010
1000
0010
0010
0001
1000
,
2010
0000
0000
0001
0002
0000
0000
3003
,
0012
0000
0000
1000
2000
0000
0000
3003
,
2100
0000
0000
0002
3000
0000
0013
0000
,
0220
0000
0000
0330
2002
0000
0000
3003
,
1100
0000
1001
0000
0012
1000
0000
0003
,
0001
0100
0100
1000
0100
0100
0001
1000
,
1010
0000
1001
0000
0102
1000
0000
0003
,
0011
1000
0010
0101
0000
1100
0000
0000
,
0101
0000
1001
0000
2010
0001
0000
3000
,
1000
0100
0100
0001
0100
0100
1000
0001
,
0011
0000
1001
0000
2100
0001
0000
3000
,
0001
0010
0010
1000
0010
0010
0001
1000
,
2002
0000
0000
0000
,
3003
0000
0000
0000
,
0000
1000
0100
0010
0000
0100
0010
0001
,
0000
0010
0001
1000
0000
0001
1000
0010
,
0100
0000
0001
0010
0010
0000
0011
0000
,
0100
0000
1000
0010
0010
0000
1010
0000
,
0100
0001
0000
0011
0000
1010
0000
1100
,
0000
0101
0000
2002
0000
0000
3003
0000
,
1000
0000
0010
0100
0100
0000
0101
0000
,
0001
0000
0010
0100
0100
0000
1100
0000
,
2010
0001
0000
3000
0012
1000
0000
0003
,
2100
0001
3000
0202
0000
0000
0303
0000
,
0102
0000
1003
0200
0001
0000
0010
0300
,
2100
0000
3001
0200
1000
0000
0310
0000
,
2010
0000
3001
0010
1000
0010
0001
0000
,
1000
0100
0100
0001
0100
0100
1000
0001
,
0012
0000
1003
0020
0001
0000
0100
0030
,
2010
0000
3001
0020
1000
0000
0130
0000
,
2100
0000
3001
0100
1000
0100
0001
0000
,
2002
0000
0000
3003
0220
0000
0000
0330
,
0011
1100
0021
1000
,
0031
0100
0100
1000
0100
0100
0001
1000
,
0020
0000
0001
0000
0230
0000
1000
0300
,
0101
1000
0100
0011
0000
1010
0000
0000
,
0101
1010
0201
1000
,
0301
0010
0010
1000
0010
0010
0001
1000
,
0200
0000
0001
0000
0320
0000
1000
0030
,
0220
0000
0000
0330
2002
0000
0000
3003
,
1000
0000
0000
0000
1000
0000
0000
0000
1000
0000
0000
0100
1000
0000
0001
0000
,
0010
0000
0000
0000
0010
0000
0001
0000
0100
0000
0000
0100
0000
0000
0100
0000
,
0001
0000
0000
0000
0001
0000
0000
0000
0001
0000
0000
0100
0001
0000
1000
0000
,
0010
0000
0000
0000
0010
0000
1000
0000
0100
0000
0000
0100
0000
0000
0100
0000
,
1000
0100
0001
0100
,
1000
0010
0001
0010
,
0100
0100
0100
0100
,
0001
1000
0001
1000
0001
0000
0000
0000
,
0101
0100
1100
0100
,
0102
1000
1003
0000
,
1100
0110
0001
1002
,
0000
0100
0103
0000
,
1010
0001
0101
0000
,
1100
0001
0011
0000
,
0110
0001
1001
1010
,
0000
0110
0110
0000
,
1010
0010
0011
0010
,
2010
0001
3001
0000
,
0011
0110
1000
2001
,
0000
0010
3010
0000
,
0101
1000
1010
0000
,
0011
1000
1100
0000
,
0220
0000
0000
0330
,
2002
0000
0000
3003
,
0011
0010
1010
0010
,
0012
1000
1003
0000
,
1010
0110
0001
1002
,
0000
0010
0013
0000
,
1100
0001
0011
0000
,
1010
0001
0101
0000
,
0110
0001
1001
1100
,
0000
0110
0110
0000
,
1100
0100
0101
0100
,
2100
0001
3001
0000
,
0101
0110
1000
2001
,
0000
0100
3100
0000
,
0011
1000
1100
0000
,
0101
1000
1010
0000
,
0110
0000
1010
1001
,
0000
0011
0110
0000
,
1000
0100
0010
0100
,
1000
0100
0001
0100
,
1000
0010
0001
0010
,
1000
0010
0100
0010
,
0001
0010
0100
0010
,
0001
0010
1000
0001
,
0011
1000
1010
0102
,
0000
0000
1003
0001
1000
0000
0000
0000
,
0001
0100
0010
0100
,
0001
0100
1000
0100
,
0001
0010
1000
0010
,
0001
0010
0100
0010
,
1000
0010
0100
0010
,
1000
0010
0001
1000
,
1010
0011
0001
1100
,
0000
1100
1001
0110
,
2002
0000
0000
0000
,
0000
0000
0000
3003
,
0001
0100
1000
0100
,
0010
0100
0001
0000
,
0220
0000
0000
0000
,
0000
0000
0000
0330
,
1000
0100
0010
0100
,
0001
0100
1000
0000
,
0001
0010
1100
0000
,
0001
0100
1010
0000
,
1000
0010
0101
0000
,
1000
0100
0011
0000
,
0001
0000
0000
0000
;
