#TITLE:\#Namescapes;
#TITLETRANSLIT:Namescapes;
#ARTIST:\#Namescapes;
#ARTISTTRANSLIT:Namescapes;
#GENRE:Hard psy;
#CREDIT:tikal.BD1';
#MUSIC:namescapes.ogg;
#BANNER:bn.png;
#BACKGROUND:bg.png;
#CDTITLE:cdtitle.png;
#SAMPLESTART:92.060;
#SAMPLELENGTH:26.301;
#SELECTABLE:YES;
#OFFSET:-0.005;
#BPMS:0.000=146.000;
#STOPS:;

//--------------- dance-single - tikal.BD1' ----------------
#NOTES:
     dance-single:
     tikal.BD1':
     Hard:
     11:
     0,0,0,0,0:
0000
0000
0000
0000
,
0000
0000
0000
0000
,
0000
0000
0000
0000
,
0000
0000
0000
0000
,
0001
0000
0000
0010
0100
0000
0010
0000
0001
0000
0100
0000
1000
0000
0100
0010
,
1000
0000
0000
0100
0010
0000
0100
0000
1000
0000
0010
0100
0001
0000
0001
0000
,
0001
0000
0000
0100
0010
0000
0100
0000
0001
1000
0100
0010
0100
1000
0001
0000
,
0100
0000
0000
0100
0010
0000
1000
0001
1000
0000
0100
0010
0002
0000
0000
0000
,
1003
0000
0110
0110
0110
0000
0001
0000
,
1001
0000
1001
0000
1001
0000
0000
0000
1000
0000
0010
0100
0001
0000
1000
0000
,
0100
0000
0100
0000
0001
0000
0010
0000
0010
1000
0001
1000
0100
0010
0001
0000
,
1000
0001
1000
0001
0100
0000
1000
0000
0100
0010
1000
0001
0020
0000
0000
0000
,
0230
0000
1000
0000
0000
0000
1000
0001
0000
0000
0001
0000
0000
0000
0301
1000
,
1100
0001
0101
1000
1100
0001
0101
1000
,
0020
0000
1000
0000
0000
0000
1000
0001
0000
0000
0001
0000
0000
0000
0031
1000
,
0010
0000
0100
0000
1001
0000
0000
0000
0001
0100
0010
1000
0100
0000
0000
0000
,
1001
0000
0001
0010
0000
0000
0010
0100
0000
0000
0100
1000
0000
0000
0001
0100
,
0010
0000
0000
0100
0000
0000
0001
0000
2000
0000
0000
3200
0000
0000
0320
0000
,
0032
0000
1003
0010
0000
0000
0010
0100
0000
0000
0100
0001
0000
0000
1000
0100
,
0010
0000
0000
0100
0000
0000
1000
0000
0100
0010
0001
1000
0010
0000
0100
0001
,
0200
0000
0310
1000
0000
0000
1000
0001
0000
0000
0001
0100
0000
0000
0010
1000
,
0100
0000
0000
1000
0000
0000
0010
0000
0000
0100
0000
0000
0001
0000
0010
0001
,
0020
0000
0000
0000
0000
0000
0100
0000
0000
0000
0000
0000
0000
0000
0000
0000
0000
0000
0100
0000
0000
1000
0000
0000
0000
0000
0000
0000
0000
0000
0100
0000
0000
0000
0000
0000
0000
0000
0000
0000
0130
0000
0000
0000
0001
0000
0000
0000
,
0011
0000
1010
0000
0000
0000
1000
0001
0010
0110
0000
1001
0000
0000
0000
0000
,
1000
0000
0001
0100
0001
0100
0000
0010
0001
0000
0010
1000
0002
0000
0000
0000
,
1003
0000
0001
0010
0001
0010
0000
0100
0001
0000
0100
1000
0000
0001
0100
0000
,
0001
0000
1000
0100
1000
0100
0000
0010
1000
0000
0010
0001
2000
0000
0000
0000
,
3001
0000
1000
0010
1000
0010
0000
0100
1000
0100
0010
1000
0002
0000
0000
0000
,
1003
0000
0001
0010
0100
0010
0000
0100
0001
0000
0100
1000
0002
0000
0000
0000
,
1003
0000
0001
0100
0010
0100
0000
0010
0001
0000
0010
1000
0000
0100
0010
0000
,
0001
0000
1000
0010
1000
0010
0000
0100
1000
0000
0100
0001
2000
0000
0000
0000
,
3001
0000
0010
0100
1000
0000
0001
0100
0010
0100
1000
0100
0010
0000
1000
0000
,
2001
0000
0000
0000
0000
0000
3001
0000
0010
0100
0000
0000
0100
0000
0001
0000
,
0100
0000
1000
0010
0100
0000
0000
1000
0100
0000
0010
1000
0000
0001
0010
0000
,
0100
0001
0000
0000
0100
0000
0000
1000
0001
0100
0000
0010
0001
0000
1000
0100
,
0000
0010
1000
0001
0010
0100
0000
0100
1000
0000
0001
0100
0010
0000
0000
0000
,
1002
0000
0000
0000
0000
0000
0000
0000
0000
0000
0000
0000
0000
0000
0000
0000
0000
0000
1003
0000
0000
0100
0000
0000
0010
0000
0000
0000
0000
0000
0001
0000
0000
0100
0000
0000
0010
0000
1000
0000
0001
0000
0010
0000
0000
0100
0000
0000
,
1000
0001
0100
0001
1000
0100
0000
0000
0010
0100
0000
1000
0001
0100
0000
0000
,
0010
0000
1000
0001
0010
0000
1000
0010
0000
0000
0001
0000
0000
0100
0010
0100
,
0001
0000
1000
0000
0100
0000
0000
0000
0010
0000
0010
0010
1001
0000
0000
0000
,
1000
0000
0100
0000
0001
0000
0100
0000
1000
0000
0100
0010
0001
0000
0001
0000
,
1000
0010
0000
0100
0001
0000
0001
0000
0010
0000
0100
1000
0001
0000
0100
0010
,
1000
0100
0010
0100
1000
0010
0000
0010
0000
0100
0010
0000
0001
0000
0010
0000
,
1000
0000
0000
0001
0010
0100
0000
0001
0100
1000
0001
1000
0010
0000
0000
0000
,
0110
0000
0001
1000
0001
0010
0000
0100
0000
0001
0100
0010
0001
0000
1000
0000
,
0010
0000
0100
0010
1000
0000
0100
1000
0001
0000
0100
0000
1000
0000
0100
0000
,
0001
0000
0000
0010
0100
0010
0000
0100
1000
0001
1000
0001
0100
0000
0010
0000
,
0001
0010
1000
0001
0010
0000
0110
0000
,
1000
0100
0100
0001
0000
0000
1000
0010
0010
0001
0000
0000
,
1000
0100
0100
0010
0000
0000
0001
0100
0010
0100
1000
0100
,
0001
0100
0100
1000
0000
0000
0001
0010
0010
1000
0000
0000
,
0001
0100
0100
0010
0000
0000
1000
0100
0100
0010
0010
0010
,
0001
0010
0010
0100
0000
0000
0001
0100
0100
0010
0000
0000
,
0001
0010
0010
1000
0000
0000
0001
0100
0010
0100
0001
0100
,
1000
0010
0010
0100
0000
0000
1000
0100
0100
0010
0000
0000
,
1010
0000
0000
0000
0011
0000
0000
0000
0101
0000
0000
0000
1100
0000
0100
0010
,
0001
0000
0000
0100
0000
0100
0010
1000
0000
0000
1001
0000
0000
0001
1000
0100
,
0010
0000
0000
0100
0000
0100
1000
0001
0000
0000
0011
0000
0000
0001
0100
0010
,
1000
0000
0000
0010
0000
0010
0100
0001
0000
0000
1001
0000
0000
1000
0001
0010
,
0100
0000
0000
0010
0000
0001
0100
0010
0000
0000
1010
0000
0000
0011
0000
0000
,
1000
0000
0000
0100
0000
0100
0010
0001
0000
0000
1001
0000
0000
1000
0001
0100
,
0010
0000
0000
0100
0000
0100
0001
1000
0000
0000
1010
0000
0000
1000
0100
0010
,
0001
0000
0000
0010
0000
0010
0100
1000
0000
0000
1001
0000
0000
0001
1000
0010
,
0100
0000
0000
0100
0000
0000
0100
0010
1000
0001
1000
0001
0020
0000
0000
0000
,
0130
0000
0000
0000
1000
0010
0000
0010
0100
0000
0001
0000
0010
0000
0000
0000
,
0110
0000
0000
1001
0000
0000
0110
1000
0001
1001
0000
0000
,
1000
0000
0000
0100
0000
0100
0010
0001
0000
0000
0101
0000
0000
0100
0010
1000
,
0001
0000
0000
0010
0000
1000
0010
0100
0000
0000
1100
0000
0000
0101
0000
0000
,
0001
0010
0100
0001
0100
0010
0001
2000
0000
3010
0100
0010
1000
0100
0010
0001
,
1000
0010
0100
1000
0100
0010
1000
0001
0020
0000
0000
0000
0130
1000
0100
1000
,
0001
0100
0000
0010
0100
0000
1000
0100
0000
0010
1000
0001
1000
0100
0010
0001
,
0100
0000
0000
0000
0110
0000
0000
0000
1000
0001
0010
0100
1000
0010
0100
0001
,
0020
0030
0000
0000
;

//--------------- dance-single - tikal. temperance ----------------
#NOTES:
     dance-single:
     tikal. temperance:
     Challenge:
     10:
     0,0,0,0,0:
0000
0000
0000
0000
,
0000
0000
0000
0000
,
0000
0000
0000
0000
,
0000
0000
0000
0000
,
0001
1000
0100
0010
,
0001
0000
0001
0000
1000
0000
1000
0001
,
1000
0010
0100
0001
,
0020
0000
0000
0000
0200
0000
0000
0330
,
1000
0000
0110
0110
0110
0000
0001
0000
,
1001
1001
1001
0000
1000
0000
0001
1000
,
0010
0010
0001
0100
0100
1000
0010
1000
,
1000
0001
1000
0001
0010
0000
1000
0000
0010
0000
0001
0000
0100
0000
0000
0000
,
0020
0000
0001
0000
1000
0000
0031
0010
,
1010
0011
1010
0011
,
0020
1000
0001
1000
,
0130
1000
1001
0000
0001
0100
0110
0000
,
1000
0000
0000
0000
0001
0000
0000
0000
0010
0000
0000
0000
0001
0000
1000
0010
,
0100
0000
0000
0010
0000
0000
1000
0000
0002
0000
0000
0023
0000
0000
0230
0000
,
2300
0000
0000
0000
0100
0000
0000
0000
0001
0000
0000
0000
3100
0000
1000
0100
,
0010
0000
0000
0100
0000
0000
1000
0000
0001
0000
0100
0001
1000
0000
0001
0010
,
0002
0000
0000
0000
0100
0000
0000
0000
1000
0000
0000
0000
0103
0000
0001
0100
,
0010
0000
0000
0100
0000
0000
0001
0000
0000
1000
0000
0000
0100
0000
0010
0001
,
0020
0000
0000
1000
0000
0000
0001
0000
0000
0130
0010
0001
,
1001
0000
1001
0000
0000
0000
0000
0000
0000
0110
0000
0110
0000
0000
0000
0000
,
0001
0000
0100
0000
0010
1000
0000
0010
1000
0000
0100
0000
0010
0001
0000
0010
,
0001
0000
1000
0000
0001
0100
0000
0010
1000
0000
0001
0000
0001
0000
0000
0000
,
1000
0000
0100
0000
0010
0001
0000
0010
0001
0000
0100
0000
0010
1000
0000
0010
,
1000
0000
0001
0000
1000
0100
0000
0010
0001
1000
0001
0100
0010
0000
0000
0000
,
1000
0000
1000
0000
1000
0100
0000
0100
0001
0020
0100
0000
1000
0030
0010
0001
,
0100
0000
0010
0000
1000
0010
0100
0001
0010
0000
0010
0000
0100
0000
0000
0000
,
1000
0000
0001
0100
0001
0100
0001
0100
0001
0000
1000
0100
1000
0100
1000
0100
,
0010
0000
0000
0000
0110
0000
0000
0000
1000
0001
1000
0001
1000
0000
0010
0100
,
0002
0000
0000
0000
0000
0000
1003
0000
0000
1000
0000
0000
1000
0000
0010
0000
,
0001
0000
0010
0100
0001
0000
0000
1000
0001
0000
0000
0010
0000
0000
1000
0000
,
0000
0010
0000
0000
0100
0000
0000
1000
0001
0100
0000
0010
0100
0000
0010
1000
,
0000
0001
1000
0000
0100
0010
0000
0100
0010
0000
0100
1000
0001
0000
0000
0000
,
2000
0000
0000
0000
0000
0000
3001
0100
0001
0000
1000
0010
1000
0000
0001
0000
,
0010
0000
0010
0000
0100
1000
0000
0000
0010
0100
0000
0100
0001
1000
0000
0000
,
0001
0000
0010
0001
0100
0000
0010
1000
0000
0000
0100
0000
0000
1000
0010
0000
,
0100
0000
0100
0000
0001
1000
1001
0000
,
1000
0000
1000
0000
1000
0000
0100
0000
0001
0000
0100
0000
1000
0000
0001
0100
,
0020
0000
0000
0230
0000
0000
0302
0000
0000
2003
0000
0000
3100
0000
0000
0000
,
0010
0000
0001
0000
0100
0001
0000
0001
0000
1000
0001
0000
0001
0000
1000
0100
,
0020
0000
0000
0230
0000
0000
2300
0000
0000
3002
0000
0000
0103
0000
0000
0000
,
0001
0000
0001
0000
0100
0010
0000
0010
0000
0000
1000
0001
1000
0000
0001
0010
,
0200
0000
0000
0320
0000
0000
0032
0000
0000
2003
0000
0000
3010
0000
0000
0000
,
1000
0000
0000
0010
0100
0000
0010
1000
0001
0010
0001
0000
1000
0000
0100
0000
,
0001
0100
1000
0001
0100
0000
0110
0000
,
1000
0010
0010
0001
0000
0000
1000
0100
0100
0001
0000
0000
,
1000
0010
0010
0100
0000
0000
0001
0010
0100
0010
1000
0010
,
0001
0010
0010
1000
0000
0000
0001
0100
0100
1000
0000
0000
,
0001
0010
0010
0100
0000
0000
1000
0010
0010
0100
0100
0100
,
0001
0100
0100
0010
0000
0000
0001
0010
0010
0100
0000
0000
,
0001
0100
0100
1000
0000
0000
0001
0010
0100
0010
0001
0010
,
1000
0100
0100
0010
0000
0000
1000
0010
0010
0100
0000
0000
,
1100
0101
0011
1010
,
0001
0000
0000
0010
0000
0010
0100
1000
0000
0000
1001
0000
0000
0001
1000
0010
,
0100
0000
0000
0010
0000
0010
1000
0001
0000
0000
0101
0000
0000
0001
0010
0100
,
1000
0000
0000
0100
0000
0100
0010
0001
0000
0000
1001
0000
0000
1000
0001
0100
,
0010
0000
0000
0100
0000
0001
0010
0100
0000
0000
1100
0000
0000
0101
0000
0000
,
1000
0000
0000
0010
0000
0010
0100
0001
0000
0000
1001
0000
0000
1000
0001
0010
,
0100
0000
0000
0010
0000
0010
0001
1000
0000
0000
1100
0000
0000
1000
0010
0100
,
0001
0000
0000
0100
0000
0100
0010
1000
0000
0000
1001
0000
0000
0001
1000
0100
,
0010
0000
0000
0010
0000
0000
0010
0100
1000
0001
1000
0001
0200
0000
0000
0000
,
0320
0000
0000
0000
0230
0000
0000
0300
,
0110
0000
0000
1001
0000
0000
1000
0100
0001
0010
0000
0000
,
1000
0000
0000
0010
0000
0010
0100
0001
0000
0000
0011
0000
0000
0010
0100
1000
,
0001
0000
0000
0100
0000
1000
0100
0010
0000
0000
1010
0000
0000
0011
0000
0000
,
0001
0100
0000
0001
0100
0000
0010
2000
0000
0000
3010
0100
0001
0000
0001
0000
,
1000
0100
0000
1000
0100
0000
0010
0001
2000
0000
0000
0000
3001
0000
0001
0000
,
1000
0010
0000
1000
0001
0000
1000
0100
0000
0010
0001
0100
0010
0000
1000
0001
,
1000
0000
0000
0000
1001
0000
0000
0000
0001
1000
0010
0100
0001
0010
0100
1000
,
0020
0030
0000
0000
;
