#TITLE:未完成ノ蒸氣驅動乙女 (DDR Edition);
#SUBTITLE:;
#ARTIST:U1 overground;
#TITLETRANSLIT:Mikansei no jouki kudou otome (DDR Edition);
#SUBTITLETRANSLIT:;
#ARTISTTRANSLIT:;
#GENRE:Orbitalic steampunk;
#CREDIT:tikal. as UTSURO;
#MUSIC:Mikansei no jouki kudou otome (DDR Edition).ogg;
#BANNER:Mikansei no jouki kudou otome (DDR Edition).png;
#BACKGROUND:Mikansei no jouki kudou otome (DDR Edition)-bg.png;
#CDTITLE:./CDTitles/pnm 24 Usagi to neko to shounen no yume.png;
#SAMPLESTART:73.412;
#SAMPLELENGTH:15.000;
#SELECTABLE:YES;
#OFFSET:0.000;
#BPMS:0.000=85.000
,10.000=170.000
,134.000=85.000
,158.000=170.000
;
#STOPS:;
#BGCHANGES:;
#FGCHANGES:;

//--------------- dance-single - tikal. as UTSURO ----------------
#NOTES:
     dance-single:
     tikal. as UTSURO:
     Challenge:
     13:
     0,0,0,0,0:
0000
0000
0000
0000
,
0000
0000
0000
0000
,
0000
0000
0000
0000
0000
0000
0000
0000
1000
0100
0001
0100
0010
0000
0001
0000
,
0100
0000
1000
0100
0020
0000
0000
0000
1030
0010
0001
0010
0200
0000
0000
0000
,
0302
0000
0000
0000
0023
0000
0000
0000
2030
0000
0000
0000
3010
0000
0001
0010
,
0100
1000
0100
0000
0010
0000
0000
0000
0001
0100
1000
0100
0001
0000
0000
0000
,
1000
0000
0100
0000
1000
0000
0000
0000
0001
0100
1000
0100
0010
0000
1000
0000
,
0100
0000
0001
0100
0020
0000
0000
0000
0031
0010
1000
0010
0200
0000
0000
0000
,
2300
0000
0000
0000
3020
0000
0000
0000
0032
0000
0000
0000
0023
0000
1030
0010
,
0100
0001
0100
0000
0010
0000
0000
0000
1000
0100
0001
0100
1000
0000
0000
0000
,
0001
0000
0100
0000
1001
0000
0000
0000
1000
0100
0001
1000
0010
0001
1000
0100
,
0010
0100
1000
0001
1000
0010
0001
1000
0100
0010
0100
0001
0010
0100
1000
0001
,
1000
0000
0010
0000
0100
0000
0001
0000
0100
0000
0010
0000
1000
0000
0000
0000
0000
0000
0000
0000
0000
0000
0000
0000
0001
0000
0000
0100
0000
0000
1000
0000
0000
0001
0000
0000
0010
0000
0000
1000
0000
0000
0001
0000
0000
0100
0000
0000
,
0010
0100
0001
1000
0001
0010
1000
0001
0100
0010
0100
1000
0010
0100
0001
1000
,
0001
0010
0100
1000
0001
0100
0010
0100
0001
0010
1000
0001
0100
1000
0001
0010
,
0100
0010
0001
1000
0001
0100
1000
0001
0010
0100
0010
1000
0100
0010
0001
1000
,
0001
0000
0100
0000
0010
0000
1000
0000
0010
0000
0100
0000
0001
0000
0000
0000
0000
0000
0000
0000
0000
0000
0000
0000
1000
0000
0000
0010
0000
0000
0001
0000
0000
1000
0000
0000
0100
0000
0000
0001
0000
0000
1000
0000
0000
0010
0000
0000
,
0100
0010
1000
0001
1000
0100
0001
1000
0010
0100
0010
0001
0100
0010
1000
0001
,
1000
0100
0010
0001
1000
0010
0100
0010
1000
0000
0000
0000
0100
0000
0001
0000
,
1000
0000
0000
0000
0000
0000
0010
0000
0000
0100
0000
0000
1000
0000
0000
0000
0000
0000
0000
0000
0001
0000
0000
0000
1000
0000
0000
0010
0000
0000
0100
0000
0000
0010
0000
0000
1000
0000
0000
0000
0000
0000
0100
0000
0000
0010
0000
0000
,
0001
0000
0100
0000
1000
0000
0100
0000
0001
0000
0100
0001
0010
0000
1000
0000
,
0010
0000
0001
0000
1000
0000
0100
1000
0010
0100
0001
0010
0100
0000
0010
0000
,
0001
0000
0000
1000
0000
0000
0001
0000
0000
0000
1000
0000
0001
0000
0000
0000
0000
0000
0100
0000
1000
0000
0100
0000
,
0010
0000
0000
0000
0100
0000
0000
0000
0001
0000
0000
0000
1000
0000
0000
0000
0000
0000
0001
0000
0000
0000
0000
0000
1000
0000
0000
0100
0000
0000
0010
0000
0000
0100
0000
0000
1000
0000
0000
0000
0000
0000
0010
0000
0000
0100
0000
0000
,
0001
0000
1000
0000
0100
0000
1000
0000
0001
0000
0010
0100
0001
0000
1000
0010
,
0100
1000
0001
0000
0100
0000
0010
0100
0001
0100
0001
0100
0010
1000
0010
1000
,
0001
0000
0000
0010
0000
0000
0001
0000
0000
0010
0000
0000
0100
0000
0000
0000
1000
0000
0000
0000
0100
0000
0000
0000
2100
0000
0000
0000
0000
0000
0000
0000
0000
0010
0000
0000
3000
0000
0000
0000
0000
0000
0102
0000
0000
0000
0000
0000
,
1000
0000
0003
0000
0021
0000
0000
0000
0100
0000
0100
0000
0130
1000
0100
0010
,
0001
1000
0010
0000
0102
0000
0000
0000
0013
0000
2100
0000
0000
0000
3010
0000
,
1002
0000
0000
0000
0100
0000
0000
0000
0013
0100
1000
0001
0100
0000
0010
0100
,
0001
1000
0100
0001
1000
0010
0001
0000
0001
0000
0000
0000
0101
0000
1001
0000
,
1010
0000
1000
1100
1001
0000
0210
0000
,
0301
0000
0120
0000
0000
0000
1030
0000
1001
0000
0000
0000
1000
0100
0010
0001
,
1000
0010
0100
0001
0100
0010
1000
0001
2000
0000
0000
0000
0000
0000
0100
0000
,
3002
0000
0000
0000
0000
0000
0100
0000
2003
0000
0000
0000
0000
0010
0001
0010
,
3002
0000
0000
0000
0000
0000
0000
0000
0023
0000
0000
0000
0000
0100
0000
0130
,
1000
0000
0000
0001
0000
0000
0100
0000
0000
0000
0000
0000
0001
0000
0000
0000
0000
0000
1000
0000
0000
0000
0000
0000
0001
0000
0010
0000
0100
0000
1000
0000
0100
0000
0010
0000
0001
0000
0100
0000
0010
0000
1000
0000
0010
0000
0100
0000
,
0001
0000
0000
0000
0000
0000
0010
0000
0000
0001
0000
0000
0100
0000
0000
0000
0000
0000
0010
0000
0000
1000
0000
0000
0100
0000
0000
0000
0000
0000
0000
0000
0100
0000
0000
0000
0000
0000
0000
0000
0100
0000
0000
0000
0000
0000
0000
0000
0010
0000
0000
0000
0000
0000
0000
0000
0000
0001
0000
0000
0000
0000
0000
0000
0000
0000
0100
0000
0000
0000
0000
0000
0101
0000
0000
0000
0000
0000
0000
0000
0000
0000
0000
0000
0100
0000
0000
0000
0000
0000
0000
0000
0000
0000
0000
0000
,
0010
0000
0000
0000
0000
0000
1000
0000
0000
0000
0000
0000
0100
0000
0000
0000
1100
0000
0000
0000
0000
0000
0000
0000
0000
0000
0000
0000
0000
0000
0000
0000
1000
0000
0000
0000
0000
0000
0001
0000
0000
0000
0000
0000
0000
0000
0000
0000
0101
0000
0000
0000
0000
0000
0001
1000
0001
0000
0000
0000
0100
0000
0000
0000
,
0001
0000
0000
0000
0000
0000
0000
0000
0000
1000
0000
0000
0000
0000
0000
0000
0000
0000
0000
0000
0000
0000
0000
0000
1100
0000
0000
0000
0000
0000
0000
0000
0101
0000
0000
0000
0000
0000
0000
0000
1001
0000
0000
0000
0000
0000
0000
0000
2000
0000
0000
0000
0000
0000
0000
0000
0000
0000
0000
0000
0000
0000
0000
0000
0000
0000
0000
0000
0000
0000
0000
0000
0000
0000
0000
0000
0000
0000
0000
0000
0000
0000
0000
0000
0000
0000
0000
0000
0000
0000
0000
0000
0000
0000
0000
0000
,
0000
0010
3002
0000
,
0000
0010
0203
0000
,
0000
0000
0320
0000
,
0000
0000
0000
0000
0000
0000
0000
0000
1030
0100
0010
1000
0010
0100
1000
0100
,
0010
0001
0100
0010
1000
0100
0001
1000
0010
1000
0001
0100
1000
0001
0100
0010
,
1000
0000
0010
0000
0100
0000
0001
0000
0100
0000
0010
0000
1000
0000
0100
0000
0010
0000
0001
0000
0010
0000
0100
0000
1000
0000
0000
0010
0000
0000
0100
0000
0000
1000
0000
0000
0100
0000
0000
0010
0000
0000
1000
0000
0000
0010
0000
0000
,
0100
0001
0010
0100
1000
0010
0001
1000
0100
1000
0001
0010
1000
0001
0010
0100
,
1000
0000
0100
0000
0010
0000
0001
0000
0010
0000
0100
0000
1000
0000
0000
0000
0001
0000
0000
0000
1000
0000
0000
0000
0001
0000
0000
0100
0000
0000
0010
0000
0000
0001
0000
0000
0010
0000
0000
0100
0000
0000
0001
0000
0000
0100
0000
0000
,
0010
1000
0100
0010
0001
0100
1000
0001
0010
0001
1000
0100
0001
1000
0100
0010
,
0001
0000
0010
0000
0100
0000
1000
0000
0100
0000
0010
0000
0001
0000
0100
0000
0010
0000
1000
0000
0010
0000
0100
0000
0001
0000
0000
0010
0000
0000
0100
0000
0000
0001
0000
0000
0100
0000
0000
0010
0000
0000
0001
0000
0000
0010
0000
0000
,
0100
0000
1000
0000
0010
0000
0100
0000
0001
0000
0010
0000
0001
0000
0000
0010
0000
0000
1000
0000
0000
0001
0000
0000
0100
0000
0000
0001
0000
0000
1000
0000
0000
0010
0000
0000
0001
0000
0000
1000
0000
0000
0010
0000
0000
0100
0000
0000
,
0001
0000
0100
0000
0010
0000
1000
0000
0010
0000
0100
0000
0001
0000
0000
0000
1000
0000
0000
0000
0001
0000
0000
0000
1000
0100
0001
0000
0000
0000
0000
0000
1000
0100
0001
0000
0000
0000
0000
0000
1000
0100
0001
0000
0000
0000
0000
0000
,
1000
0010
0100
1000
0001
0010
1000
0001
0010
0001
0100
0010
1000
0100
0010
0001
,
1000
0000
0001
0000
0100
0000
0010
0000
0100
0000
0001
0000
1000
0000
0000
0000
0001
0000
0000
0000
1000
0000
0000
0000
0001
0100
1000
0000
0000
0000
0000
0000
0001
0100
1000
0000
0000
0000
0000
0000
0001
0100
1000
0000
0000
0000
0000
0000
,
0001
0000
0010
0000
0100
0000
1000
0000
0010
0000
0100
0000
0001
0000
0010
0000
0100
0000
1000
0000
0001
0000
1000
0000
0010
0000
0000
1000
0000
0000
0100
0000
0000
0010
0000
0000
0001
0000
0000
0100
0000
0000
0010
0000
0000
1000
0000
0000
,
0001
0000
1000
0000
0100
0000
0010
0000
0100
0000
1000
0000
0001
0000
0000
0000
1000
0000
0000
0000
0001
0000
0000
0000
1000
0100
0001
0000
0000
0000
0000
0000
1000
0010
0001
0000
0000
0000
0000
0000
1000
0100
0001
0000
0000
0000
0000
0000
,
1000
0000
0100
0000
0010
0000
0001
0000
0010
0000
0100
0000
1000
0000
0000
0000
0001
0000
0000
0000
1000
0000
0000
0000
0001
0100
1000
0000
0000
0000
0000
0000
0001
0010
1000
0000
0000
0000
0000
0000
0001
0100
1000
0000
0000
0000
0000
0000
,
0001
0000
0100
0000
0010
0000
1000
0000
0010
0000
0100
0000
0001
0000
0000
0000
1000
0000
0000
0000
0001
0000
0000
0000
1000
0100
0001
0000
0000
0000
0000
0000
1000
0010
0001
0000
0000
0000
0000
0000
0001
0100
1000
0000
0000
0000
0000
0000
,
0001
0010
1000
0000
0000
0000
0000
0000
1000
0100
0001
0000
0000
0000
0000
0000
0001
0100
1000
0000
0000
0000
0000
0000
0001
0000
0000
0000
0100
0000
0000
0000
0010
0000
0000
0000
1000
0000
0000
0000
0100
0000
0000
0000
0010
0000
0000
0000
,
0001
0010
0001
0100
0010
1000
0100
1000
0010
0100
0001
0010
0001
0000
0000
0000
0000
0000
1000
0000
0000
0000
0000
0000
,
0100
0000
0000
0001
0000
0000
0100
0000
0000
0000
1000
0000
0001
0000
0000
0100
0000
0000
0010
0000
0000
1000
0000
0000
,
1000
0000
0001
1000
0100
0000
0001
0000
0100
0010
0001
0000
0100
0000
0010
0000
,
1000
0000
0001
0000
0010
0000
0100
0000
1000
0001
1000
0001
0100
0000
0010
1000
,
0100
0000
0000
0000
0000
0000
0010
0000
0000
0001
0000
0000
0100
0000
0000
0000
0000
0000
0010
0000
0000
0000
0000
0000
1000
0000
0000
0000
1000
0000
0000
0000
1000
0000
0000
0000
0000
0000
0000
0000
0001
0000
0000
0000
0001
0000
0000
0000
,
0001
0000
1000
0000
0001
0000
1000
0000
0000
0010
0000
0000
0100
0000
0000
0002
0000
0000
0013
0000
0000
2000
0000
0000
,
3010
0100
1000
0001
0100
0000
0010
0000
0100
0000
0001
0000
1000
0000
0001
1000
,
0100
0010
0100
0000
1000
0000
0001
1000
0001
0100
0000
0010
1000
0000
0000
0000
,
0001
0100
0001
0010
0100
1000
0010
1000
0100
0010
0001
0100
0020
0000
0000
0000
0000
0000
0000
0000
0000
0000
0000
0000
,
0000
0000
0000
0000
0000
0000
0000
0000
0000
0130
0000
0000
0000
0000
0000
0000
0000
0010
0000
0000
0000
0000
0000
0000
0000
1000
0000
0000
0000
0000
0000
0000
0002
0000
0000
0000
0000
0000
0000
0000
0000
0000
0000
0000
0000
0000
0000
0000
0000
0000
0000
0000
0000
0000
0000
0000
0000
0000
0000
0000
0000
0000
0000
0000
,
0000
0000
0000
0000
0000
0000
0000
0000
0013
0100
0010
0100
0010
0100
0010
0100
,
0010
0000
0000
0000
0100
0000
0000
0000
0010
0000
0000
0000
0000
0000
0000
0000
0000
0100
0000
0000
0000
0000
0000
0000
0000
1000
0000
0000
0000
0000
0000
0000
0020
0000
0000
0000
0000
0000
0000
0000
0000
0000
0000
0000
0000
0000
0000
0000
0000
0000
0000
0000
0000
0000
0000
0000
0000
0000
0000
0000
0000
0000
0000
0000
,
0000
0000
0030
0000
;
