#VERSION:0.83;
#TITLE:Matt Silver;
#SUBTITLE:;
#ARTIST:Remo-con;
#TITLETRANSLIT:;
#SUBTITLETRANSLIT:;
#ARTISTTRANSLIT:;
#GENRE:(Psychederic) hardstyle;
#CREDIT:tikal.;
#MUSIC:thebesttrackinhv.ogg;
#BANNER:bn.png;
#BACKGROUND:bg.png;
#CDTITLE:cdtitle.png;
#SAMPLESTART:39.356;
#SAMPLELENGTH:26.301;
#SELECTABLE:YES;
#OFFSET:0.071;
#BPMS:0.000=146.000;
#STOPS:;
#BGCHANGES:;
#FGCHANGES:;

//--------------- dance-single - tikal. ----------------
#NOTEDATA:;
#STEPSTYPE:dance-single;
#DESCRIPTION:tikal.;
#DIFFICULTY:Hard;
#METER:10;
#RADARVALUES:0,0,0,0,0;
#NOTES:
0000
0000
0000
0000
,
0000
0000
0000
0000
,
0000
0000
0000
0000
,
0000
0000
0000
0000
,
1000
0000
0000
0100
0000
0000
0010
0001
1000
0000
0000
0100
0000
0000
0010
0001
,
1000
0000
0000
0010
0000
0000
0100
0001
1000
0000
0000
0010
0000
0100
0001
0010
,
0001
0000
0000
0010
0000
0000
0100
1000
0001
0000
0000
0010
0000
0000
0100
1000
,
0001
0000
0000
0100
0000
0000
0010
1000
0000
0000
0010
0001
0000
0000
0010
1000
,
0001
0000
0010
0001
0100
0000
0010
0001
,
0100
0000
0000
0000
0010
0000
0000
0001
0000
0100
0000
0000
1000
0000
0100
0001
,
1000
0000
0010
1000
0100
0000
0010
1000
,
0100
0000
0000
0000
0010
0000
0000
1000
0000
0100
0000
0000
0010
0001
1000
0000
,
0001
0000
0000
0000
0100
0000
0001
0020
0100
0000
0000
0000
0130
0000
1000
0020
,
0100
0000
0000
0000
0130
0000
0001
0020
0000
0100
0000
0000
1030
0000
0010
0001
,
1000
0000
0000
0000
0010
0000
1000
0200
0010
0000
0000
0000
0310
0000
0001
0200
,
0010
0000
0000
0000
0310
0000
1000
0100
0000
0000
0110
0000
0000
0000
0000
0000
,
0001
0010
1000
0010
0001
0010
0100
0000
,
1000
0000
0000
0010
0000
0000
0100
0001
1000
0000
0000
0010
0000
0000
0100
0001
,
1000
0010
0001
0010
1000
0010
0100
0000
,
0001
0000
0000
0001
1000
0000
1000
0100
0000
0010
0000
0000
0001
1000
0000
0000
,
0001
0100
1000
0100
0001
0100
0010
0000
,
1000
0000
0000
0100
0000
0000
0010
0001
1000
0000
0000
0100
0000
0000
0010
0001
,
1000
0100
0001
0100
1000
0100
0010
0000
,
0001
0000
0000
0000
1000
0000
0000
0010
0000
0010
0000
0100
0001
0000
1000
0000
,
0001
0010
0100
0000
1000
0000
0000
0000
0001
0010
0100
0000
1000
0000
0000
0000
,
0001
0100
0010
0000
1000
0000
0000
0000
0001
0100
0010
0000
1000
0000
0001
0000
,
1000
0100
0010
0000
0001
0000
0000
0000
1000
0100
0010
0000
0001
0000
0000
0000
,
1000
0010
0100
0000
0001
0000
0000
0000
1000
0010
0100
0000
0000
1001
0000
0000
,
0002
0000
0000
0000
1003
0000
0100
0000
1000
0100
0010
0000
0001
0000
0100
0000
,
0001
0100
0010
0000
1000
0000
0010
0000
1000
0010
0100
0000
0001
0000
0010
0000
,
0001
0010
0100
0000
1000
0000
0010
0000
1000
0100
0010
0000
0001
0000
0100
0000
,
0010
0000
0100
0001
0000
1000
0000
0000
0100
0000
0000
0100
0010
0000
0001
0000
,
0011
0000
0000
0001
0000
1000
0000
0000
1010
0000
0000
0110
0000
0000
0101
0000
,
1000
0100
0000
0000
0001
0000
0100
1000
0000
0001
0000
1000
0001
0100
0010
0000
,
1010
0000
1000
0001
0000
0000
0011
0000
0000
0110
0000
1100
0000
1001
0000
0000
,
0001
0100
0010
0100
0001
0000
1000
0100
0010
0100
1000
0000
0001
0010
0100
0010
,
0001
0001
1000
1000
,
0010
0000
0100
0001
0000
1000
0100
0000
,
0010
0000
0000
0010
0000
0000
0001
0000
0000
1000
0000
0000
0010
0100
0010
0200
,
0000
0000
0000
0300
0000
0000
0000
0000
,
0001
0000
0100
0000
1000
0000
0100
0000
0001
0100
0001
0000
1000
0010
1000
0010
,
1000
0000
0010
0000
0001
0000
0010
0000
1000
0010
1000
0000
0001
0100
0000
0000
,
0001
0000
0010
0000
1000
0000
0010
0000
0001
0010
0001
0000
1000
0100
1000
0100
,
1000
0000
0100
0000
0001
0000
0100
0000
1000
0100
1000
0000
0001
0010
0000
0000
,
0100
0000
0000
0001
0100
0000
0000
1000
0010
0000
0000
0001
0010
1000
0010
1000
,
0010
0000
0000
0001
0010
0000
0000
1000
0100
0000
0000
0001
0100
1000
0001
0000
,
0100
0101
1001
0100
1100
1001
0010
0011
,
1001
0000
0000
1010
0000
0000
0110
0000
0000
0101
0000
0001
1000
0000
0001
0000
,
1000
0100
0010
0000
1000
0100
0010
0000
,
1000
0010
0100
1000
0100
0010
1000
0000
,
0001
0100
0010
0000
0001
0100
0010
0000
,
0001
0000
0100
0000
0010
0000
0001
0000
0010
0000
0100
0000
0000
1001
0000
0000
,
0001
0010
0001
0010
1000
0010
1000
0010
,
0001
0100
0001
0100
1000
0100
1000
0100
,
0010
0000
0000
1000
0000
0000
0000
1001
0000
0000
0000
0110
0000
0000
1000
0000
,
0001
0000
0000
0010
0000
0000
0000
1001
0000
0000
0110
0000
0000
0000
0000
0000
,
1000
0100
0010
0100
0000
0000
0001
0000
0100
0010
0001
0010
0000
0000
0100
0000
,
1000
0010
0100
0010
0000
0000
0001
0000
0010
0100
0001
0100
0000
0000
0010
1000
,
0001
0010
0100
0010
0000
0000
1000
0000
0010
0100
1000
0100
0010
0001
0000
0000
,
1000
0010
0100
0000
0001
0010
0100
0000
1000
0100
0010
0000
0000
1001
0000
0000
,
0002
0000
2003
0000
3001
0000
0010
0000
0100
1000
0100
0010
0000
0000
0001
0000
,
0100
0010
0001
0010
0000
0000
1000
0000
0010
1000
0010
0100
0000
0000
0001
0000
,
0010
0100
0001
0100
0000
0000
1000
0000
0001
0100
0010
1000
0000
0000
0001
0000
,
0010
0000
0000
0010
0100
0000
1000
0001
0000
0100
0000
0000
0110
0000
0000
0000
,
1000
0000
0000
0010
1000
0000
0000
0001
1000
0000
0000
0100
1000
0000
0000
0100
,
0010
0000
0000
0000
0001
0000
0000
0000
0010
0000
0000
0000
0001
0000
0000
0000
1000
0000
0000
0000
0001
0000
0000
0000
0100
0000
0000
0000
0001
0000
0000
0000
0200
0000
0000
0000
0000
0000
0000
0000
0000
0000
0310
0000
0000
1000
0000
0000
,
0001
0000
0000
0010
0001
0000
0000
1000
0001
0000
0000
0100
0001
0000
0000
1000
,
0001
0010
0100
1000
0000
1100
0000
1001
0000
0101
0000
0110
0000
1001
0000
0000
,
1000
0000
0000
0010
0001
0000
0000
0010
1000
0000
0000
0100
0001
0000
0000
0100
,
1000
0000
0100
0000
1000
0000
0010
0000
0100
0000
0001
0000
0010
0000
0001
0000
2000
0000
0000
0000
0000
3000
0000
0000
,
0001
0000
0000
0010
1000
0000
0000
0010
0001
0000
0000
0100
1000
0000
0000
0100
,
0001
1000
0000
0000
0100
0010
0000
0000
0001
1000
0000
1001
0000
0110
0000
1000
,
0001
0000
0000
0000
;

//--------------- dance-single - tikal. X ----------------
#NOTEDATA:;
#STEPSTYPE:dance-single;
#DESCRIPTION:tikal. X;
#DIFFICULTY:Challenge;
#METER:13;
#RADARVALUES:0,0,0,0,0;
#NOTES:
0000
0000
0000
0000
,
0000
0000
0000
0000
,
0000
0000
0000
0000
,
0000
0000
0000
0000
,
0001
1000
0100
0010
0000
10M0
0100
0001
1000
0010
0100
1000
0000
0010
0100
0001
,
1000
0001
0100
0010
0000
00M1
0100
1000
0001
0010
0100
0001
0000
0010
0100
1000
,
0001
0010
0100
0001
0000
001M
0100
1000
0001
0100
0010
0001
0000
1000
0100
0010
,
1000
0010
0100
1000
0000
M010
0100
0001
0000
0010
0100
1000
0000
0010
0100
0001
,
1001
0000
0000
0000
1000
0100
0010
0100
1000
0000
0000
0000
1000
0100
0001
0100
,
1000
0000
0000
0000
1000
0100
0001
0100
0010
0002
0000
0000
0103
0010
1000
0001
,
0010
0000
0000
0000
0001
0010
0100
0010
0001
0000
0000
0000
0001
0010
1000
0010
,
0001
0000
0000
0000
0001
0010
1000
0010
0100
1000
0000
1001
0000
0001
1000
0010
,
0100
0000
0000
1000
0100
0010
1000
0001
0010
0000
0000
1000
0010
0100
1000
0001
,
0100
0000
0000
1000
0100
0010
1000
0001
0000
0020
0000
0000
0031
1000
0100
0010
,
0100
0000
0000
0001
0100
0010
0001
1000
0010
0000
0000
0001
0010
0100
0001
1000
,
0100
0000
0000
0001
0100
0010
0001
1000
0000
0000
1001
0000
0000
0000
0000
0000
,
0001
0400
0000
1000
0001
0000
0000
0010
0001
0000
0000
1300
0002
0000
0000
0000
,
0013
0001
0010
0100
00M0
0100
0001
0010
0100
1000
0100
0010
0M00
0010
1000
0100
,
1000
0400
0000
0001
1000
0000
0000
0010
1000
0000
0000
0301
2000
0000
0000
0000
,
3010
1000
0010
0100
0011
0000
0001
1010
0000
1001
0000
0000
1000
0101
0000
0000
,
1000
0040
0000
0001
1000
0000
0000
0100
1000
0000
0000
0031
2000
0000
0000
0000
,
3100
1000
0100
0010
0M00
0010
1000
0100
0010
0001
0010
0100
00M0
0100
0001
0010
,
0001
0040
0000
1000
0001
0000
0000
0100
0001
0000
0000
1030
0002
0000
0000
0000
,
1003
0000
0000
0000
0100
0000
0010
0100
0010
0100
1000
0001
0100
0000
0100
0000
,
0001
0010
0100
0010
0001
0000
1000
0000
0001
0010
0100
0010
0001
0000
1000
0000
,
0001
0010
1000
0010
0001
0000
0100
0000
0001
0010
1000
0010
0001
0000
1000
0100
,
1000
0010
0100
0010
1000
0000
0001
0000
1000
0010
0100
0010
1000
0000
0001
0000
,
1000
0010
0001
0010
1000
0000
0100
0000
1000
0010
0001
0010
1000
0101
0010
0001
,
0400
0000
0000
0300
0001
0100
0010
0100
0001
0010
1000
0000
0001
0100
0010
0100
,
0001
0100
1000
0000
0001
0010
0100
0010
0001
0100
1000
0000
0001
0010
0100
0010
,
0001
0010
1000
0000
0100
0010
0100
1000
0010
0001
1000
0000
0100
0010
0100
1000
,
0100
0001
1000
0100
0000
0110
0000
0110
0000
0100
1000
0001
0010
0001
1000
0001
,
0200
0000
1300
0200
0000
0302
0000
2003
0100
0000
3001
0200
0000
0310
1000
0100
,
0001
1000
0001
0100
1000
0001
0100
0010
1000
0010
0001
1000
0001
0010
1000
0001
,
0020
0000
0130
2000
0010
0000
3001
0020
0000
0230
0000
2300
0000
3001
0100
0010
,
1000
0010
0001
1000
0001
0010
1000
0001
1000
0100
0001
1000
0001
0100
1000
0010
,
0100
0000
0001
0010
0100
0000
1000
0010
0100
0000
0001
0010
0100
0000
1000
0100
,
0010
0000
0001
0100
0010
0000
0001
0000
0010
0100
0001
1000
0100
0000
0010
0100
,
1000
0000
0010
0001
0000
0010
1000
0000
0100
0001
0000
0100
1000
0001
1000
0002
,
0000
0000
0000
0003
0000
0000
0000
0000
,
1000
0000
0000
0000
0000
0000
0010
0000
0000
0000
0000
0000
0001
0000
0000
0000
0000
0000
1000
0000
0000
0000
0000
0000
0100
0000
0000
0000
0000
0000
0001
0000
0000
0000
0000
0000
0100
0000
0000
0000
0000
0000
1000
0000
0000
0000
0000
0000
0001
0000
0000
0000
0000
0000
0010
0000
0000
0100
0000
0000
0010
0000
0000
0000
0000
0000
0001
0000
0000
0000
0000
0000
1000
0000
0000
0000
0100
0000
0000
0000
0010
0000
0000
0000
1000
0000
0000
0000
0100
0000
0000
0000
0010
0000
0000
0000
,
1000
0000
0000
0000
0000
0000
0010
0000
0000
0000
0000
0000
0001
0000
0000
0000
0000
0000
1000
0000
0000
0000
0000
0000
0100
0000
0000
0000
0000
0000
0001
0000
0000
0000
0000
0000
0100
0000
0000
0000
0000
0000
1000
0000
0000
0000
0000
0000
0001
0000
0000
0000
0000
0000
0010
0000
0000
0100
0000
0000
0010
0000
0000
0000
0000
0000
0001
0000
0000
0000
0000
0000
1000
0000
0000
0000
0100
0000
0000
0000
0010
0000
0000
0000
0000
0000
0000
0000
0000
0000
0000
0000
0000
0000
0000
0000
,
0001
0000
0000
0000
0000
0000
0010
0000
0000
0000
0000
0000
1000
0000
0000
0000
0000
0000
0001
0000
0000
0000
0000
0000
0100
0000
0000
0000
0000
0000
1000
0000
0000
0000
0000
0000
0100
0000
0000
0000
0000
0000
0001
0000
0000
0000
0000
0000
1000
0000
0000
0000
0000
0000
0010
0000
0000
0100
0000
0000
0010
0000
0000
0000
0000
0000
1000
0000
0000
0000
0000
0000
0001
0000
0000
0000
0100
0000
0000
0000
0010
0000
0000
0000
0001
0000
0000
0000
0100
0000
0000
0000
0010
0000
0000
0000
,
0001
0000
0000
0000
0000
0000
0010
0000
0000
0000
0000
0000
1000
0000
0000
0000
0000
0000
0001
0000
0000
0000
0000
0000
0100
0000
0000
0000
0000
0000
1000
0000
0000
0000
0000
0000
0100
0000
0000
0000
0000
0000
0001
0000
0000
0000
0000
0000
1000
0000
0000
0000
0000
0000
0010
0000
0000
0100
0000
0000
0010
0000
0000
0000
0000
0000
1000
0000
0000
0000
0000
0000
0001
0000
0000
0000
0100
0000
0000
0000
0010
0000
0000
0000
0000
0000
0000
0000
0000
0000
0000
0000
0000
0000
0000
0000
,
1000
0000
0000
0040
0000
0000
0000
0000
0000
0001
0000
0000
1000
0000
0000
0000
0000
0000
0000
0000
0000
0100
0000
0000
1000
0000
0000
0000
0000
0000
0000
0000
0000
0130
0000
0000
0001
0000
0100
0000
0010
0000
0001
0000
0100
0000
0010
0000
,
1000
0000
0000
0400
0000
0000
0000
0000
0000
0001
0000
0000
1000
0000
0000
0000
0000
0000
0000
0000
0000
0010
0000
0000
1000
0000
0000
0000
0000
0000
0000
0000
0000
0310
0000
0000
0001
0000
0010
0000
0100
0000
0001
0000
0000
0000
0000
0000
,
1000
0000
0010
0000
0001
0000
1000
0000
0100
0010
0100
0000
0001
0000
0010
0000
1000
0000
0001
0000
0100
0010
0100
0000
1000
0000
0100
0000
0001
0000
0100
0000
,
1000
0001
1000
0011
0000
0001
1010
0000
1000
0101
0000
0001
1100
0001
1000
0000
,
0001
0010
0100
0000
1000
0000
0000
0000
0001
0010
0100
0000
1000
0000
0000
0000
,
0001
0100
0010
0000
1000
0000
0000
0000
0001
0100
0010
0000
1000
0000
0001
0000
,
1000
0100
0010
0000
0001
0000
0000
0000
1000
0100
0010
0000
0001
0000
0000
0000
,
1000
0010
0100
0000
0001
0000
0000
0000
1000
0010
0100
0000
0000
1001
0000
0000
,
0001
0100
0010
0100
0001
0100
0010
0000
1000
0100
0010
0100
1000
0100
0010
0000
,
0001
0010
0100
0010
0001
0010
0100
0000
1000
0010
0100
0010
1000
0010
0100
0000
,
0002
0000
1003
0200
0000
0310
0000
0011
0000
1001
0000
2020
0000
0000
3030
0000
,
1000
0000
0001
0010
0000
1000
0000
0010
0001
0000
1000
0010
0100
0001
0100
0010
,
1000
0100
1010
0100
1000
0000
0001
0000
1000
0100
1010
0100
1000
0000
0001
0000
,
1000
0100
0011
0100
1000
0000
0001
0000
1000
0100
0011
0100
1000
0000
0010
0100
,
0001
0100
0011
0100
0001
0000
1000
0000
0001
0100
0011
0100
0001
0010
0100
0000
,
1000
0100
1010
0000
0001
0100
0011
0000
1000
0010
1100
0000
0001
1010
0100
1000
,
0040
0000
0430
0000
0301
0100
0010
0100
0011
1000
0100
0000
1000
0100
0010
0100
,
1010
0001
0100
0000
0001
0010
0100
0010
0101
1000
0010
0000
1000
0010
0100
0010
,
1100
0001
0010
0000
0100
1000
0010
1000
0101
0010
0001
0000
0100
0001
0010
0001
,
1100
0010
1000
0001
1010
0000
1000
0011
0000
0101
0000
0000
1100
0000
0000
0000
,
0001
0400
0000
0010
0301
0040
0000
0100
0031
0400
0000
0010
0301
0040
0000
0100
,
1030
0000
0000
0400
0000
0000
0000
0000
0000
0010
0000
0000
1300
0000
0000
0040
0000
0000
0000
0000
0000
0100
0000
0000
1030
0000
0000
0000
0100
0000
0000
0000
0001
0000
0000
0000
1000
0000
0000
0100
0000
0000
0010
0000
0000
0001
0000
0000
,
1000
0400
0000
0010
1300
0040
0000
0100
1030
0400
0000
0010
1300
0040
0000
0100
,
0031
0100
0010
0001
0010
1000
0010
0001
0010
1000
0010
0001
1000
0011
0100
0001
,
1000
0040
0000
0100
1030
0400
0000
0010
1300
0040
0000
0100
1030
0400
0000
0010
,
0301
0000
0010
0000
1010
0000
1000
0000
1100
0000
0100
0000
0101
0000
0110
0000
0022
0000
0000
0000
0000
0033
0000
0000
,
0001
0040
0000
0100
0031
0400
0000
0010
0301
0040
0000
0100
0031
0400
0000
0010
,
1300
1010
0000
0000
0001
0011
0000
0000
0001
0100
1000
0001
0010
0001
1000
0100
,
0001
0000
0000
0000
;
