#TITLE:La Bossanova de Sana;
#SUBTITLE:(Post Production Mitsuto Suzuki MIX);
#ARTIST:Sana & Togo;
#TITLETRANSLIT:;
#SUBTITLETRANSLIT:;
#ARTISTTRANSLIT:;
#GENRE:Ambient pop;
#CREDIT:tikal.;
#MUSIC:bossa3.ogg;
#BANNER:bn.png;
#BACKGROUND:bg.png;
#CDTITLE:cdtitle.png;
#SAMPLESTART:48.010;
#SAMPLELENGTH:16.696;
#SELECTABLE:YES;
#OFFSET:-0.012;
#BPMS:0.000=115.000;
#STOPS:;
#BGCHANGES:;
#FGCHANGES:;

//--------------- dance-single - tikal. ----------------
#NOTES:
     dance-single:
     tikal.:
     Hard:
     5:
     0,0,0,0,0:
0000
0000
0000
0000
,
0000
0000
0000
0000
,
0000
0000
0000
0000
,
0000
0000
0000
0000
,
0001
0001
0001
0001
,
1000
1000
1000
1000
,
0001
1000
0001
0000
1000
0001
0000
1000
,
0200
0000
0300
1001
,
1000
0000
0010
1000
0001
1000
1000
0000
,
0100
0020
0001
0130
,
1000
0002
0000
0203
0000
0320
0000
2030
,
0000
3020
0000
0230
0000
0302
0000
1003
,
0001
0100
0100
1000
0100
0100
0001
0000
,
1000
0002
0023
0230
,
1300
1000
0100
0001
0001
0100
1000
0000
,
0001
2000
3020
0230
,
0301
0001
0010
1000
0010
0001
1000
0000
,
0010
0200
0001
0310
,
1000
0002
0000
0023
0000
0230
0000
2300
,
0000
3200
0000
0320
0000
0032
0000
1003
,
0002
0100
0100
0100
,
2003
0100
0100
0100
,
3002
0010
2003
0010
,
3001
1000
0002
2000
0000
3003
1001
0000
,
0001
0010
1000
0000
1000
0010
0001
0000
,
1000
0010
0001
0100
,
1000
0010
0001
0000
0001
0010
1000
0000
,
0001
0010
1000
0100
,
0001
0100
1000
0000
1000
0100
0001
0000
,
1000
1000
2000
0000
0001
0000
3001
0000
,
0010
0000
0100
0000
,
2000
0000
0000
0000
0000
3000
1001
0000
,
0001
1000
0000
0010
0000
0100
0000
0001
,
0000
0100
0000
0010
0000
1000
0000
0001
,
1000
0001
0000
0010
0000
0100
0000
1000
,
0000
0100
0000
0010
0000
0001
1000
0001
,
1000
0010
0001
0000
0001
0010
1000
0000
,
0001
0010
0100
1000
0010
0100
0001
0000
,
1000
0100
0001
0000
0001
0100
1000
0000
,
0001
0100
1000
0010
,
1001
0000
0000
0000
;

//--------------- dance-single - tikal. ----------------
#NOTES:
     dance-single:
     tikal.:
     Challenge:
     8:
     0,0,0,0,0:
0000
0000
0000
0000
,
0000
0000
0000
0000
,
0000
0000
0000
0000
,
0000
0000
0000
0000
,
1001
0000
0001
1000
0001
1000
0001
1000
,
0100
0100
0100
0100
,
1001
0001
1000
0000
1000
0001
1000
0001
,
0100
0000
0010
0000
0100
0000
0010
0000
0000
1001
0000
0000
,
1000
0000
0100
0000
0010
0001
0010
0001
0010
0000
0001
0010
0100
1000
0100
1000
,
0001
0000
0100
0010
2000
0000
0000
0000
0001
0000
0000
0000
3100
0000
0000
0000
,
0010
0001
0001
0100
0100
0010
0010
1000
,
1000
0010
0010
0100
0100
0001
0001
1000
,
0001
0010
0100
0000
0100
0000
1000
0010
0100
0000
0100
0000
0001
0010
0100
0000
,
1000
0000
0001
0010
0100
1000
0001
1000
,
0010
1000
0010
1000
0100
0000
0010
0001
0010
0001
0100
0000
0010
0000
0100
0000
,
0001
0000
1000
0100
0010
0001
0010
0100
,
1000
0100
1000
0100
0010
0000
0001
0100
0010
0000
0100
0001
0010
0000
0100
0000
,
1000
0000
0000
0000
0002
0000
0000
0000
1003
0010
0100
1000
0000
0000
0100
0000
,
0001
1000
1000
0010
0010
0100
0100
0001
,
0001
0100
0100
0010
0010
1000
1000
0001
,
1000
0100
0100
0100
0001
0200
0000
0300
,
0000
1000
0020
0000
0031
0020
0000
1030
,
0001
0010
1000
0010
0100
0200
0000
1300
,
0001
0001
1000
2000
0000
3000
1001
0000
,
1000
0000
0010
0100
0010
0100
0000
1000
0000
1000
0000
0100
0010
0000
0000
0000
,
1000
0000
0100
0000
0010
0100
0000
0001
0100
0000
1000
0100
0000
0000
0010
0000
,
0001
0000
0010
0100
0010
0100
0000
0001
0000
0001
0000
0100
0010
0000
0000
0000
,
0001
0000
0100
0000
0010
0100
0000
1000
0100
0000
0001
0100
0000
0000
0010
0000
,
1000
0000
0001
0000
0001
0000
0000
0010
0000
0010
0000
0001
1000
0000
0010
0000
,
0100
0000
0100
0000
0200
0000
0000
0310
0100
0001
0000
1000
0100
0000
0100
0000
,
0000
0000
0000
1000
0100
0000
0000
0000
0010
0000
0000
0000
0001
0000
0000
0000
0100
0000
0000
0000
0010
0000
0000
0000
0000
0000
0000
0000
1000
0000
0000
0000
,
0001
0000
0000
0010
0000
0000
1000
0000
0000
0100
0000
0000
0001
0000
1000
0001
,
1000
0100
0010
0000
0010
0000
0100
1000
0000
0010
0000
0100
0010
0000
0001
0010
,
0000
0010
0000
0100
0010
0000
1000
0100
0000
0010
0000
0100
0010
0000
0001
1000
,
0001
0100
0010
0000
0010
0000
0100
0001
0000
0010
0000
0100
0010
0000
1000
0010
,
0000
0010
0000
0100
0010
0000
0001
0100
0000
0010
0000
0100
0010
0000
0010
0000
,
1000
0001
0010
0000
0010
0000
1000
0010
0000
0010
0000
0001
0010
0000
0100
1000
,
0001
1000
0010
0000
1000
0001
0000
1000
0100
0000
1000
0001
0000
0000
1000
0000
,
0001
1000
0010
0000
0010
0000
0001
0010
0000
0010
0000
1000
0010
0000
0100
0001
,
1000
0100
0000
0010
0100
0000
0001
0100
0000
1000
0001
0000
0100
0010
0100
0000
,
0220
0000
0000
0000
,
0300
0000
0000
0000
,
0030
0000
0000
0000
;
