#VERSION:0.83;
#TITLE:It's Your Birthday;
#SUBTITLE:;
#ARTIST:Jordan Fisher;
#TITLETRANSLIT:;
#SUBTITLETRANSLIT:;
#ARTISTTRANSLIT:;
#GENRE:Birthday song;
#CREDIT:tikal. (The Penguin Guy);
#MUSIC:It's Your Birthday.ogg;
#BANNER:It's Your Birthday.png;
#BACKGROUND:It's Your Birthday-bg.png;
#CDTITLE:cdtitle.png;
#SAMPLESTART:30.976;
#SAMPLELENGTH:15.000;
#SELECTABLE:YES;
#OFFSET:-0.008;
#BPMS:0.000=155.000
,108.000=150.571
,108.708=159.697
,109.417=155.000
,204.000=150.571
,204.708=159.697
,205.417=155.000
,236.000=150.571
,236.708=159.697
,237.417=155.000
;
#STOPS:;
#SCROLLS:0.000=1.000,
108.000=1.029,
108.708=0.971,
109.417=1.000,
204.000=1.029,
204.708=0.971,
205.417=1.000,
236.000=1.029,
236.708=0.971,
237.417=1.000
;
#DISPLAYBPM:155.000;
#BGCHANGES:;
#FGCHANGES:;

//--------------- dance-single - tikal. (The Penguin Guy) ----------------
#NOTEDATA:;
#STEPSTYPE:dance-single;
#DESCRIPTION:tikal. (The Penguin Guy);
#DIFFICULTY:Hard;
#METER:7;
#RADARVALUES:0,0,0,0,0;
#NOTES:
0000
0000
0000
0000
,
0000
0000
0000
0000
,
0000
0000
0000
0000
,
0000
0000
0000
0001
0001
0100
0010
0000
,
1010
0101
1010
0101
,
0000
0000
0001
0000
1000
0000
0000
1000
0100
0000
0010
0000
0001
0000
0000
0000
,
0011
1100
0011
1100
,
0000
0000
1000
0000
0001
0000
0000
0001
0100
0000
0010
0000
1000
0000
0000
0000
,
0200
0302
2003
3020
,
0031
1000
0000
1000
0010
0010
0100
0000
,
2000
0000
3100
0002
0000
0013
2000
0000
,
0000
3001
0100
1000
1000
0010
0100
0000
,
0101
0000
1010
0001
0000
0100
1010
0000
,
0010
0000
1000
0000
0010
0000
0000
1000
0100
0000
0010
0000
0001
0000
0000
0000
,
1100
0000
0011
1000
0000
0100
0011
0000
,
0010
0000
0001
0000
0010
0000
0000
0001
0100
0000
0010
0000
1000
0000
0000
0000
,
0200
0000
0302
0000
2003
3020
0230
0000
,
1300
0001
0000
0001
0100
0100
0010
0000
,
2020
0000
3030
0022
0000
0033
2002
0000
,
3003
0000
1000
0000
0001
0000
0000
0100
0010
0000
1000
0000
0001
0000
0000
0000
,
1000
0010
0001
1000
0100
0001
1000
0010
,
0100
0101
2200
3300
,
0001
0000
0000
0010
0000
0000
1000
0000
0001
0000
0100
0000
0010
0000
0100
0000
,
1000
1010
0022
0033
,
0001
0100
1000
0001
0010
1000
0001
0100
,
0010
0110
2002
3003
,
1000
0100
0001
1000
0000
0110
0000
1000
,
0010
0000
0000
0000
0000
0000
0000
0000
0000
0000
0000
0000
0000
0000
0000
0000
0000
0010
0000
0000
0000
0000
0000
0000
0000
0000
0000
0000
0000
0000
0000
0000
0000
0000
0010
0000
0000
0000
0000
0000
0000
0000
0000
0000
0000
0000
0000
0000
0100
0000
0000
0000
0000
0000
0000
0000
0000
0000
0000
0000
0000
0000
0000
0000
0000
0000
0000
0000
0000
0000
0000
0000
0001
0000
0000
0000
0000
0000
0000
0000
0000
0000
0000
0000
0000
0000
0000
0000
0000
0000
0000
0000
0000
0000
0000
0000
,
0020
0000
0100
0032
0000
0103
2000
0000
,
0010
0000
0000
0000
3001
0000
0000
0001
0010
0000
0100
0000
0000
1000
0000
0000
,
0020
0000
0100
2030
0000
0100
3002
0000
,
0010
0000
0000
0000
1003
0000
0000
1000
0010
0000
0100
0000
0000
0001
0000
0000
,
0020
0000
1000
0230
0000
0001
2300
0000
,
0001
0000
0000
0000
3010
0000
0000
0010
0100
0000
0001
0000
0000
1000
0000
0000
,
0200
0000
0001
0320
0000
1000
0032
0000
,
1000
0000
0000
0000
0103
0000
0000
0100
0010
0000
1000
0000
0000
0001
0000
0000
,
0010
0000
1001
0100
0000
0100
1001
0000
,
0010
0000
1001
0000
0000
0100
1001
1000
,
0001
0000
0110
1000
0000
1000
0110
0000
,
0001
0000
0110
0000
0000
1000
0110
0001
,
0010
0000
1100
0010
0000
0010
0101
0000
,
0010
0000
1001
0000
0000
0100
0110
0000
,
4000
0004
0000
0000
0000
0000
0000
0000
0000
0000
0000
0000
0000
0000
0000
0000
,
0000
0000
0000
0000
0000
0000
0000
0000
0000
0000
0000
3000
0003
0000
1000
0000
,
0010
0010
0001
0100
0100
1000
0010
0100
,
0010
1010
0202
0303
,
0100
0100
1000
0001
0010
0010
1000
0001
,
1000
1100
0022
0033
,
0010
0010
1000
0100
0100
0001
0010
0100
,
0010
0110
2002
3003
,
0001
0010
1000
0001
0000
0110
0000
0001
,
0100
0000
0000
0000
0000
0000
0000
0000
0000
0000
0000
0000
0000
0000
0000
0000
0000
0100
0000
0000
0000
0000
0000
0000
0000
0000
0000
0000
0000
0000
0000
0000
0000
0000
0100
0000
0000
0000
0000
0000
0000
0000
0000
0000
0000
0000
0000
0000
0010
0000
0000
0000
0000
0000
0000
0000
1000
0000
0000
0000
0000
0000
0000
0000
0001
0000
0000
0000
0000
0000
0000
0000
0010
0000
0000
0000
0000
0000
0000
0000
0000
0000
0000
0000
0100
0000
0000
0000
0000
0000
0000
0000
0000
0000
0000
0000
,
0001
0001
0010
1000
1000
0100
0001
1000
,
0010
0011
2200
3300
,
1000
0010
0100
1000
1000
0010
0001
0001
,
0100
0000
0101
0000
2020
0000
3030
0010
,
0001
0001
0100
1000
1000
0010
0001
1000
,
0100
0110
2002
3003
,
0001
0010
1000
0100
0000
1001
0000
0001
,
1000
0000
0000
0000
0000
0000
0000
0000
0000
0000
0000
0000
0000
0000
0000
0000
0000
0010
0000
0000
0000
0000
0000
0000
0000
0000
0000
0000
0000
0000
0000
0000
0000
0000
0001
0000
0000
0000
0000
0000
0000
0000
0000
0000
0000
0000
0000
0000
0100
0000
0000
0000
0000
0000
0000
0000
0000
0000
0000
0000
0000
0000
0000
0000
0000
0000
0000
0000
0000
0000
0000
0000
2000
0000
0000
0000
0000
0000
0000
0000
0000
0000
0000
0000
0000
0000
0000
0000
0000
0000
0000
0000
0000
0000
0000
0000
,
0000
0000
3000
0000
;

//--------------- dance-single - tikal. (The Penguin Guy) ----------------
#NOTEDATA:;
#STEPSTYPE:dance-single;
#DESCRIPTION:tikal. (The Penguin Guy);
#DIFFICULTY:Challenge;
#METER:13;
#RADARVALUES:0,0,0,0,0;
#NOTES:
0000
0000
0000
0000
,
0000
0000
0000
0000
,
0000
0000
0000
0000
,
0000
0000
0000
1000
1000
0100
0010
0000
,
0011
0000
1100
0001
0011
1000
1100
0000
,
0000
0000
0000
0000
0000
0000
0000
0000
0001
0000
0000
0000
0000
0000
0000
0000
0010
0000
0000
0000
0000
0000
0000
0000
0001
0000
0000
0000
0000
1000
0000
0000
0001
0000
0000
0000
0000
0000
0000
0000
0100
0000
0000
0000
0000
0000
0000
0000
0010
0000
0000
0000
0000
0000
0000
0000
0000
0000
0000
0000
0000
0000
0000
0000
,
1010
0000
0101
1000
1010
0001
0101
0000
,
0000
0000
0000
0000
0000
0000
0000
0000
0000
0000
0000
0000
1000
0000
0000
0000
0000
0000
0000
0000
0000
0000
0000
0000
0010
0000
0000
0000
0000
0000
0000
0000
0000
0000
0000
0000
1000
0000
0000
0000
0000
0000
0000
0001
0000
0000
0000
0000
1000
0000
0000
0000
0000
0000
0000
0000
0000
0000
0000
0000
0100
0000
0000
0000
0000
0000
0000
0000
0000
0000
0000
0000
0010
0000
0000
0000
0000
0000
0000
0000
0000
0000
0000
0000
0000
0000
0000
0000
0000
0000
0000
0000
0000
0000
0000
0000
,
0021
2030
3002
0203
,
0300
0000
0000
0000
0000
0000
0000
0000
0000
0000
0000
0000
1000
0000
0000
0000
0000
0000
0000
0000
0000
0000
0000
0000
0100
0000
0000
0000
0000
0000
0000
0000
0000
0000
0000
0000
1000
0000
0000
0000
0000
0000
0000
0001
0000
0000
0000
0000
0100
0000
0000
0000
0000
0000
0000
0000
0000
0000
0000
0000
0100
0000
0000
0000
0000
0000
0000
0000
0000
0000
0000
0000
0010
0000
0000
0000
0000
0000
0000
0000
0000
0000
0000
0000
0000
0000
0000
0000
0000
0000
0000
0000
0000
0000
0000
0000
,
2010
0000
0001
3200
0000
0302
0023
0000
,
0000
0000
0000
0000
0000
0000
1030
0000
0000
0000
0000
0000
0001
0000
0000
0000
0000
0000
0010
0000
0000
0100
0000
0000
0010
0000
0000
0000
0000
0000
0001
0000
0000
0000
0000
0000
1000
0000
0000
0000
0000
0000
0001
0000
0100
0000
0001
0000
,
0100
0000
1010
0001
0101
1000
1020
0000
,
0001
0000
0000
0000
0000
0000
0000
0000
0100
0000
0000
0000
0000
0000
0000
0000
1030
0000
0000
0000
0000
0000
0000
0000
0010
0000
0000
0000
0000
1000
0000
0000
0001
0000
0000
0000
0000
0000
0000
0000
0010
0000
0000
0000
0000
0000
0000
0000
0100
0000
0000
0000
0000
0000
0000
0000
0000
0000
0000
0000
0000
0000
0000
0000
,
1100
0000
0011
1000
1100
0001
0021
0000
,
1000
0000
0000
0000
0000
0000
0000
0000
0000
0000
0000
0000
0100
0000
0000
0000
0000
0000
0000
0000
0000
0000
0000
0000
0031
0000
0000
0000
0000
0000
0000
0000
0000
0000
0000
0000
0010
0000
0000
0000
0000
0000
0000
0001
0000
0000
0000
0000
1000
0000
0000
0000
0000
0000
0000
0000
0000
0000
0000
0000
0010
0000
0000
0000
0000
0000
0000
0000
0000
0000
0000
0000
0100
0000
0000
0000
0000
0000
0000
0000
0000
0000
0000
0000
0000
0000
0000
0000
0000
0000
0000
0000
0000
0000
0000
0000
,
0201
0000
2300
0000
3002
0023
2030
0000
,
0010
0000
0000
0000
0000
0000
0000
0000
0000
0000
0000
0000
0001
0000
0000
0000
0000
0000
0000
0000
0000
0000
0000
0000
3100
0000
0000
0000
0000
0000
0000
0000
0000
0000
0000
0000
0010
0000
0000
0000
0000
0000
0000
0001
0000
0000
0000
0000
1000
0000
0000
0000
0000
0000
0000
0000
0000
0000
0000
0000
1000
0000
0000
0000
0000
0000
0000
0000
0000
0000
0000
0000
0010
0000
0000
0000
0000
0000
0000
0000
0000
0000
0000
0000
0000
0000
0000
0000
0000
0000
0000
0000
0000
0000
0000
0000
,
0202
0000
0303
2200
0000
3300
2002
0000
,
3003
0000
0001
0000
1000
0000
0000
0100
0010
0000
0001
0000
1000
0010
0100
0000
,
0001
0100
0010
1000
0010
1000
0001
0100
0010
1000
0010
1000
0001
0100
0010
1000
,
0100
1000
0010
1000
0100
1000
0010
1000
0100
0010
0001
1000
0001
0100
0010
1000
,
0001
0010
0100
0001
0100
0010
0001
1000
0010
0100
0001
1000
0001
0010
0100
0010
,
0001
0100
0001
0100
1000
0100
1000
0100
0010
1000
0010
1000
0001
1000
0100
0010
,
0001
0010
0100
1000
0100
1000
0001
0010
0100
1000
0100
1000
0001
0010
0100
1000
,
0001
0010
0100
0010
0001
0100
0010
0100
0001
1000
0010
0100
0010
1000
0001
0010
,
0100
1000
0010
0100
1000
0100
0010
1000
0001
0010
0100
0001
0100
0010
0100
1000
,
0010
0000
0000
0000
0000
0000
0000
0000
0000
0000
0000
0000
0000
0000
0000
0000
0000
1000
0000
0000
0000
0000
0000
0000
0000
0000
0000
0000
0000
0000
0000
0000
0000
0000
0100
0000
0000
0000
0000
0000
0000
0000
0000
0000
0000
0000
0000
0000
0001
0000
0000
0000
0000
0000
0000
0000
0000
0000
0000
0000
0000
0000
0000
0000
0000
0000
0000
0000
0000
0000
0000
0000
0010
0000
0000
0000
0000
0000
0000
0000
0000
0000
0000
0000
0000
0000
0000
0000
0000
0000
0000
0000
0000
0000
0000
0000
,
1000
0010
1000
0010
1000
0010
1000
0001
1000
0001
1000
0001
1000
0100
1000
0100
,
0010
0100
0010
0100
0001
0100
0001
0100
0010
0002
1000
0000
0000
0010
0000
0003
,
0001
0100
0001
0100
0001
0100
0001
1000
0001
1000
0001
1000
0001
0010
0001
0010
,
0100
0010
0100
0010
1000
0010
1000
0010
0100
2000
0001
0000
0000
0010
0000
3000
,
1000
0100
1000
0100
1000
0100
1000
0001
1000
0001
1000
0001
1000
0010
1000
0010
,
0100
0010
0100
0010
0001
0010
0001
0010
0100
0002
1000
0000
0000
0100
0000
0003
,
0001
0010
0001
0010
0001
0010
0001
1000
0001
1000
0001
1000
0001
0100
0001
0100
,
0010
0100
0010
0100
1000
0100
1000
0100
0010
1000
0001
0010
0100
1000
0010
0100
,
0001
0M00
2211
0000
0000
0001
0000
0010
,
0001
0000
0010
0000
0301
0000
0000
0000
3100
0000
1000
0010
0100
0001
0010
0100
,
1000
0M00
1212
0000
0000
0010
1000
0010
,
1000
0000
0300
0000
1000
0000
0100
0000
0003
0000
0001
0100
0010
1000
0100
0010
,
0001
0000
2112
0000
0000
0010
0000
0100
,
0010
0000
0010
0000
0110
0220
0000
3333
,
1000
0010
1000
0010
0100
0010
0100
0001
0100
0001
1000
0001
1000
0001
0010
0001
,
0010
0100
0010
0100
1000
0100
1000
0001
1000
0001
1000
0010
0100
0001
0010
0100
,
1000
0100
0010
1000
0010
0001
1000
0100
0010
1000
0010
0001
1000
0100
0010
0001
,
0100
1000
0100
0001
0010
1000
0010
0001
0100
1000
0100
0010
0100
0001
1000
0100
,
0010
1000
0010
0001
1000
0010
0100
1000
0100
0001
1000
0100
1000
0001
0100
0010
,
1000
0100
0001
0100
1000
0010
0001
0010
0100
0001
1000
0100
0010
1000
0010
0100
,
1000
0010
0100
1000
0100
0001
1000
0010
0100
1000
0100
0001
1000
0010
0100
0001
,
0010
0100
0001
0100
0010
0100
0001
0100
1000
0001
0100
1000
0100
0001
1000
0100
,
0010
0001
0100
1000
0001
0010
1000
0001
1000
0100
0010
0001
0100
0010
1000
0000
,
1001
0000
0000
0000
0000
0000
0000
0000
0000
0000
0000
0000
0000
0000
0000
0000
0000
1001
0000
0000
0000
0000
0000
0000
0000
0000
0000
0000
0000
0000
0000
0000
0000
0000
1001
0000
0000
0000
0000
0000
0000
0000
0000
0000
0000
0000
0000
0000
0001
0000
0000
0000
0000
0000
0000
0000
0010
0000
0000
0000
0000
0000
0000
0000
0100
0000
0000
0000
0000
0000
0000
0000
1000
0000
0000
0000
0000
0000
0000
0000
0010
0000
0000
0000
0000
0000
0000
0000
0100
0000
0000
0000
0000
0000
0000
0000
,
0001
0100
0010
0001
0010
1000
0001
0100
0010
0001
0010
1000
0001
0100
0010
1000
,
0100
0001
0100
1000
0010
0001
0010
1000
0100
0001
0100
0010
0100
1000
0001
0100
,
0010
0001
0010
1000
0001
0010
0100
0001
0100
1000
0001
0100
0001
1000
0100
0010
,
0001
0100
1000
0100
0001
0010
1000
0010
0100
1000
0001
0100
0010
0001
0010
0100
,
0001
0010
0100
0001
0100
1000
0001
0010
0100
0001
0100
1000
0001
0010
0100
1000
,
0010
0100
1000
0100
0010
0100
1000
0100
0001
1000
0100
0001
0100
1000
0001
0100
,
0010
1000
0100
0001
1000
0010
0001
1000
0001
0100
0010
1000
0100
0010
0001
1000
,
0010
0000
0000
0000
0000
0000
0000
0000
0000
0000
0000
0000
0000
0000
0000
0000
0000
0001
0000
0000
0000
0000
0000
0000
0000
0000
0000
0000
0000
0000
0000
0000
0000
0000
0100
0000
0000
0000
0000
0000
0000
0000
0000
0000
0000
0000
0000
0000
1000
0000
0000
0000
0000
0000
0000
0000
0000
0000
0000
0000
0000
0000
0000
0000
0000
0000
0000
0000
0000
0000
0000
0000
0020
0000
0000
0000
0000
0000
0000
0000
0000
0000
0000
0000
0000
0000
0000
0000
0000
0000
0000
0000
0000
0000
0000
0000
,
0000
0000
0030
0000
;
