#TITLE:IN THE ZONE;
#ARTIST:U1 (NPD3 style) & KIDD KAZMEO;
#GENRE:Hip hop;
#CREDIT:tikal.;
#MUSIC:IN THE ZONE.ogg;
#BANNER:IN THE ZONE.png;
#BACKGROUND:IN THE ZONE-bg.png;
#CDTITLE:cdtitle.png;
#SAMPLESTART:5.82;
#SAMPLELENGTH:15;
#BPMS:0=124;

//--------------- dance-single - FS XO ----------------
#NOTES:
     dance-single:
     tikal.:
     Hard:
     9:
     0,0,0,0,0:
0000
0000
0000
0000
,
0000
0000
0000
0000
,
0000
0000
0000
0000
,
0010
0000
1001
0000
0000
0000
1001
0000
0000
1000
0100
01M0
0001
0000
0000
0000
,
0010
0000
1001
0000
0000
0000
1001
0000
0000
0001
0100
01M0
1000
0000
0001
0000
,
0010
0000
1001
0000
0000
0000
1001
0000
0000
1000
0010
0M10
0001
0000
0000
0000
,
1000
0000
1000
0000
0001
0000
0001
0000
0100
0000
0010
1000
0001
0000
0010
0000
,
0100
0000
1100
0000
0000
0000
1100
0000
0000
1000
0100
01M0
0001
0000
0000
0000
,
0100
0000
0101
0000
0000
0000
0101
0000
0000
0001
0100
01M0
1000
0000
0001
0000
,
1000
0010
0M00
0010
0000
0001
1000
0010
0M00
0010
0001
0000
0100
0000
0010
0000
,
1000
0000
0100
00M0
0100
0000
0001
0000
0100
0010
1000
0000
1001
0000
0000
0000
,
0001
0010
0M00
0010
0000
1000
0001
0010
0M00
0010
1000
0000
0100
0000
0010
0000
,
0001
0000
0100
00M0
0100
0000
1000
0000
0001
0010
0001
1000
0010
1000
0100
0010
,
0002
0100
0100
2003
0100
3020
0000
0100
,
2030
0100
0100
3002
0100
0023
0100
0030
,
1001
0001
0100
0000
1001
1000
0100
0000
,
0010
0000
0010
0000
0010
0000
0001
1000
0001
1000
0001
0000
0000
0000
0000
0000
,
1001
1000
0100
0001
0100
0010
0001
0100
,
0100
1000
0100
0010
1000
0001
0010
0000
,
0001
0100
1000
0100
0001
0001
1000
1000
,
0100
0010
0000
0100
0010
0000
0001
0000
1000
0000
0110
0000
1001
0000
0000
0000
,
0101
0000
1000
0001
1000
0000
0100
0000
1000
0001
0010
0M00
0010
0000
0000
0000
,
1000
0100
0001
0100
1000
1001
0000
0000
,
1100
0000
0001
1000
0001
0000
0100
0000
0001
1000
0010
0M00
0010
0000
0000
0000
,
0001
0000
0100
0000
1000
0000
0100
0000
0001
0000
0000
0000
0010
0100
1000
0001
,
0100
0000
1001
0000
0000
0000
1001
0000
0000
0001
0100
01M0
1000
0000
0010
0000
,
0000
0000
1001
0000
0100
0000
1001
0000
0000
1000
0100
01M0
0001
0000
0010
0000
,
0100
0000
1001
0000
0000
0000
1001
0000
0000
0001
0010
0M10
1000
0000
0100
0000
,
0000
0000
0010
0000
0001
1000
0001
0000
0100
0010
1000
0001
0010
0100
1000
0000
,
0010
0000
1001
0000
0000
0000
1001
0000
0000
1000
0010
0M10
0001
0000
0100
0000
,
0000
0000
1001
0000
0010
0000
1001
0000
0000
0001
0010
0M10
1000
0000
0100
0000
,
0010
0000
1001
0000
0000
0000
1001
0000
0000
1000
0100
01M0
0001
0000
0010
0000
,
0100
0000
0100
0000
0100
0000
1000
0100
1000
0001
0100
0001
0010
0000
0000
0000
,
0001
0001
0101
0000
1000
1000
1100
0000
,
0001
0010
1000
0010
0001
1000
1001
0000
,
0012
1000
1000
0203
0010
0302
0010
0000
,
2003
0000
0001
0000
0001
0000
3200
0000
0010
0000
2300
0000
3010
0100
0001
0000
,
1000
0100
00M0
0100
0000
0001
1000
0100
00M0
0100
0001
0000
0010
0000
0100
0000
,
1000
0000
0010
0M00
0010
0000
0001
0000
0010
0100
1000
0000
1001
0000
0000
0000
,
0220
0000
0000
0330
,
0001
0001
1000
1000
,
0010
0000
1001
0000
0010
0000
1001
0000
0001
1000
0100
01M0
0001
0000
0010
0000
,
0000
0000
1001
0000
0010
0000
1001
0000
1000
0001
0100
01M0
1000
0000
0010
0100
,
0001
0000
0110
0000
1000
0000
0110
0000
0001
0010
0M10
1000
0100
0000
0010
0000
,
0001
0000
1000
0100
1000
0001
0010
0000
0001
0100
0001
1000
0010
0100
0001
1000
,
0200
0310
0000
0000
;

//--------------- dance-single - FS SS XO- ----------------
#NOTES:
     dance-single:
     tikal.:
     Challenge:
     10:
     0,0,0,0,0:
0000
0000
0000
0000
,
0000
0000
0000
0000
,
0000
0000
0000
0000
,
0010
0000
1001
0000
0010
0000
1001
0000
0000
1000
0100
01M0
0001
0000
0010
0000
,
0000
0000
1001
0000
0010
0000
1001
0000
0000
0001
0100
01M0
1000
0000
0010
0100
,
0001
0000
0110
0000
1000
0000
0110
0000
0000
0010
0001
M001
0100
0000
0001
1000
,
0100
1000
0100
1000
0001
0100
0010
0000
1000
0000
0010
0100
0001
1000
0100
0010
,
0001
0000
1100
0000
0001
0000
1100
0000
0000
1000
0100
01M0
0002
0000
0000
0000
,
1003
0000
0101
0000
1000
0000
0101
0000
0000
0001
0100
01M0
2000
0000
3010
0100
,
0001
0010
0M00
0010
0000
1000
0001
0010
0M00
0010
0100
010M
1000
0000
0001
0000
,
0100
0000
0001
0010
0M00
0010
0100
0000
0001
0010
0100
M100
0001
1000
0100
0000
,
1000
0010
0M00
0010
0000
0100
1000
0010
0M00
0010
1000
100M
0100
0000
1000
0000
,
0001
0000
0001
0010
0001
1000
0100
1000
0001
0100
0010
1000
0010
0100
0001
1000
,
0200
0000
1300
0001
1000
0001
0200
0000
0301
1000
0020
0000
0000
0000
0100
0000
,
0230
0000
0301
1000
0001
1000
0200
0000
1300
0001
0020
0000
0100
0000
0030
0000
,
1001
0000
1000
0001
0010
0000
0000
0000
0001
0000
0001
1000
0010
0000
0000
0000
,
0100
0000
0000
0000
0000
0000
0100
0000
0000
0000
0000
0000
0100
0000
0000
0000
0000
0000
0001
0000
0100
0000
0010
0000
1000
0000
0000
0001
0000
0000
0010
0000
0000
0000
0000
0000
0000
0000
0000
0000
0000
0000
0000
0000
0000
0000
0000
0000
,
0110
0000
1000
0000
1100
0000
0001
0000
0101
0000
1000
0000
0001
0010
0100
0010
,
0001
0000
1000
0000
1010
0000
0010
0100
0001
0100
0010
0000
0110
0000
0100
0001
,
1000
0100
0001
0000
0100
1000
0001
0100
0020
0000
0001
0000
1030
0000
0100
0000
,
0100
0001
0000
0100
1000
0000
1010
0000
0011
0000
0101
0000
1100
0000
0000
0000
,
1001
0000
0001
0100
0001
0100
0010
0000
0100
0001
0010
0M00
0010
0000
0000
0000
,
1000
0100
1001
0001
0010
0110
0000
0000
,
1001
0000
1000
0100
1000
0100
0010
0000
0100
1000
0010
0M00
0010
0000
0000
0000
,
0001
0000
0100
0000
1001
0000
1000
0000
0010
0000
0000
0000
0100
0001
1000
0100
,
0010
0000
1001
0000
0100
0000
1001
0000
0001
1000
0100
01M0
0001
0000
0010
0000
,
0100
0000
1001
0000
0010
0000
1001
0000
1000
0001
0100
01M0
1000
0000
0010
0100
,
0001
0000
1100
0000
0001
0000
1010
0000
0010
0001
M001
0100
0010
0000
1000
0001
,
0010
0000
0100
1000
0010
0100
0001
0010
0001
0100
0010
1000
0100
0010
0001
1000
,
0010
0000
1001
0000
0100
0000
1001
0000
1000
0100
01M0
0001
0010
0000
0001
1000
,
0100
0000
1001
0000
0010
0000
1001
0000
0001
0100
01M0
1000
0010
0000
0100
0001
,
1000
0000
0101
0000
1000
0000
0011
0000
0010
1000
100M
0100
0010
0000
0001
1000
,
0010
0000
0010
0000
0010
0000
0100
0001
0010
0100
1000
0010
0100
0001
1000
0100
,
0010
0000
0100
0000
1000
0001
0100
0000
0110
0000
1000
0000
1000
0200
0000
0000
,
0301
0100
0010
0100
1000
0001
1000
0100
0010
0000
0001
0000
0001
0200
0000
0300
,
0110
0000
1000
0001
1000
0001
0020
0000
0031
1000
0200
0000
0000
0000
0010
0000
,
1300
0000
0001
1000
0001
1000
0020
0000
1030
0001
0200
0000
0310
1000
0100
0010
,
0001
0100
00M0
0100
0000
1000
0001
0100
00M0
0100
0020
0000
1000
0000
0002
0000
,
0033
0000
1000
0100
00M0
0100
0010
0000
1000
0100
0010
0001
0100
0000
0010
0000
,
2002
0000
0000
3003
,
0001
1000
0000
1000
0001
0010
0100
0000
1000
0010
0100
0001
1000
0100
0010
0001
,
0100
0000
1010
0000
0100
0000
0011
0000
1000
0100
01M0
0001
1000
0010
0100
0001
,
0010
0000
1100
0000
0010
0000
0101
0000
0001
0010
0M10
1000
0001
0100
0010
1000
,
0100
0000
0011
0000
0100
0000
1010
0000
0001
0100
01M0
1000
0010
0100
0001
1000
,
0100
0000
0010
0001
0100
0001
0010
0100
1000
0010
1000
0100
0010
0001
0100
0010
,
2000
3001
0000
0000
;
