
//----- song ID: gtof -----//
#TITLE:GET OFF;
#ARTIST:WIZZZARD;
#BANNER:gtof_th.png;
#BACKGROUND:gtof_bk.png;
#CDTITLE:./CDTITLES/DANCEMANIA BASS#0.PNG;
#MUSIC:gtof.ogg;
#SAMPLESTART:36.846;
#SAMPLELENGTH:15;
#DISPLAYBPM:137;
#BPMS:0=136.717,52=139.434,54=136.797,66=140.335,68=136.651,148=134.356,152=136.712;
#CREDIT:tikal.;

//--------------- dance-double - tikal. ----------------
#NOTES:
     dance-double:
     tikal.:
     Challenge:
     8:
     :
00000000
00000000
00000000
00000000
,
00000000
00000000
00000000
00000000
,
00000000
00000000
00000000
00000000
,
00000000
00000000
00000000
00000000
,
00000000
00000000
00000000
00000000
,
00101000
00000000
00000000
00010100
00000000
00000000
00101000
00000000
00000000
00000000
00100000
00000000
00001000
00000000
00010000
00000000
,
00010010
00000000
00000000
01001000
00000000
00000000
00010010
00000000
00000000
00000000
00001000
00000000
00000010
00000000
00010000
00000000
,
00010100
00000000
00000000
00101000
00000000
00000000
00010100
00000000
00000000
00000000
00000100
00000000
00010000
00000000
00001000
00000000
,
01001000
00000000
00000000
00010010
00000000
00000000
01001000
00000000
00000000
00000000
00010000
00000000
01000000
00000000
00001000
00000000
,
00100000
00001000
00000010
00001000
00100000
00001000
00000010
00000000
,
00000100
00010000
01000000
00010000
00000100
00010000
01000000
00000000
,
00011000
00000010
00011000
00100000
,
01000000
00000000
00000000
01000000
00000000
00000000
01000000
00000000
00010000
00000000
00001000
00000000
00000100
00000000
00000010
00000000
,
00000000
00001010
00000000
00010010
00000000
00001010
00000000
00010010
,
00010000
00100000
00010000
00001000
00010000
00100000
00010000
00001000
,
00000000
00101000
00000000
00110000
00000000
00101000
00000000
00110000
,
00100000
00001000
00010000
00000010
00000100
00000000
00000000
00000000
,
00000010
00000000
00000010
00000000
00000010
00000000
00000000
00000001
00000000
00000010
00000000
00001000
00000000
00000001
00001000
00000000
,
00000100
00000000
00000100
00000000
00000100
00000000
00000000
00000001
00000000
00000100
00000000
00001000
00000000
00000001
00001000
00000000
,
00000010
00000000
00000010
00000000
00000010
00000000
00000000
00001000
00000000
00000100
00000000
00010000
00000000
00001000
01000000
00000000
,
01001000
00000000
00010010
00000000
00101000
00010010
00001100
00000000
,
00001000
00000100
00010000
00001000
01000000
00100000
00010000
00100000
,
10000000
01000000
00010000
00001000
00010000
00100000
00010000
00001000
,
00000100
00000000
00000001
00000010
00000100
00001000
00011000
01100000
,
00000000
00000000
10000000
00000000
00010000
00010000
10000000
10000000
,
00010000
01000000
00001000
00010000
00000100
00000010
00001000
00000010
,
00000001
00000100
00001000
00010000
00001000
00000010
00001000
00010000
,
01000000
00000000
10000000
00100000
01000000
00010000
00011000
00000110
,
00000000
00000000
00000001
00000000
00001000
00001000
00000001
00000001
,
00000010
00001000
00010000
00001000
00000100
00000010
00001000
00000100
,
00010000
00001000
00100000
01000000
00010000
00001000
00010000
00100000
,
01000000
00000000
10000000
01000000
00010000
00100000
01100000
00011000
,
00000000
00000000
00010000
00000000
00001000
00001000
00010000
00010000
,
00100000
00010000
00001000
00010000
01000000
00100000
00010000
01000000
,
00001000
00010000
00000010
00000100
00001000
00010000
00001000
00000010
,
00000100
00000000
00000001
00000100
00001000
00000010
00000110
00011000
,
00000000
00000000
00001000
00000000
00010000
00010000
00001000
00001000
,
00011000
00000000
00000000
00000000
00010000
00000000
00000000
00000000
00001000
00000000
00000010
00000100
00000010
00000100
00000010
00000100
,
00000010
00000000
00000000
00000000
00001000
00000000
00000000
00000000
00010000
00000000
00100000
01000000
00100000
01000000
00100000
01000000
,
00100000
00010000
00001000
00010000
01000000
10000000
00100000
00000000
,
00010000
00001000
00000100
00000001
00000010
00001000
00010000
00000000
,
00001000
00000100
00001000
00010000
00001000
00000010
00000001
00000200
,
00000000
00000000
00000000
00000000
00000310
00000000
00000000
00000000
00001000
00000010
00000000
00000000
00000100
00000001
00000000
00000001
,
00000010
00001000
00010000
00001000
00000100
00000001
00000010
00000000
,
00001000
00010000
01000000
10000000
00100000
00010000
00001000
00000000
,
00010000
01000000
00010000
00001000
00010000
00100000
10000000
02000000
,
00000000
00000000
03100000
00000000
00010000
00000000
00101000
00010100
,
00000000
00000000
00010010
01001000
00000000
00000000
00110000
00001100
,
00000000
00000000
00001010
01010000
00000000
00000000
00100000
00021000
,
00000010
00000000
00030100
00011000
01000000
00000000
01002000
00010000
,
00003000
00010100
00001000
00000000
00011000
00000000
00000000
00000000
;
