#VERSION:0.83;
#TITLE:フリーフォール;
#ARTIST:Zekk;
#TITLETRANSLIT:Freefall;
#GENRE:J-core;
#CREDIT:tikal.+ as "wetchord";
#BANNER:Freefall.png;
#BACKGROUND:Freefall-bg.png;
#CDTITLE:cdtitle.png;
#MUSIC:Freefall.ogg;
#OFFSET:-0.014;
#SAMPLESTART:99.992;
#SAMPLELENGTH:18.667;
#BPMS:0=180;
#TIMESIGNATURES:0=4=4;
#TICKCOUNTS:0=4;
#COMBOS:0=1;
#SPEEDS:0=0.75=0=0,31.5=1=4.5=0,128=1.5=4=0,156=1.125=4=0,160=1.5=4=0,228=1.125=8=0,256=1.5=4=0,288=2.25=4=0,296=3.003=4=0;
#SCROLLS:0=1,124=2,124.5=0.667,125=1,125.5=2,126=0.667,126.5=1,127=2,127.5=0.667,284=0.333,383.5=0.167;
#FAKES:;
#LABELS:0=Song Start;
#BGCHANGES:;
#KEYSOUNDS:;
#ATTACKS:
;

//---------------dance-single - ----------------
#NOTEDATA:;
#CHARTNAME:;
#STEPSTYPE:dance-single;
#DESCRIPTION:tikal.+ as "wetchord";
#CHARTSTYLE:;
#DIFFICULTY:Easy;
#METER:7;
#RADARVALUES:0.430583,0.545653,0.207868,0.475126,0.018560,406000,378000,28000,64000,0000,0000,0000,0000,0000,0.430583,0.545653,0.207868,0.475126,0.018560,406000,378000,28000,64000,0000,0000,0000,0000,0000;
#CREDIT:tikal.+ as "wetchord";
#NOTES:
// measure 0
0000
0000
0000
0000
,  // measure 1
0000
0000
0000
0000
,  // measure 2
0000
0000
0000
0000
,  // measure 3
0000
0000
0000
0000
,  // measure 4
0000
0000
0000
0000
,  // measure 5
0001
0000
0000
0000
0001
1000
0000
0000
,  // measure 6
1000
0000
0010
0100
,  // measure 7
0001
0000
0000
0000
0010
0000
0000
2002
,  // measure 8
0000
0000
0000
3003
,  // measure 9
1000
0000
0000
0100
0000
0000
0100
0000
,  // measure 10
0001
0001
0100
0100
,  // measure 11
1000
0000
0001
0000
0100
0000
0000
0020
,  // measure 12
0000
0030
1001
0000
,  // measure 13
0001
0000
0000
0100
0000
0000
0100
0000
,  // measure 14
1000
1000
0100
0100
,  // measure 15
0010
1000
0001
0000
0010
0000
0200
0020
,  // measure 16
0000
0000
0330
0000
,  // measure 17
0001
0001
0001
0001
,  // measure 18
1000
1000
1000
1000
,  // measure 19
0010
0010
0010
0010
,  // measure 20
0100
0100
0200
0300
,  // measure 21
0001
0010
1000
0010
,  // measure 22
0001
0100
1000
0100
,  // measure 23
0010
1000
0001
0000
0010
0001
1000
0000
,  // measure 24
0100
0010
0100
0010
0100
0000
1001
0000
,  // measure 25
0201
0000
0301
0000
1000
0010
0000
0201
,  // measure 26
0000
0301
0000
1000
0010
1000
0100
0000
,  // measure 27
1200
0000
1300
0000
0001
0010
0000
1200
,  // measure 28
0000
1300
0000
0001
0010
0001
0100
0000
,  // measure 29
0020
0000
1030
0001
1000
0000
0100
0010
,  // measure 30
0000
0010
0000
0100
1000
0001
0100
0000
,  // measure 31
0110
0000
0000
1001
0000
0000
0220
0000
,  // measure 32
0000
0000
0330
0000
,  // measure 33
2000
0000
0000
3002
0000
0013
0100
2000
,  // measure 34
0000
3020
0000
0230
0000
0320
0000
1030
,  // measure 35
0002
0000
0000
1003
0200
0000
0000
0020
,  // measure 36
0000
0300
0000
0031
0100
0010
1000
0000
,  // measure 37
0200
0000
1300
0000
1000
0001
0100
0010
,  // measure 38
0000
0001
0000
0010
0100
0001
1000
0000
,  // measure 39
0200
0000
0001
1300
,  // measure 40
2002
0000
3003
0000
,  // measure 41
0110
0000
0110
0000
,  // measure 42
0110
0000
0000
1000
0001
0000
0001
0000
,  // measure 43
0020
1000
0230
0001
,  // measure 44
0320
0000
1000
0000
0130
1000
0001
0000
,  // measure 45
0110
0000
0110
0000
,  // measure 46
0110
0000
0000
0001
1000
0000
1000
0000
,  // measure 47
0020
0001
0230
1000
,  // measure 48
0302
0000
0000
0003
2001
0000
0000
3000
,  // measure 49
0110
0000
0000
1000
0100
0000
0000
0001
,  // measure 50
0100
0000
0000
1000
0100
0000
0010
0000
,  // measure 51
0001
0000
0001
0000
1000
0000
1000
0010
,  // measure 52
0100
0000
0010
0100
0001
1000
0100
0000
,  // measure 53
0110
0000
0000
0001
0100
0000
0000
1000
,  // measure 54
0100
0000
0000
0001
0100
0000
0010
0000
,  // measure 55
2000
0001
0001
3001
,  // measure 56
1000
0100
0001
0100
1000
0000
0010
0000
,  // measure 57
0110
0000
0000
0000
0000
0000
0001
2000
,  // measure 58
0000
3000
0000
0000
0000
0001
0100
0010
,  // measure 59
2000
0000
3000
0000
0000
0000
1000
0002
,  // measure 60
0000
0003
0000
0000
1000
0100
0010
0001
,  // measure 61
0200
0000
0300
0000
0000
0000
0010
0200
,  // measure 62
0000
0300
0000
0000
0001
0010
0100
0020
,  // measure 63
0000
0030
0000
0002
0000
2003
0000
3020
,  // measure 64
0200
0000
0030
0000
0301
1000
0001
0000
,  // measure 65
0020
0000
0031
2000
0000
3001
0200
0000
,  // measure 66
1000
1000
0001
0301
,  // measure 67
1000
0000
1000
0100
0001
0000
1000
0010
,  // measure 68
0001
0010
0100
0000
1000
0000
1000
0000
,  // measure 69
0020
0000
1030
0002
0000
1003
0200
0000
,  // measure 70
0301
0100
0001
0100
1000
0100
1000
0010
,  // measure 71
0200
0000
0000
0000
,  // measure 72
0010
0010
0310
0110
,  // measure 73
0002
0000
2003
0000
,  // measure 74
3001
1000
0001
1000
0010
0000
0110
0000
,  // measure 75
0001
0100
0010
0000
0010
0000
0100
0001
,  // measure 76
0010
0000
0100
0000
0001
0000
0100
1000
,  // measure 77
0010
0100
0001
0000
0010
0000
0100
1000
,  // measure 78
0010
1000
0100
0001
,  // measure 79
0100
0100
1000
0000
0010
0000
0100
0100
,  // measure 80
0001
0000
0010
0100
0100
0010
0001
0000
,  // measure 81
1000
0010
0100
0000
0100
0000
0010
1000
,  // measure 82
0100
0000
0010
0000
1000
0000
0010
0001
,  // measure 83
0100
0010
1000
0000
1000
0000
0010
0100
,  // measure 84
1000
0100
0001
0010
,  // measure 85
0100
0010
0001
0000
0001
0000
0100
0010
,  // measure 86
1000
0100
0010
0001
,  // measure 87
0100
0100
0010
0000
1000
0000
0100
0100
,  // measure 88
0020
0000
0000
0031
1000
0001
1001
0000
,  // measure 89
0000
0000
0000
0000
0101
0000
0000
0000
1000
0000
0000
0010
0000
0000
0200
0000
,  // measure 90
0000
0301
0100
0001
1000
0000
0100
0000
,  // measure 91
2200
0000
0000
0000
3300
0000
0000
0000
0001
0000
0000
0010
0000
0000
0200
0000
,  // measure 92
0000
0000
1300
0000
0100
0000
1000
0000
0001
0000
0000
0100
0000
0000
0000
0000
,  // measure 93
2020
0000
0000
0000
3030
0000
0000
0000
0001
0000
0000
0100
0000
0000
0020
0000
,  // measure 94
0000
1030
0010
1000
0001
0000
0010
0000
,  // measure 95
0022
0000
0000
0000
0033
0000
0000
0000
1000
0000
0000
0001
0000
0000
0200
0000
,  // measure 96
0000
0000
0000
0000
,  // measure 97
0000
0000
0000
0000
,  // measure 98
0300
0000
0000
0000
;

//---------------dance-single - ----------------
#NOTEDATA:;
#CHARTNAME:;
#STEPSTYPE:dance-single;
#DESCRIPTION:tikal.+ as "wetchord";
#CHARTSTYLE:;
#DIFFICULTY:Medium;
#METER:9;
#RADARVALUES:0.612998,0.836668,0.438007,0.504822,0.207868,578000,519000,59000,68000,0000,0000,1000,0000,0000,0.612998,0.836668,0.438007,0.504822,0.207868,578000,519000,59000,68000,0000,0000,1000,0000,0000;
#CREDIT:tikal.+ as "wetchord";
#NOTES:
// measure 0
0000
0000
0000
0000
,  // measure 1
0000
0000
0000
0000
,  // measure 2
0000
0000
0000
0000
,  // measure 3
0000
0000
0000
0000
,  // measure 4
0000
0000
0000
0000
,  // measure 5
0001
0000
0000
0100
0101
0000
0000
1000
,  // measure 6
0000
1000
0000
0100
1100
0000
0001
0000
,  // measure 7
0100
0000
0000
0100
0010
1000
0001
0020
,  // measure 8
0000
0000
0000
0000
0000
0100
0200
0000
,  // measure 9
0330
0000
1001
0000
1000
0001
0100
0000
,  // measure 10
0010
0010
2000
0000
0001
0000
3002
0000
,  // measure 11
0010
0000
0023
0000
1030
0010
0001
0200
,  // measure 12
0000
0000
0000
0310
1000
0001
0010
0000
,  // measure 13
0100
1000
0100
1000
0001
0100
0001
0100
,  // measure 14
0010
0001
0010
0001
0010
1000
0010
1000
,  // measure 15
0001
0000
0010
0000
0100
0000
1000
0000
0001
1000
0001
1000
0001
1000
0020
0000
,  // measure 16
0000
0000
0000
0000
0130
0001
1000
0000
,  // measure 17
0200
0010
0010
0010
,  // measure 18
2300
0000
0001
0000
0001
0000
3001
0100
,  // measure 19
0002
1000
1000
1000
,  // measure 20
0013
0000
0000
0000
0010
0000
0100
0000
0000
2000
0000
0000
0002
0000
0000
0000
0000
0000
3003
0000
0000
0000
0000
0000
,  // measure 21
1000
0010
0100
1000
0100
0010
1000
0001
,  // measure 22
0010
0100
0001
0100
0010
0001
1000
0010
,  // measure 23
0100
0000
0100
0000
0010
0000
0010
0000
1000
0001
1000
0000
0001
1000
0001
1000
,  // measure 24
0200
0000
0000
0001
0000
0000
0000
0000
0000
1300
0000
0000
0001
0000
1000
0000
0001
0000
0100
0000
0000
0000
0000
0000
,  // measure 25
1010
0000
2010
0000
3001
0100
0010
1010
,  // measure 26
0000
2010
0000
3001
0100
0010
1000
0001
,  // measure 27
0011
0000
0012
0000
1003
0100
0010
0011
,  // measure 28
0000
0012
0000
1003
0100
0010
0100
0000
,  // measure 29
2100
0000
3001
0100
1000
0100
0001
0102
,  // measure 30
0000
1000
0000
0013
0100
1000
0100
0010
,  // measure 31
0012
0000
1003
2001
0000
3010
1020
0000
,  // measure 32
0000
0000
0000
0000
0130
0001
1000
0000
,  // measure 33
1200
0000
0310
0002
0000
0013
0100
2100
,  // measure 34
0000
0000
3020
0000
0000
0000
0032
0000
0000
0000
0023
0000
0000
0000
1030
0001
,  // measure 35
0200
0000
0000
0000
0300
0000
0001
1000
0020
0000
0000
1030
0000
0000
0102
0000
,  // measure 36
0000
0000
0013
2000
0000
3010
0001
0000
,  // measure 37
0012
0000
1003
0000
1001
0001
1000
1020
,  // measure 38
0000
0001
0000
2030
0000
3001
0010
0000
,  // measure 39
0210
0000
0000
1300
0001
1000
0010
0000
,  // measure 40
0400
0000
0000
0000
0310
1000
0001
0000
,  // measure 41
1001
0000
0000
0100
1001
0000
0000
0010
,  // measure 42
1001
0000
1000
0001
0110
0000
1000
0000
,  // measure 43
0001
0000
0000
0010
0100
0000
0000
0000
0001
0000
0000
0100
0010
0000
0000
0000
,  // measure 44
0001
0000
0000
0100
0010
0000
0000
0000
0001
0000
0010
0000
1000
0000
0001
0000
,  // measure 45
1001
0000
0000
0010
1001
0000
0000
0100
,  // measure 46
1001
0000
0001
1000
0110
0000
0001
0000
,  // measure 47
1000
0000
0000
0010
0100
0000
0000
0000
1000
0000
0000
0100
0010
0000
0000
0000
,  // measure 48
2000
0000
0000
3000
1002
0000
0000
0003
,  // measure 49
0110
0000
0000
0001
0110
0000
0000
1000
,  // measure 50
0110
0000
0100
0010
1001
0000
0001
0000
,  // measure 51
0100
0000
0000
1000
0100
0000
0000
0001
1000
0000
0000
0000
0100
0000
0010
0000
,  // measure 52
0000
1000
0010
0001
1000
0010
0100
0001
,  // measure 53
0110
0000
0000
1000
0110
0000
0000
0001
,  // measure 54
0110
0000
0010
0100
1001
0000
1000
0000
,  // measure 55
0002
0000
0000
0000
1000
0000
0000
0000
1000
0000
0000
0000
1003
0001
1000
0001
,  // measure 56
0100
1000
0100
0001
0010
0100
1000
0000
,  // measure 57
1001
0000
0000
0000
0000
0000
1000
0002
,  // measure 58
0000
0003
0000
0000
0000
1000
0100
0010
,  // measure 59
0002
0000
0003
0000
0000
0000
0001
2000
,  // measure 60
0000
3000
0000
0000
0001
0100
0010
1000
,  // measure 61
0200
0000
0300
0000
0000
0000
0010
0200
,  // measure 62
0000
0300
0000
0000
1000
0010
0001
0020
,  // measure 63
0000
0030
0000
2000
0000
3002
0000
0023
,  // measure 64
0200
0000
0000
0000
0030
0000
0000
0000
1300
0001
1000
0001
1000
0000
0000
0000
,  // measure 65
0002
0000
0000
0000
0103
0000
0020
0000
1000
0000
0030
1000
0200
0000
0000
0000
,  // measure 66
0001
0000
0000
0000
1300
0000
0000
0000
0001
0000
0000
0001
0010
0000
0100
0000
,  // measure 67
1000
0000
0000
1000
0010
0000
0100
0000
0001
0000
0000
0001
0010
0000
1000
0000
,  // measure 68
0010
0000
0001
0000
0100
0000
0000
0000
0010
0000
0000
0010
1000
0000
0001
0000
,  // measure 69
0010
0010
0100
0100
1000
1000
0001
0001
,  // measure 70
0100
0001
0100
0000
0001
1000
0001
0000
1000
0100
1000
0100
0010
0001
0010
0001
,  // measure 71
0200
0000
0000
0000
,  // measure 72
0010
0010
0310
0110
,  // measure 73
0002
0000
2003
0000
,  // measure 74
3001
0010
0001
0000
1000
0010
1000
0000
0100
0000
0000
0000
0110
0000
0000
0000
,  // measure 75
0010
0001
0010
0000
0100
0000
0000
0000
1100
0000
0000
0000
1000
0000
0010
0000
,  // measure 76
0001
0000
0000
0000
0010
0000
0000
0000
0100
0001
1000
0000
0100
0000
0010
0000
,  // measure 77
0100
0001
0100
0000
1100
0000
0001
0100
,  // measure 78
0010
1001
0101
1100
,  // measure 79
1000
0010
1000
0000
0100
0000
0010
0001
0010
0000
0100
0000
1000
0010
1000
0000
,  // measure 80
0100
0000
0010
0000
0001
0000
0100
0010
0100
0000
0001
0000
1000
0000
0000
0000
,  // measure 81
0100
1000
0100
0000
0010
0000
0000
0000
0011
0000
0000
0000
0001
0000
0100
0000
,  // measure 82
1000
0000
0000
0000
0100
0000
0000
0000
0010
1000
0100
0000
0010
0000
0001
0000
,  // measure 83
0100
0001
0100
0000
0010
0000
0000
0000
1010
0000
0000
0000
1000
0000
0100
0000
,  // measure 84
0001
0000
0100
0000
1000
0000
0000
0000
0010
0000
0000
0000
0100
0000
0000
0010
,  // measure 85
1000
0001
1000
0000
0100
0000
0000
0000
0100
0000
0000
0000
0010
0000
0001
0000
,  // measure 86
1000
1000
0010
0010
0100
0100
0001
0001
,  // measure 87
1000
0100
1000
0000
0010
0000
0100
0001
0100
0000
0010
0000
1000
0100
1000
0000
,  // measure 88
0020
0000
0000
0130
0001
1000
2002
0000
,  // measure 89
3003
0000
0000
0000
0011
0000
0000
0000
1002
0000
0000
1000
0000
0000
0203
0000
,  // measure 90
0000
0010
0310
1000
0001
1000
0100
0000
,  // measure 91
1200
0000
0000
0000
1300
0000
0000
0000
2001
0000
0000
0001
0000
0000
3020
0000
,  // measure 92
0000
0000
0100
0000
0130
0000
0001
1000
0001
0000
0000
0010
0000
0000
0001
0000
,  // measure 93
0201
0000
0000
0000
0301
0000
0000
0000
1002
0000
0000
1000
0000
0000
0023
0000
,  // measure 94
0000
0100
0130
1000
0001
1000
0010
0000
,  // measure 95
1020
0000
0000
0000
1030
0000
0000
0000
1001
0000
0000
0001
0010
0000
0200
0000
,  // measure 96
0000
0000
0000
0000
,  // measure 97
0000
0000
0000
0000
,  // measure 98
0300
0000
0000
0000
;

//---------------dance-single - ----------------
#NOTEDATA:;
#CHARTNAME:;
#STEPSTYPE:dance-single;
#DESCRIPTION:tikal.+ as "wetchord";
#CHARTSTYLE:;
#DIFFICULTY:Hard;
#METER:11;
#RADARVALUES:0.789049,1.054929,0.400888,0.616180,0.642163,744000,690000,54000,83000,117000,0000,2000,0000,0000,0.789049,1.054929,0.400888,0.616180,0.642163,744000,690000,54000,83000,117000,0000,2000,0000,0000;
#CREDIT:tikal.+ as "wetchord";
#NOTES:
// measure 0
0000
0000
0000
0000
,  // measure 1
0000
0000
0000
0000
,  // measure 2
0000
0000
0000
0000
,  // measure 3
0000
0000
0000
0000
,  // measure 4
0000
0000
0000
0000
,  // measure 5
0002
0000
0003
0000
0001
0200
0000
0300
,  // measure 6
2000
0000
3000
0000
0100
0001
0010
1000
,  // measure 7
0020
0000
0000
0000
0030
0000
0001
0000
1000
0001
0100
0010
1000
0001
0020
0000
,  // measure 8
0000
0000
0000
0000
0000
0100
0130
0000
,  // measure 9
2000
0000
3010
0200
1000
0000
0301
0000
,  // measure 10
2000
3100
0020
0130
,  // measure 11
0002
0000
0203
0000
1300
0001
0100
0120
,  // measure 12
0000
0000
0000
1030
1001
0001
0010
0000
,  // measure 13
0002
0100
0100
0203
1000
1000
1300
0100
,  // measure 14
0002
0010
0023
0100
0230
1000
2300
0001
,  // measure 15
3001
0100
0001
0100
0001
1000
0001
1000
0100
1000
0100
1000
0001
1000
0020
0000
,  // measure 16
0000
0000
0000
0000
0000
0000
0000
0000
0130
0000
0001
1000
0001
0000
0010
0000
,  // measure 17
0110
0000
0000
0000
0100
0000
0010
0000
0100
0010
0000
0000
0100
0000
1000
0000
,  // measure 18
0001
0000
0000
1000
0001
0000
1000
0000
0001
1000
0000
0000
0001
0000
0100
0010
,  // measure 19
1000
0000
0000
0001
1000
0000
0001
0000
1000
0001
0000
0000
1000
0000
0100
0000
,  // measure 20
0040
0000
0000
0000
0000
0000
0000
0000
0130
0000
0000
0000
1000
0000
0000
0000
0000
0000
0001
0000
0000
0100
0000
0000
0010
0000
0000
0000
0000
0000
0010
0000
0000
0000
0000
0000
0110
0000
0000
0000
0000
0000
0000
0000
0000
0000
0000
0000
,  // measure 21
1000
0000
0001
0010
0001
0000
1000
0000
0001
0100
0001
0000
1000
0000
0100
0000
,  // measure 22
0010
0001
0010
0000
0100
0000
1000
0000
0010
1000
0010
0000
0100
0000
0001
0000
,  // measure 23
1000
0100
1000
0001
0100
0001
1000
0010
1000
0001
0010
0100
1000
0001
0100
0010
,  // measure 24
2000
0000
0000
3020
0000
0000
0032
0000
0000
0023
0000
0000
0130
0000
0001
0000
1000
0000
1001
0000
0000
0000
0000
0000
,  // measure 25
22MM
00MM
33MM
0000
1100
0000
1000
0000
0010
0000
0100
0001
0010
0000
22MM
00MM
,  // measure 26
33MM
0000
0100
1000
0100
0010
0002
0000
1000
0000
0103
0000
2010
0000
3001
0000
,  // measure 27
M2M2
M0M0
M3M3
0000
0101
0000
0001
0000
0010
0000
0100
1000
0010
0000
M2M2
M0M0
,  // measure 28
M3M3
0101
1000
2010
0001
3100
0110
0000
,  // measure 29
MM12
MM00
MM00
0000
1003
0000
0010
0000
1000
0100
0010
0001
0100
0010
2M0M
0M0M
,  // measure 30
0M0M
0000
3001
1000
0001
1000
0200
0000
0001
0000
0310
0000
0001
0000
1000
0000
,  // measure 31
1M2M
0000
0130
2MM1
0000
3100
MM12
0000
,  // measure 32
0000
0000
0000
0000
1003
0001
0100
0010
,  // measure 33
2M2M
0M0M
3M3M
0000
1010
0000
0001
0000
0100
0000
1000
0100
0010
0000
2M2M
0M0M
,  // measure 34
3M0M
0000
0032
0000
0000
0000
0023
0000
0000
0000
2030
0000
0001
0000
3100
0010
,  // measure 35
MM02
MM00
MM00
0000
0103
0000
0100
0010
1000
0000
0001
1000
0001
0000
MM22
MM00
,  // measure 36
MM33
0000
0010
0000
0001
0000
0100
0000
0010
1000
0001
1000
0100
0000
0000
0000
,  // measure 37
21MM
00MM
00MM
0000
3002
0000
0000
0000
0103
0000
0001
0010
0001
0000
M2M0
M0M0
,  // measure 38
M0M0
0000
0301
1000
0001
1000
0200
0000
0000
0000
0310
0000
0001
0000
0000
0000
,  // measure 39
2MM1
0000
0000
0000
0000
0000
3100
0000
0001
0000
0100
0000
1000
0000
0001
0100
,  // measure 40
0040
0000
0000
0000
0130
0001
1000
0000
,  // measure 41
1MM1
0000
0000
0100
1MM1
0000
0000
0010
,  // measure 42
1MM1
1000
0100
0010
M11M
0001
1000
0000
,  // measure 43
0100
0000
0000
0010
1000
0010
0000
0000
0100
0000
0000
1000
0010
1000
0000
0000
,  // measure 44
0100
0000
0000
0010
1000
0010
0000
0000
0001
0000
0010
0100
1000
0010
0100
0001
,  // measure 45
1MM1
0000
0000
0010
1MM1
0000
0000
0100
,  // measure 46
1MM1
0001
0010
0100
M11M
1000
0001
0000
,  // measure 47
0010
0000
0000
0100
0001
0100
0000
0000
0010
0000
0000
0001
0100
0001
0000
0000
,  // measure 48
2000
0000
0000
3000
1002
0000
0000
0003
,  // measure 49
M11M
0000
0000
0000
0000
0000
0001
0000
MM10
0001
1000
0100
0000
0000
1000
0000
,  // measure 50
0M1M
1000
0001
0100
0000
0000
0001
0000
1MM1
0000
1000
0000
0100
0000
0000
0000
,  // measure 51
0010
0000
0000
1000
0010
0000
0000
0001
1000
0000
0010
0000
0100
0000
0001
0000
,  // measure 52
0010
0100
0010
0000
0001
0000
1000
0000
0020
0000
0130
0001
1000
0001
0010
0100
,  // measure 53
M11M
0000
0000
1000
M11M
0000
0000
0001
,  // measure 54
M11M
1000
0001
0100
1MM1
0001
1000
0000
,  // measure 55
0001
0010
0001
0010
0001
1000
0001
1000
0010
1000
0010
1000
0001
0100
0010
1000
,  // measure 56
0001
0000
0010
0000
1000
0000
0020
0000
0130
1000
0001
1000
0010
0100
0001
1000
,  // measure 57
0100
0000
0000
0000
0000
0000
1000
0002
,  // measure 58
0000
0003
0000
0000
0000
1000
0100
0010
,  // measure 59
0002
0000
0003
0000
0000
0000
0001
2000
,  // measure 60
0000
3000
0000
0000
0001
0100
0010
1000
,  // measure 61
0100
0000
0000
0000
0100
0000
0000
0000
1000
0000
0000
1000
0000
0000
0100
0000
,  // measure 62
0000
0100
0100
0000
1000
0010
0001
0010
,  // measure 63
0100
0000
0000
0000
0100
0000
0000
0000
0001
0000
0000
0001
0000
0000
0100
0000
,  // measure 64
0020
0000
0000
0000
0000
0000
0000
0000
1030
0001
1000
0001
1000
0000
0000
0000
,  // measure 65
0200
0000
0000
0000
0310
0000
0002
0000
1000
0000
0003
1000
0020
0000
0100
0030
,  // measure 66
0010
0000
1000
0000
0001
0000
0000
0000
0010
0000
0100
0010
0100
0000
1000
0000
,  // measure 67
0010
0000
0000
0010
0100
0000
0001
0000
0010
0000
0000
0100
1000
0000
0001
0100
,  // measure 68
0010
0000
0010
1000
0100
0000
0000
0000
0010
0000
0000
0001
0010
0000
0100
0000
,  // measure 69
0001
0100
1000
0010
0001
0010
1000
0001
,  // measure 70
0010
0100
0010
0001
1000
0010
0100
0001
1000
0010
1000
0001
0100
0010
1000
0001
,  // measure 71
0020
0000
0000
0000
,  // measure 72
0100
0100
0130
0110
,  // measure 73
2000
0000
3002
0000
,  // measure 74
1003
0010
0100
0001
1000
0100
1000
0001
0100
0000
0000
0000
0110
0000
0000
0000
,  // measure 75
0010
1000
0010
0100
0001
0000
1000
0000
0001
0000
0010
0100
1000
0000
0010
0000
,  // measure 76
0100
0000
0001
0000
1000
0000
0010
0000
0100
1000
0100
0010
1000
0000
0001
0000
,  // measure 77
0010
0000
0100
0000
1000
0000
0010
0000
0001
0000
0010
0100
0001
0000
0100
0000
,  // measure 78
2000
3100
0020
0130
0002
1003
0200
0000
,  // measure 79
0310
0001
0010
0100
1000
0000
0001
0100
0010
0000
0001
0000
0010
1000
0100
0010
,  // measure 80
0001
0000
1000
0000
0001
0100
0010
1000
0001
1000
0100
0010
0001
1000
0001
0100
,  // measure 81
0010
1000
0010
0100
0001
0000
1000
0000
0001
0000
0010
0100
1000
0000
0100
0000
,  // measure 82
0010
0000
0100
0000
0001
0000
0100
0000
1000
0001
0100
0010
1000
0000
0001
0000
,  // measure 83
0010
0001
0010
0100
1000
0000
0001
0000
1000
0000
0010
0100
0001
0000
0010
0000
,  // measure 84
0200
0000
1300
0000
0002
0000
1003
0000
0020
0000
0031
0000
2000
0000
3001
0010
,  // measure 85
0200
0000
0010
0000
0010
0000
0301
1000
,  // measure 86
0100
1000
0100
1000
0001
0100
0001
0100
0010
1000
0001
0010
0100
0000
0000
0000
,  // measure 87
0010
1000
0010
0100
1000
0000
0001
0010
0100
0000
1000
0000
0010
0001
0010
0100
,  // measure 88
0002
0000
0000
0000
0000
0000
1003
0001
1000
0001
1000
0001
0100
0010
1000
0001
,  // measure 89
0000
0000
0000
0000
0011
0000
0000
0000
0110
0000
0000
1000
0000
0000
2100
0000
,  // measure 90
0000
0000
0001
0000
3001
0000
0001
0100
0010
0000
0001
0000
1000
0000
0100
0000
,  // measure 91
0110
0000
0000
0000
1000
0000
0000
0000
1010
0000
0000
0001
0000
0000
0102
0000
,  // measure 92
0000
0000
1000
0000
1003
0000
1000
0100
0010
0000
0000
0001
0000
0000
1000
0000
,  // measure 93
1001
0000
0000
0000
0101
0000
0000
0000
0110
0000
0000
1000
0000
0000
2010
0000
,  // measure 94
0000
0000
0001
0000
3001
0000
0001
0010
0100
0000
0001
0000
1000
0000
0010
0000
,  // measure 95
0110
0000
0000
0000
1000
0000
0000
0000
1100
0000
0100
1000
0010
0100
0002
0000
,  // measure 96
0000
0000
0000
00M0
M000
0M00
00M0
M000
,  // measure 97
0000
0000
0000
0000
,  // measure 98
0003
0000
0000
0000
;
