#VERSION:0.83;
#TITLE:ELIMINATOR;
#ARTIST:Cosmograph;
#GENRE:Dystopia;
#CREDIT:tikal.+ as "yellownews";
#BANNER:ELIMINATOR.png;
#BACKGROUND:ELIMINATOR-bg.png;
#CDTITLE:cdtitle.png;
#MUSIC:ELIMINATOR.ogg;
#SAMPLESTART:102.571;
#SAMPLELENGTH:18.286;
#SELECTABLE:YES;
#BPMS:0=210,264=105,279=210;
#STOPS:279=0.286;
#TIMESIGNATURES:0=4=4;
#TICKCOUNTS:0=4;
#COMBOS:0=1;
#SPEEDS:0=1=0=0;
#SCROLLS:0=1;
#LABELS:0=Song Start;

//---------------dance-single - ----------------
#NOTEDATA:;
#CHARTNAME:;
#CHARTHASH:2057934137;
#STEPSTYPE:dance-single;
#BANNER:;
#DESCRIPTION:tikal.+ as "yellownews";
#CHARTSTYLE:;
#DIFFICULTY:Easy;
#METER:6;
#METERF:0.000000;
#LASTSECONDHINT:141.571716;
#RADARVALUES:0.327888,0.524458,0.154809,0.181733,0.003365,341.000000,318.000000,23.000000,27.000000,0.000000,0.000000,0.000000,0.000000,0.000000,0.327888,0.524458,0.154809,0.181733,0.003365,341.000000,318.000000,23.000000,27.000000,0.000000,0.000000,0.000000,0.000000,0.000000;
#CREDIT:tikal.+ as "yellownews";
#NOTES:
0000
0000
0000
0000
,
0000
0000
0000
0000
,
0000
0000
0000
0000
,
0000
0000
0000
0000
,
0000
0000
0000
0000
,
0000
0000
0000
0000
,
0000
0000
0000
0000
,
0000
0000
0000
0000
,
0000
0000
0000
0000
,
0000
0000
0000
0000
,
1000
0000
0000
1000
0000
0000
1000
0000
,
0001
0000
0000
0001
0000
0000
0001
0000
,
0010
0000
0000
0010
0000
0000
0010
0000
,
0100
0100
0100
0010
,
0001
0001
1000
1000
,
0010
0100
0001
1000
,
0200
0000
0000
0000
,
0000
0000
0000
0000
0310
0000
0000
1001
,
0000
0000
0000
0000
0100
0000
0000
1001
,
0000
0001
0000
0000
1000
0000
0000
0110
,
0000
0000
0000
0000
1000
0000
0000
0001
,
0000
0000
0010
0000
0100
0000
0000
0110
,
0000
0000
0000
0000
0001
0000
0000
1001
,
0000
1000
0000
0000
0010
0000
0000
0202
,
0000
0300
0000
2000
0000
0003
0000
0200
,
0000
3300
1000
0001
,
0100
0000
0000
0000
0010
0000
0000
1001
,
0000
1000
0000
0000
0001
0000
0000
0110
,
0000
0000
0000
0000
0001
0000
0000
1000
,
0000
0000
0100
0000
0010
0000
0000
0110
,
0000
0000
0000
0000
1000
0000
0000
1001
,
0000
0001
0000
0000
0100
0000
0000
1010
,
0000
0000
0000
0000
1001
0000
0000
0011
,
0000
0110
0200
0000
,
1300
0000
0000
0000
1001
0000
0000
1010
,
0000
0110
0200
0000
,
0301
1000
0001
1000
,
0001
1000
0001
0010
,
0200
0000
0001
0000
,
0010
0000
1300
0001
,
0200
0000
1000
0000
,
0010
0000
0000
0000
0301
0000
0000
1000
,
0000
0000
0000
0000
0010
0000
0000
0010
,
0000
0000
0010
0000
0000
1000
0000
0001
,
0000
0000
0000
0000
0010
0000
0000
0010
,
0000
0010
0001
1000
,
0020
0000
0001
0000
,
0100
0000
1030
0001
,
0020
0000
1000
0000
,
0100
0000
0000
0000
0031
0000
0000
1000
,
0000
0010
0000
0000
0100
0000
0000
0100
,
0000
0000
0100
0000
0000
0001
0000
1000
,
0000
0000
0000
0000
0100
0000
0000
0100
,
0000
0100
2000
0000
,
3002
0000
0010
0000
,
1000
0000
0103
0010
,
2000
0000
0010
0000
,
0001
0000
0000
0000
3100
0000
0000
0010
,
0000
0000
2002
0000
,
0000
0000
3003
0000
0001
1000
0001
1000
,
0000
0000
0000
0000
0010
0000
0000
0010
,
0000
0010
1000
0001
,
0010
0000
0000
0200
0000
0000
0000
0000
,
0300
0000
0000
1000
,
0010
0000
0000
0200
0000
0000
0000
0002
,
0000
0000
0303
0000
,
2000
0000
0000
0000
,
0000
0000
0000
0000
,
3000
0000
0000
0000
,
0000
0000
0000
0000
0000
0000
0000
0000
0000
0000
0000
0000
2002
3003
0000
0000
,
0001
0010
0010
0000
,
2100
0000
0001
3001
,
1000
0010
0001
0010
,
0100
0000
0101
0000
,
1000
0010
0010
0000
,
0102
0000
1000
1003
,
0001
0010
1000
0010
,
0100
0000
2000
0000
,
3001
0010
0001
0010
,
0001
1000
0001
1000
,
0010
1000
0010
1000
,
0010
0100
0010
0100
,
0001
0100
0001
0000
0010
0000
0100
0000
,
1000
0100
1000
0000
0010
0000
0100
0000
,
0001
0000
1000
0000
,
0100
0000
0110
0000
,
0001
0100
0001
0010
,
0001
0100
0010
1000
,
0001
0010
0001
0100
,
0001
0000
0010
0000
0100
1000
0000
0001
,
0000
0000
0000
0000
0100
0000
0000
0100
,
0000
0100
0001
1000
,
0100
0001
0100
1000
,
0100
0001
0100
0000
,
1000
0100
1000
0010
,
1000
0100
0010
0001
,
1000
0010
1000
0100
,
1000
0000
0010
0000
0100
0001
0000
1000
,
0000
0100
0000
0000
0010
0000
0000
0010
,
0000
0010
0001
1000
,
0010
0001
0010
1000
,
0010
0001
0010
0000
,
0100
0000
0000
0001
0000
0000
0010
0000
,
0100
0001
0100
0010
,
0100
0000
0000
1000
0000
0000
0010
0000
,
0100
1000
0100
0010
,
1000
0000
0000
0001
0000
0000
0010
0000
,
0100
0001
0100
1000
,
0010
0001
0010
1000
,
0001
0010
0100
1000
,
0010
0000
0000
1000
0000
0000
0100
0000
,
0010
1000
0010
0100
,
0010
0000
0000
0001
0000
0000
0100
0000
,
0010
0001
0010
0100
,
0002
0000
0000
0000
,
0000
0000
0000
0000
,
1003
0100
1000
0000
0100
0010
0100
0000
,
0010
0001
0010
0000
0001
0100
0001
0000
,
2000
0000
0000
0000
,
0000
0000
0000
0000
3100
0010
0100
0010
;

//---------------dance-single - ----------------
#NOTEDATA:;
#CHARTNAME:;
#CHARTHASH:3518265452;
#STEPSTYPE:dance-single;
#BANNER:;
#DESCRIPTION:tikal.+ as "yellownews";
#CHARTSTYLE:;
#DIFFICULTY:Medium;
#METER:8;
#METERF:0.000000;
#LASTSECONDHINT:141.571716;
#RADARVALUES:0.443273,0.685830,0.154809,0.410581,0.003365,461.000000,438.000000,23.000000,61.000000,0.000000,0.000000,0.000000,0.000000,0.000000,0.443273,0.685830,0.154809,0.410581,0.003365,461.000000,438.000000,23.000000,61.000000,0.000000,0.000000,0.000000,0.000000,0.000000;
#CREDIT:tikal.+ as "yellownews";
#NOTES:
0000
0000
0000
0000
,
0000
0000
0000
0000
,
0000
0000
0000
0000
,
0000
0000
0000
0000
,
0000
0000
0000
0000
,
0000
0000
0000
0000
,
0000
0000
0000
0000
,
0000
0000
0000
0000
,
0000
0000
0000
0000
,
0000
0000
0000
0000
,
1000
0000
0010
1000
0000
0100
1000
0000
,
0001
0000
0010
0001
0000
0100
0001
0000
,
1000
0000
0010
0100
0000
0010
0100
0000
,
0001
0000
0010
0000
0100
0000
1000
0001
,
1000
0100
0010
0001
,
1000
0010
1000
0000
0001
0100
0001
0000
,
0020
0000
0000
0000
,
0000
0000
0000
0130
1000
0001
0000
0201
,
0000
0000
0000
0310
1000
0100
0000
1100
,
0000
0100
0010
0001
0010
0100
0000
1200
,
0000
0000
0000
0310
0001
0100
0000
0001
,
0100
0000
0001
0100
0010
1000
0000
1020
,
0000
0000
0000
0130
0001
0010
0000
0011
,
0000
0010
0100
1000
0100
0010
0000
0001
,
0002
0000
0000
0103
0200
0000
0000
1300
,
2000
0000
3100
0001
1000
0000
1000
0000
,
0002
0000
0003
0000
0001
0010
0000
0011
,
0000
0010
0100
1000
0100
0010
0000
0021
,
0000
0000
0000
0130
1000
0010
0000
1000
,
0010
0000
1000
0010
0100
0001
0000
0201
,
0000
0000
0000
0310
1000
0100
0000
1100
,
0000
0100
0010
0001
0010
0100
0000
2100
,
0000
0000
0000
3010
1000
0000
0100
1000
,
0000
0010
1000
0000
0010
0100
0001
0000
,
0010
0000
0100
0000
0110
0000
0010
0001
,
0000
0100
0001
0000
2000
0000
0000
0000
,
3001
0010
1000
0010
,
0001
0100
1000
0100
,
0010
0000
0000
2000
0001
0000
0000
0000
,
0100
0000
0001
3100
,
0010
0000
0000
0002
1000
0000
0000
0000
,
0100
0000
0000
0000
1003
0100
0000
0020
,
0000
0000
0030
0000
0001
0000
0100
0001
,
0000
0010
0001
0100
0001
0010
0000
0110
,
0000
0000
0000
0100
1000
0000
0010
1000
,
0000
0100
0010
0001
1000
0000
0010
0000
,
0100
0000
0000
0002
1000
0000
0000
0000
,
0013
0100
0010
0001
0000
0010
0100
2000
,
0001
0000
0010
0000
,
0001
0000
0000
0000
3100
0010
0000
0002
,
0000
2000
3003
0000
0001
0000
0010
0001
,
0000
0100
0001
0000
0010
0001
1000
0010
,
0000
0000
0000
0010
1000
0000
0100
1000
,
0000
0010
0100
0000
0001
0000
1000
0000
,
0010
0000
0000
0200
0001
0000
0000
0000
,
0010
0000
0000
0000
0301
1000
0000
0200
,
0010
0000
1000
0000
,
0010
0000
0000
0000
1300
0001
0000
0200
,
0000
0300
0000
0000
2002
0000
0000
0000
,
0000
0000
3003
1000
0001
1000
0001
0200
,
0000
0000
0300
0000
0010
0000
1000
0010
,
0000
0001
0010
0100
0010
0000
1000
0000
,
0001
0000
0000
0020
0000
0000
0000
0000
,
0030
0000
0000
0100
,
1000
0000
0000
0020
0000
0000
0000
0200
,
0000
0000
0330
0000
,
0002
0000
0000
0000
,
0000
0000
0000
0000
,
0003
0000
0000
0000
,
0000
0000
0000
0000
0000
0000
0000
0000
0000
0000
0000
0000
2002
3003
0000
0000
,
2000
0000
0000
3020
0000
0000
0230
0000
,
1000
0000
0301
1000
,
0002
0000
0000
0023
0000
0000
0230
0000
,
0001
0000
1300
0000
,
0002
0000
0000
0203
0000
0000
0320
0000
,
0001
0000
1030
0001
,
2000
0000
0000
3200
0000
0000
0320
0000
,
1000
0000
0032
0000
,
1003
0010
1000
0100
,
0010
0001
0100
0001
,
1000
0010
1000
0000
0100
0010
0100
0000
,
0010
0001
0010
0000
0001
1000
0001
0000
,
0100
0001
0100
0001
0100
0001
0100
0001
,
1000
0100
1000
0100
1000
0100
1000
0100
,
0010
0001
0100
0010
,
1000
0000
1001
0000
,
0001
0000
0100
0020
0000
0000
1000
0000
,
0100
0001
0130
0001
,
1000
0000
0100
0020
0000
0000
0001
0000
,
0100
0000
1000
0000
0130
1000
0000
0002
,
0000
0000
0003
0000
1001
0000
0001
0010
,
0000
0100
0010
1000
0010
0100
0000
1000
,
0010
1010
0001
0011
,
0100
0101
1000
0001
,
1000
0000
0010
0200
0000
0000
1000
0000
,
0310
1000
0001
0010
0000
0001
1000
0200
,
0000
0001
0010
1000
,
0010
0000
0001
0000
0310
0001
0000
2000
,
0000
0020
3030
0000
1001
0000
0001
0010
,
0000
1000
0010
0000
0100
1000
0001
0000
,
0100
0101
1000
1100
,
0010
1010
0001
1000
,
0001
0000
1000
0010
0000
0010
0200
0000
,
1000
0010
0001
0310
,
1000
0000
0001
0010
0000
0010
0200
0000
,
0001
0010
1000
0310
,
0001
0000
0001
1000
0000
1000
0020
0000
,
0100
0001
0100
1030
,
0002
0010
1000
0103
,
2000
0010
3200
0001
,
1300
0000
0001
0100
0000
0100
0020
0000
,
0001
0100
1000
0130
,
0001
0000
1000
0100
0000
0100
0020
0000
,
1000
0100
0001
0130
,
2000
0000
0000
0000
,
0000
0000
0000
0000
,
3001
0010
0001
0010
0100
0010
0100
0010
,
0100
1000
0100
1000
0001
1000
0001
1000
,
0002
0000
0000
0000
,
0000
0000
0000
0000
0103
0001
0010
1000
;

//---------------dance-single - ----------------
#NOTEDATA:;
#CHARTNAME:;
#CHARTHASH:3354385596;
#STEPSTYPE:dance-single;
#BANNER:;
#DESCRIPTION:tikal.+ as "yellownews";
#CHARTSTYLE:;
#DIFFICULTY:Hard;
#METER:9;
#METERF:0.000000;
#LASTSECONDHINT:141.571716;
#RADARVALUES:0.518274,0.685830,0.127886,0.397119,0.003365,539.000000,520.000000,19.000000,59.000000,0.000000,0.000000,0.000000,0.000000,0.000000,0.518274,0.685830,0.127886,0.397119,0.003365,539.000000,520.000000,19.000000,59.000000,0.000000,0.000000,0.000000,0.000000,0.000000;
#CREDIT:tikal.+ as "yellownews";
#NOTES:
0000
0000
0000
0000
,
0000
0000
0000
0000
,
0000
0000
0000
0000
,
0000
0000
0000
0000
,
0000
0000
0000
0000
,
0000
0000
0000
0000
,
0000
0000
0000
0000
,
0000
0000
0000
0000
,
0000
0000
0000
0000
,
0000
0000
0000
0000
,
0001
0100
0100
0010
0100
0100
0001
0000
,
1000
0100
0100
0010
0100
0100
1000
0000
,
0001
0100
0100
1000
0100
0100
0001
0000
,
1000
0100
0010
0100
0001
0100
0010
0001
,
1000
0010
0100
0010
0001
0010
0100
0010
,
1000
0100
0010
0001
1000
0010
0100
0001
,
0020
0000
0000
0000
,
0000
0000
0000
1030
0010
0001
1000
1020
,
0000
0000
0000
0000
1030
0001
0010
0100
,
0000
0100
0010
0001
1000
0010
0000
0201
,
0000
0000
0000
0000
0301
1000
0000
0010
,
1000
0000
0100
1000
0010
0100
0001
0021
,
0000
0000
0000
0000
0031
1000
0010
0100
,
0000
0100
0010
1000
0001
0010
0000
0200
,
0001
0000
0000
2300
0001
0000
0000
3020
,
0001
0000
0130
0010
1000
0000
1000
0000
,
0002
0000
0003
0000
0001
1000
0100
0010
,
0000
0010
0100
1000
0001
0100
0000
1020
,
0000
0000
0000
0000
1030
0001
0000
0100
,
0001
0000
0010
0001
0100
0010
1000
1200
,
0000
0000
0000
0000
1300
0001
0100
0010
,
0000
0010
0100
0001
1000
0100
0000
0020
,
0000
0000
0031
0001
1000
0000
0100
0001
,
0000
0100
1000
0000
0001
0010
0100
1000
,
0010
0000
0100
0000
0001
0000
0100
1000
,
0000
0100
0001
0000
2000
0000
0000
0000
,
3100
1000
0100
1000
0001
0100
0001
0100
,
0010
1000
0010
1000
0001
0010
0100
0000
,
2000
0000
0000
0010
3020
0000
0000
0000
,
0001
0000
1000
0130
,
0002
0000
0000
0010
0023
0000
0000
0000
,
1000
0000
0000
0000
0031
0100
0000
0020
,
0000
0000
0030
0000
1000
0000
0010
0001
,
0000
0010
1000
0100
0010
0001
0000
0201
,
0000
0000
0000
0000
0301
0000
0010
1000
,
0000
0010
0001
0001
1000
0000
0010
0000
,
2000
0000
0000
0100
3200
0000
0000
0000
,
0301
0100
0010
0001
0000
1000
0010
0100
,
0200
0000
0001
0000
,
1000
0000
0000
0000
0301
0010
0000
0200
,
0000
2000
3300
0000
0001
0000
0010
1000
,
0000
0010
0001
0000
0010
1000
0000
0020
,
0100
0000
0031
0000
1000
0000
0010
0001
,
0000
0010
1000
0000
0001
0000
1000
0000
,
0200
0000
0000
0010
0320
0000
0000
0000
,
1000
0000
0000
0000
0031
1000
0000
0010
,
0200
0000
0001
0000
,
1000
0000
0000
0000
0301
0010
0000
0200
,
0000
0300
0000
0000
2002
0000
0000
0000
,
0000
0000
3003
1000
0100
0100
0100
0020
,
0000
0000
0030
0000
0001
0000
0100
1000
,
0000
0100
0001
0001
0010
0100
1000
0001
,
0100
0000
0000
0020
0000
0000
0000
0000
,
0030
0000
0000
1000
,
0100
0000
0000
0020
0000
0000
0000
0002
,
0000
0000
0033
0000
,
2000
0000
0000
0000
,
0000
0000
0000
0000
,
3000
0000
0000
0000
,
0000
0000
0000
0000
0000
0000
0000
0000
0000
0000
0000
0000
2002
3003
0000
0000
,
0001
0000
0100
0001
0001
0000
0010
0000
,
1100
0000
0000
0000
0001
0100
0001
0100
,
0001
0010
0110
0100
,
0010
0001
1001
0000
,
1000
0000
0100
1000
0010
0000
0010
0000
,
0101
0000
0000
0000
1000
0100
0010
0100
,
1000
0010
0110
0100
,
0010
1000
0002
0000
,
0013
0010
0100
0100
,
1000
1000
0001
0001
,
0100
0001
0100
0001
1000
0010
1000
0010
,
1000
0100
1000
0100
0010
0001
0010
0001
,
1000
0010
0100
0010
1000
0001
0010
0001
,
1000
0100
0010
0001
0100
0010
0100
0001
,
1000
0100
0010
0001
,
0100
0010
1001
0000
,
0001
0000
0011
0000
0000
0010
0001
0000
,
0010
0100
1000
0100
0010
0001
0001
0000
,
1000
0000
1010
0000
0000
0010
1000
0000
,
0010
0100
1000
0000
0100
0010
1000
0002
,
0000
0000
0003
0000
0001
0100
0100
1000
,
0100
0100
0001
0010
0001
0100
0010
2000
,
0000
0000
3001
0000
0010
1000
0001
0000
,
0100
1000
0001
0000
0100
0010
1000
0000
,
0001
0000
0101
0000
0000
0100
0001
0000
,
0100
0010
1000
0010
0100
0001
0010
0100
,
1000
0000
1100
0000
0000
0100
1000
0000
,
0100
0010
1000
0000
0010
0100
0000
2000
,
0000
0002
3003
0000
1000
0010
0010
0001
,
0010
0010
1000
0000
0100
0010
0001
1000
,
0001
0000
1000
0000
0010
0001
1000
0000
,
0100
0001
1000
0000
0100
0010
0001
1000
,
0020
0000
0130
0002
0000
0013
0200
0000
,
0310
0001
0100
0000
0010
1000
0001
0001
,
0020
0000
0130
2000
0000
3010
0200
0000
,
0310
1000
0100
0000
0010
0001
1000
1000
,
0002
0000
0103
0020
0000
0130
2000
0000
,
3001
0010
1000
0000
0100
0010
0001
0001
,
0100
0000
0110
0000
0000
0010
0100
0000
,
0010
1000
0001
0000
0010
0001
1000
1000
,
0020
0000
0130
0002
0000
0103
2000
0000
,
3100
0001
1000
0000
0100
1000
0001
0001
,
0020
0000
0130
2000
0000
3100
0002
0000
,
0103
1000
0001
0000
0100
0001
0001
0010
,
0200
0000
0000
0000
,
0000
0000
0000
0000
,
1300
0100
0010
0001
0100
0001
0010
0100
,
1000
0010
0100
0001
0010
0100
1000
0001
,
0200
0000
0000
0000
,
0000
0000
0000
0000
0010
0010
0010
0310
;

//---------------dance-single - ----------------
#NOTEDATA:;
#CHARTNAME:;
#CHARTHASH:4139667808;
#STEPSTYPE:dance-single;
#BANNER:;
#DESCRIPTION:tikal.+ as "yellownews";
#CHARTSTYLE:;
#DIFFICULTY:Challenge;
#METER:11;
#METERF:0.000000;
#LASTSECONDHINT:141.571716;
#RADARVALUES:0.679814,1.331317,0.424043,0.444235,0.232214,707.000000,644.000000,63.000000,66.000000,9.000000,0.000000,0.000000,0.000000,0.000000,0.679814,1.331317,0.424043,0.444235,0.232214,707.000000,644.000000,63.000000,66.000000,9.000000,0.000000,0.000000,0.000000,0.000000;
#CREDIT:tikal.+ as "yellownews";
#NOTES:
// measure 0
0000
0000
0000
0000
,  // measure 1
0000
0000
0000
0000
,  // measure 2
0000
0000
0000
0000
,  // measure 3
0000
0000
0000
0000
,  // measure 4
0000
0000
0000
0000
,  // measure 5
0000
0000
0000
0000
,  // measure 6
0000
0000
0000
0000
,  // measure 7
0000
0000
0000
0000
,  // measure 8
0000
0000
0000
0000
,  // measure 9
0000
0000
0000
0000
,  // measure 10
0001
0000
0100
00M0
0100
0000
1000
0000
0100
00M0
0100
0000
0001
0000
1000
0000
,  // measure 11
0001
0000
0010
0M00
0010
0000
1000
0000
0010
0M00
0010
0000
0001
0000
1000
0000
,  // measure 12
0001
0000
0100
00M0
0100
0000
1000
0000
0010
0M00
0010
0000
0001
0000
1000
0000
,  // measure 13
0010
0100
0010
0001
0010
0100
0001
0001
,  // measure 14
1000
0100
0010
0100
0001
0100
1000
0001
,  // measure 15
0100
0010
0001
1000
0100
0010
1000
0001
,  // measure 16
0020
0000
0000
0000
,  // measure 17
0000
0000
0000
1030
0001
0100
1000
1020
,  // measure 18
0000
0000
0000
0000
0031
0010
1000
1200
,  // measure 19
0000
0301
0100
0010
0100
1000
0000
0012
,  // measure 20
0000
0000
1000
0000
0103
1000
0000
0100
,  // measure 21
0001
0000
0100
1000
0001
0010
0100
0201
,  // measure 22
0000
0000
0000
0000
1300
0100
0001
0021
,  // measure 23
0000
1030
0010
0100
0010
0001
0000
2100
,  // measure 24
0001
0000
0000
3020
0100
0000
0000
0032
,  // measure 25
1000
0000
0013
0100
0101
0000
1000
0000
,  // measure 26
0100
0010
1000
0001
0100
0010
0001
0201
,  // measure 27
0000
1300
0100
0010
0100
0001
0000
2010
,  // measure 28
0000
0000
0001
0000
3100
0001
0000
0100
,  // measure 29
1000
0000
0100
0001
1000
0010
0100
1200
,  // measure 30
0000
0000
0000
0000
0301
0100
1000
1020
,  // measure 31
0000
0031
0010
0100
0010
1000
0000
0102
,  // measure 32
0000
0000
1003
0100
1100
0000
0001
0011
,  // measure 33
0000
1000
1010
0000
0010
0100
0001
1000
,  // measure 34
0200
0000
0000
0300
0110
0000
0001
0101
,  // measure 35
0000
1000
1100
0000
0020
0000
0000
0000
,  // measure 36
0031
0100
1000
0100
0001
0100
1000
0100
,  // measure 37
0010
1000
0010
1000
0001
0010
0001
0010
0100
1000
0001
0100
0010
0000
0000
0000
,  // measure 38
1010
0000
0010
2000
0100
0000
3010
1000
,  // measure 39
0100
0010
1000
0010
0100
1000
0001
0000
,  // measure 40
0101
0000
0100
0002
0010
0000
0103
0001
,  // measure 41
0010
0100
0001
0100
0010
0001
0000
2000
,  // measure 42
0010
0000
3000
0000
0101
0000
1000
0101
,  // measure 43
0000
1000
0001
0010
0100
1000
0000
0101
,  // measure 44
0000
0000
1000
0000
1100
0000
0001
1100
,  // measure 45
0000
0000
0001
0000
0100
00M0
0100
0000
1000
0000
0010
0000
0100
0000
0001
0000
,  // measure 46
1000
0000
0010
0200
1000
0000
0310
1000
,  // measure 47
0100
0010
1000
0001
0100
0010
0001
0020
,  // measure 48
0100
0000
0031
0010
0100
0001
0100
0010
,  // measure 49
0001
0100
0010
0001
0010
0100
0000
0002
,  // measure 50
0000
2000
3003
0000
0011
0000
1000
0011
,  // measure 51
0000
0100
0011
0000
1000
0011
0000
2002
,  // measure 52
0000
0000
3003
0000
1010
0000
0001
1010
,  // measure 53
0000
0100
1010
0000
0002
0000
2003
0000
,  // measure 54
3200
0000
1300
0002
0100
0000
1003
0001
,  // measure 55
0100
1000
0001
1000
0100
0002
0000
2003
,  // measure 56
0100
0000
3001
0100
0001
1000
0100
0001
,  // measure 57
1000
0001
0100
1000
0001
0100
0000
0020
,  // measure 58
0000
0130
0000
0000
2002
0000
0000
0000
,  // measure 59
0000
0000
0000
0000
3003
0000
1000
0001
0100
0000
0100
0000
0100
0000
0020
0000
,  // measure 60
0000
0000
1030
0000
1010
0001
0000
0011
,  // measure 61
1000
0000
1001
0001
0100
0010
1000
0100
,  // measure 62
0010
0000
0000
0002
0000
0000
0000
0000
,  // measure 63
0003
0000
0000
0100
,  // measure 64
0010
0000
0000
2000
0000
0000
0000
0002
,  // measure 65
0000
0000
3003
0000
,  // measure 66
0200
0000
0000
0000
,  // measure 67
0000
0000
0000
0000
,  // measure 68
0300
0000
0000
0000
,  // measure 69
0000
0000
0000
0000
0000
0000
0000
0000
0000
0000
0000
0000
2002
3003
0000
0000
,  // measure 70
0011
0000
0010
0001
0001
0000
0100
0000
,  // measure 71
1010
0000
0000
0000
1000
1000
0001
0001
,  // measure 72
1000
0000
0010
0100
0101
0000
0001
0000
,  // measure 73
0010
0000
1100
0000
,  // measure 74
1010
0000
0010
1000
1000
0000
0100
0000
,  // measure 75
0011
0000
0000
0000
0001
0100
1000
0100
,  // measure 76
0001
0000
0010
0100
1100
0000
1000
0000
,  // measure 77
0010
0000
0200
0000
,  // measure 78
0301
0100
1000
0100
,  // measure 79
0001
0010
1000
0010
,  // measure 80
0001
0100
0001
0010
0001
0100
0010
1000
,  // measure 81
0100
1000
0010
1000
0100
0010
0001
1000
,  // measure 82
0001
0100
0001
0100
0001
1000
0001
1000
0100
1000
0100
1000
0001
1000
0001
1000
,  // measure 83
0001
0010
0001
0010
0001
1000
0001
1000
0010
1000
0010
1000
0001
0010
0100
1000
,  // measure 84
0001
0100
0010
1000
,  // measure 85
0100
0000
0010
0000
1001
0001
0100
0010
,  // measure 86
1000
0000
0100
0020
1000
0000
0130
0010
,  // measure 87
1000
0001
0100
1000
0001
0100
0010
1000
,  // measure 88
0001
0000
0100
0020
0001
0000
0130
0010
,  // measure 89
0001
0000
1000
0000
0100
0000
0001
0000
1000
0000
0100
0010
0100
0000
2000
0000
,  // measure 90
0000
0000
3000
0000
1010
0000
0010
1000
,  // measure 91
0100
00M0
0100
0000
0001
0000
0010
0000
0001
0000
1000
0100
0010
0000
0100
0000
,  // measure 92
1000
0000
1001
0000
0000
0001
1001
0000
,  // measure 93
1000
0010
1000
0010
0100
0001
1000
0100
0010
0001
0010
0100
1000
0000
0000
0000
,  // measure 94
0001
0000
0010
0200
0001
0000
0310
0100
,  // measure 95
1000
0001
0010
0100
0001
1000
0010
0200
,  // measure 96
1000
0000
0310
0100
1000
0000
0001
0100
,  // measure 97
1000
0000
0100
0000
0010
0000
1000
0000
0001
0000
0010
0100
0010
0000
0002
0000
,  // measure 98
0000
2000
3003
0000
0101
0000
0100
0001
,  // measure 99
0010
0M00
0010
0000
1000
0000
0000
0000
0100
0000
1000
0001
1000
0000
0000
0000
,  // measure 100
0010
0000
0110
0000
0000
0100
0110
0000
,  // measure 101
0001
0010
0001
1000
0010
1000
0001
0100
0010
0000
0100
0000
0001
0000
1000
0000
,  // measure 102
0200
0000
1300
0002
0000
1003
1020
0000
,  // measure 103
0031
0000
0010
0000
0100
0000
0010
0000
1000
0000
0001
0100
0001
0000
0000
0000
,  // measure 104
0200
0000
0301
2000
0000
3001
0021
0000
,  // measure 105
1030
0000
0010
0000
0100
0000
0010
0000
0001
0000
1000
0100
1000
0000
0010
0000
,  // measure 106
2000
0000
3010
0002
0000
0013
0210
0000
,  // measure 107
1300
0000
0100
0000
0010
0000
0100
0000
0001
0000
1000
0100
1000
0000
0000
0000
,  // measure 108
0010
0000
1001
0000
0000
0100
1001
0000
,  // measure 109
0001
0000
0010
0000
0100
0000
0000
0000
1000
0000
0010
0100
0001
0000
0010
0000
,  // measure 110
0020
0000
0031
2000
0000
3001
0201
0000
,  // measure 111
1300
0000
0100
0000
0010
0000
0100
0000
0001
0000
1000
0010
1000
0000
0000
0000
,  // measure 112
0020
0000
1030
0002
0000
1003
1200
0000
,  // measure 113
0301
0000
0100
0000
0010
0000
0100
0000
1000
0000
0001
0100
0010
0000
1000
0000
,  // measure 114
0002
0000
0000
0000
,  // measure 115
0000
0000
0000
0000
,  // measure 116
1003
0010
1000
0001
0010
0100
1000
0001
0100
0010
0100
0001
1000
0100
0010
0001
,  // measure 117
1000
0010
0100
0010
1000
0001
0100
0010
1000
0001
0010
0100
1000
0100
0010
0001
,  // measure 118
2000
0000
0000
0000
,  // measure 119
0000
0000
0000
3000
1001
1001
1001
1001
;
