#VERSION:0.83;
#TITLE:ECLIPSE;
#SUBTITLE:;
#ARTIST:泉 陸奥彦;
#TITLETRANSLIT:;
#SUBTITLETRANSLIT:;
#ARTISTTRANSLIT:Mutsuhiko Izumi;
#GENRE:Digital rock;
#CREDIT:tikal.;
#MUSIC:ECLIPSE.ogg;
#BANNER:bn.png;
#BACKGROUND:bg.png;
#CDTITLE:cdtitle.png;
#SAMPLESTART:34.553;
#SAMPLELENGTH:14.545;
#SELECTABLE:YES;
#OFFSET:1.811;
#BPMS:0.000=132.000;
#STOPS:;
#BGCHANGES:;
#FGCHANGES:;

//--------------- dance-single - tikal. ----------------
#NOTEDATA:;
#STEPSTYPE:dance-single;
#DESCRIPTION:tikal.;
#DIFFICULTY:Hard;
#METER:9;
#RADARVALUES:0,0,0,0,0;
#NOTES:
0000
0000
0000
0000
,
0000
0000
0000
0000
,
1000
0000
0000
0100
0000
0000
0010
0000
0000
0100
0000
0100
1000
0000
0001
0000
,
0101
0000
0000
0101
1000
1000
0000
0000
,
0001
0000
0000
0100
0000
0000
0010
0000
0000
0100
0000
0100
0001
0000
1000
0000
,
1100
0000
0000
1100
0001
0001
0000
0000
,
1000
0000
1000
0010
0000
0010
0100
0000
0100
0010
0000
0010
1000
0000
0001
0000
,
0011
0000
0000
0011
1000
0011
1000
0000
,
0001
0000
0001
0010
0000
0010
0100
0000
0100
0010
0000
0010
0001
0000
1000
0000
,
1010
0000
0000
1010
0001
1010
1001
0000
,
0001
0000
0220
0000
0000
0000
0000
0330
,
1000
0000
0220
0000
0000
0000
0000
0330
,
0001
0100
0001
1000
0001
0100
0001
0000
0101
0000
0000
1010
0000
0000
0101
0000
,
0001
0010
0001
1000
0001
0010
0001
0000
0100
0000
0000
0000
0120
0000
0000
0000
,
1030
0010
1000
0001
1000
0010
1000
0000
1010
0000
0000
0101
0000
0000
1010
0000
,
1000
0100
1000
0001
1000
0100
1000
0000
0010
0000
0010
0000
0100
0000
0100
0000
,
0001
0010
0001
1000
0001
0010
0001
0000
0011
0000
0000
1100
0000
0000
0011
0000
,
0001
0100
0001
1000
0001
0100
0001
0000
0010
0000
0000
0000
0210
0000
0000
0000
,
1300
0100
1000
0001
1000
0100
1000
0000
1100
0000
0000
0011
0000
0000
1100
0000
,
1001
0000
0000
0000
1000
0001
1000
0001
0100
0000
0100
0000
0010
0000
0000
0000
,
1000
0000
1000
0100
0000
0100
0010
0000
0010
0100
0000
0100
1000
0000
0001
0000
,
0101
1100
1010
0011
,
0001
0000
0001
0100
0000
0100
0010
0000
0010
0100
0000
0100
0001
0000
1000
0000
,
1100
1001
0000
0000
0101
1001
0000
0000
,
0001
0000
0001
0010
0000
0010
0100
0000
0100
0010
0000
0010
0001
1000
0010
0000
,
1010
0011
0101
1100
,
1000
0000
1000
0010
0000
0010
0100
0000
0100
0010
0000
0010
1000
0001
0010
0000
,
0200
0000
0000
0000
,
1300
0010
1000
0001
1000
0100
1000
0001
1000
0010
0000
0100
0010
0000
0100
0001
,
1000
0100
1000
0001
1000
0010
1000
0001
0010
0000
0000
0000
0120
0000
0000
0000
,
0031
0010
0001
1000
0001
0100
0001
1000
0001
0010
0000
0100
0010
0000
0100
1000
,
0001
0100
0001
1000
0001
0010
0001
1000
0010
0000
0100
0000
0010
0000
0100
0000
,
0001
0100
0001
1000
0001
0010
0001
1000
0001
0100
0000
0010
0100
0000
0010
1000
,
0001
0010
0001
1000
0001
0100
0001
1000
0100
0000
0000
0000
0210
0000
0000
0000
,
1300
0100
1000
0001
1000
0010
1000
0001
1000
0100
0000
0010
0100
0000
0010
0001
,
1000
0000
0000
0000
0001
1000
0001
1000
0000
0000
1001
0000
0000
0000
0000
0000
,
1000
0000
0100
1000
0100
1000
0010
0000
0100
1000
0100
1000
0100
0000
0001
0000
,
0011
1010
1100
0101
,
0001
0000
0100
0001
0100
0001
0010
0000
0100
0001
0100
0001
0100
0000
1000
0000
,
0010
0000
0000
0000
0100
0000
0000
0000
0001
1000
0000
0001
1000
0000
0000
0000
,
0001
0000
0010
0001
0010
0001
0100
0000
0010
0001
0010
0001
0010
0000
1000
0000
,
1100
0101
0011
1010
,
1000
0000
0010
1000
0010
1000
0100
0000
0010
1000
0010
1000
0010
0000
0001
0000
,
0200
0000
0000
0300
,
0101
0000
0000
0000
1000
0000
0101
0000
0000
0000
0100
0010
0100
0010
1000
0000
,
1100
0000
0000
0000
0001
0000
1100
0000
0000
0000
0100
0010
0100
0010
0000
0000
,
0011
0000
0000
0000
1000
0000
0011
0000
0000
0000
0010
0100
0010
0100
1000
0000
,
1010
0000
0000
0000
0001
0000
1010
0000
0000
0000
0010
0100
0010
0100
0000
0000
,
0001
1000
0001
1000
0000
0000
0000
0000
0000
0000
0000
0000
1001
0000
0000
0000
;

//--------------- dance-single - tikal. ----------------
#NOTEDATA:;
#STEPSTYPE:dance-single;
#DESCRIPTION:tikal.;
#DIFFICULTY:Challenge;
#METER:10;
#RADARVALUES:0,0,0,0,0;
#NOTES:
0000
0000
0000
0000
,
0000
0000
0000
0000
,
1000
0000
1000
0100
0000
0100
0010
0000
0010
0100
0000
0100
1000
0001
0100
0000
,
0101
0000
0000
0101
1001
1001
0000
0000
,
0001
0000
0001
0100
0000
0100
0010
0000
0010
0100
0000
0100
0001
1000
0100
0000
,
1100
0000
0000
1100
1001
1001
0000
0000
,
0001
0100
0001
1000
0100
1000
0001
0010
0001
1000
0100
1000
0001
0100
0010
0000
,
1010
0000
1010
0000
0001
0000
0011
0000
0001
0010
0001
0000
0010
0000
0100
1000
,
0001
0010
0001
1000
0010
1000
0001
0100
0001
1000
0010
1000
0001
0010
0100
0000
,
1100
0000
1001
0000
0000
0000
0101
0000
0001
1000
0100
0000
1001
0000
1000
0001
,
0100
0000
0000
0000
0020
0000
0000
0000
1000
0000
0000
1000
0000
0000
1030
0000
,
1000
0000
0000
0000
0002
0000
0000
0000
0010
0000
0000
0010
0000
0000
0013
0000
,
0100
1000
0001
0010
0001
0010
0100
1000
0001
0010
0100
0010
1000
0010
0100
0010
,
0001
0010
0100
1000
0100
1000
0001
0010
0100
1000
0000
0000
1002
0000
0000
0000
,
0013
0001
1000
0100
1000
0100
0010
0001
1000
0100
0010
0100
0001
0100
0010
0100
,
1000
0100
0010
0001
0010
0001
1000
0100
0010
0001
1000
0000
0010
1000
0001
0000
,
0100
0001
1000
0010
1000
0010
0100
0001
1000
0010
0100
0010
0001
0010
0100
0010
,
1000
0010
0100
0001
0100
0001
1000
0010
0100
0001
0000
0000
2001
0000
0000
0000
,
3010
1000
0001
0100
0001
0100
0010
1000
0001
0100
0010
0100
1000
0100
0010
0100
,
0002
0000
0000
0000
1003
0001
1000
0001
0010
0000
0010
0000
0100
0000
0000
0000
,
1000
0100
1000
0001
0100
0001
1000
0010
1000
0001
0100
0001
1000
0100
0010
0000
,
0011
0000
0000
0010
1000
0000
0000
1000
0100
0000
0000
0100
0001
0000
1000
0001
,
1000
0010
1000
0001
0010
0001
1000
0100
1000
0001
0010
0001
1000
0010
0100
0000
,
0101
0000
1001
0000
0000
0000
1100
0000
1000
0001
0100
0000
1001
0000
0001
1000
,
0100
0001
0100
1000
0010
1000
0010
0001
0010
1000
0100
1000
0001
0010
0100
0000
,
1100
0000
0000
0100
0001
0000
0000
0001
0010
0000
0000
0010
1000
0000
0001
1000
,
0010
0001
0010
1000
0100
1000
0100
0001
0100
1000
0010
1000
0001
0100
0010
0000
,
2000
0000
0000
0000
,
3001
0010
1000
0010
1000
0010
0001
0010
1000
0010
0100
0010
0001
0010
0100
0010
,
1000
0010
0001
0010
0001
0010
1000
0000
0001
0100
1000
0001
0200
0000
0000
0000
,
1300
0100
0001
0100
0001
0100
1000
0100
0001
0100
0010
0100
1000
0100
0010
0100
,
0001
0100
1000
0100
1000
0100
0001
0100
0010
1000
0001
0000
0010
0001
1000
0000
,
0001
0100
1000
0100
1000
0100
0001
0100
1000
0100
0010
0100
0001
0100
0010
0100
,
1000
0100
0001
0100
0001
0100
1000
0000
0001
0010
1000
0001
0020
0000
0000
0000
,
1030
0010
0001
0010
0001
0010
1000
0010
0001
0010
0100
0010
1000
0010
0100
0010
,
0002
0000
0000
0000
1003
0001
1000
0001
0100
0000
0110
0000
0010
0000
0000
0000
,
1000
0010
0001
1000
0100
0001
0100
1000
0001
0010
1000
0001
0010
0100
1000
0000
,
0020
0000
0100
0001
0000
0000
0100
1000
0000
0000
0100
0001
0000
0000
0130
1000
,
0001
0010
1000
0001
0100
1000
0100
0001
1000
0010
0001
1000
0010
0100
0001
0000
,
1000
0000
0000
0001
0100
0001
1000
0100
0010
0100
1000
0001
0100
0001
1000
0000
,
0001
0100
1000
0001
0010
1000
0010
0001
1000
0100
0001
1000
0100
0010
0001
0000
,
0200
0000
0010
1000
0000
0000
0010
0001
0000
0000
0010
1000
0000
0000
0310
0001
,
1000
0100
0001
1000
0010
0001
0010
1000
0001
0100
1000
0001
0100
0010
1000
0000
,
0001
0000
0000
0000
,
1100
0000
0000
0000
0001
0000
1100
0000
0000
0000
0100
0010
0100
0010
0001
0000
,
0101
0000
0000
0000
1000
0000
0101
0000
0000
0000
0100
0010
0100
0010
0000
0000
,
1010
0000
0000
0000
0001
0000
1010
0000
0000
0000
0010
0100
0010
0100
0001
0000
,
0011
0000
0000
0000
1000
0000
0011
0000
0000
0000
0010
0100
0010
0100
0000
0000
,
1000
0001
1000
0001
0000
0000
0000
0000
0000
0000
0000
0000
1001
0000
0000
0000
;
