#TITLE:Dubidubidu;
#ARTIST:Christell y sus amigos;
#GENRE:Kids pop;
#CREDIT:tikal.;
#MUSIC:Dubidubidu.ogg;
#BANNER:Dubidubidu.png;
#BACKGROUND:Dubidubidu-bg.png;
#CDTITLE:cdtitle.png;
#SAMPLESTART:45.436;
#SAMPLELENGTH:27.568;
#SELECTABLE:YES;
#OFFSET:-0.031;
#BPMS:0=148;

//--------------- dance-single - tikal. ----------------
#NOTES:
     dance-single:
     tikal.:
     Easy:
     5:
     0,0,0,0,0:
0000
0000
0000
0000
,
0000
0000
0000
0000
,
0000
0000
0000
0000
,
0000
0000
0000
0000
,
1000
0100
1000
0010
,
0200
0000
0000
0300
0100
0000
0001
0000
,
0010
0001
0100
0010
,
2000
0000
0000
3000
1000
0001
1000
0000
,
0001
0100
0001
0010
,
0200
0000
0000
0300
0100
0000
1000
0000
,
0010
1000
0100
0010
,
0002
0000
2000
3003
,
1000
0000
1000
0000
1000
0010
1000
0000
,
0001
0000
0001
0000
0001
0010
0001
0000
,
1000
0100
0001
0000
,
0100
0010
0010
0010
,
0001
0000
0001
0000
0001
0100
0001
0000
,
1000
0000
1000
0000
1000
0100
1000
0000
,
0001
0010
1000
0000
,
0010
0100
1000
0001
,
0200
0000
0000
0300
0200
0000
0000
0300
,
0001
1000
0001
0000
,
1000
0100
1000
0010
,
1000
0000
0100
0000
1000
0001
0010
0000
,
0200
0000
0000
0300
0200
0000
0000
0300
,
1000
0001
1000
0000
,
0002
0000
0200
0003
,
0020
0300
2000
3030
,
0001
0001
1000
1000
,
0100
0100
0010
0010
,
0001
0100
1000
0010
,
0110
1001
0110
1001
,
1000
1000
0001
0001
,
0100
0100
0010
0010
,
1000
0100
0001
0010
,
0110
0000
0000
0000
1000
0001
1000
0000
,
0001
0001
1000
1000
,
0010
0010
0100
0100
,
0001
0010
1000
0100
,
0110
1001
0110
1001
,
1000
1000
0001
0001
,
0010
0010
0100
0100
,
1000
0010
0001
0100
,
0220
0000
0000
0330
,
0001
0100
0010
1000
,
0001
0010
0001
0100
,
0020
0000
0000
0030
0010
0000
1000
0000
,
0100
1000
0010
0100
,
0002
0000
0000
0003
0001
1000
0001
0000
,
1000
0010
1000
0100
,
0020
0000
0000
0030
0010
0000
0001
0000
,
0100
0001
0010
0100
,
2000
0000
0002
3003
,
1000
1000
0100
0100
,
0001
0001
0010
0010
,
1000
0100
0001
0010
,
0110
1001
0110
1001
,
0001
0001
0100
0100
,
1000
1000
0010
0010
,
0001
0100
1000
0010
,
0220
0000
0000
0330
,
1000
0100
1000
0000
0010
1000
0010
0000
,
0100
0001
0100
0000
0001
0010
0001
0000
,
1000
0100
0001
0000
0100
1000
0010
0000
,
0110
1001
1100
0101
,
0001
0100
0001
0000
0010
0001
0010
0000
,
0100
1000
0100
0000
1000
0010
1000
0000
,
0001
0100
1000
0000
0100
0001
0010
0000
,
0220
0000
0000
0330
,
2002
0000
0000
3003
,
1000
0000
0010
0000
0100
0001
0010
0000
,
0100
0000
0000
0000
;

//--------------- dance-single - tikal. ----------------
#NOTES:
     dance-single:
     tikal.:
     Medium:
     7:
     0,0,0,0,0:
0000
0000
0000
0000
,
0000
0000
0000
0000
,
0000
0000
0000
0000
,
0000
0000
0000
0000
,
1000
0000
0100
0000
0010
0000
0001
0200
,
0000
1000
0000
0310
0100
0001
0010
0100
,
1000
0000
0010
0000
0100
0000
0001
2000
,
0000
0100
0000
3001
0001
0100
0010
0100
,
0001
0000
0010
0000
0100
0000
1000
0020
,
0000
0001
0000
0130
0010
1000
0100
0010
,
0001
0000
0100
0000
0010
0000
1000
0002
,
0020
0003
0200
0330
,
1000
0100
1000
0100
1000
0020
0000
0130
,
0001
0010
0001
0010
0001
0200
0000
0310
,
1000
0100
0010
0100
1000
0000
1000
0001
,
0000
0101
0000
0001
1000
0100
1000
0000
,
0001
0100
0001
0100
0001
0020
0000
0130
,
1000
0010
1000
0010
1000
0200
0000
0310
,
0001
0100
0010
0100
0001
0000
0001
1000
,
0000
1100
0000
1000
0001
0100
0010
1000
,
0200
0000
0310
0001
0200
0000
0310
1000
,
0100
0010
0100
0001
0100
0000
0010
0001
,
0000
1001
0000
1000
0010
0100
0010
1000
,
0000
1001
0000
0001
0010
0100
0010
0001
,
0200
0000
0310
1000
0100
0010
0001
0001
,
0100
0010
0100
1000
0100
0000
0010
1000
,
0000
1001
0000
0001
1000
0100
0010
0001
,
1000
0000
1000
0000
0010
0100
0010
0000
,
1000
0100
1000
0100
0010
0001
0010
0001
,
1000
0010
1000
0010
0100
0001
0100
0001
,
1000
0100
0010
0001
1000
0010
0100
0001
,
0101
1010
1100
0011
,
0001
0010
0001
0010
0100
1000
0100
1000
,
0001
0100
0001
0100
0010
1000
0010
1000
,
0001
0010
0100
1000
0001
0100
0010
1000
,
1001
1000
0100
0010
,
0001
0100
0001
0100
0010
1000
0010
1000
,
0001
0010
0001
0010
0100
1000
0100
1000
,
0001
0100
0010
1000
0001
0010
0100
1000
,
1100
0011
0101
1010
,
1000
0010
1000
0010
0100
0001
0100
0001
,
1000
0100
1000
0100
0010
0001
0010
0001
,
1000
0010
0100
0001
1000
0100
0010
0001
,
2002
0000
0000
3003
,
0100
0010
1001
0110
,
0001
0000
0100
0000
0010
0000
1000
0200
,
0000
0001
0000
0310
0100
1000
0010
0100
,
0001
0000
0010
0000
0100
0000
1000
0002
,
0000
0100
0000
1003
1000
0100
0010
0100
,
1000
0000
0010
0000
0100
0000
0001
0020
,
0000
1000
0000
0130
0010
0001
0100
0010
,
1000
0000
0100
0000
0010
0000
0001
2000
,
0020
3000
0200
0330
,
0001
0100
0001
0100
0010
0100
0010
0100
,
1000
0100
1000
0100
0010
0100
0010
0100
,
0001
0100
0010
0100
1000
0100
0010
0100
,
0101
1010
0011
1100
,
1000
0100
1000
0100
0010
0100
0010
0100
,
0001
0100
0001
0100
0010
0100
0010
0100
,
1000
0100
0010
0100
0001
0100
0010
0100
,
0220
0000
0000
0330
1000
0001
1000
0001
,
1000
0010
1000
0010
0001
0010
0001
0010
,
1000
0100
1000
0100
0001
0100
0001
0100
,
1000
0010
0001
0010
1000
0100
0001
0100
,
1100
1010
0101
0011
,
0001
0010
0001
0010
1000
0010
1000
0010
,
0001
0100
0001
0100
1000
0100
1000
0100
,
0001
0010
1000
0010
0001
0100
1000
0100
,
0220
0000
0000
0330
,
1001
1000
0010
0100
,
0001
0001
1000
1000
0010
0100
0001
1000
,
0100
0000
0000
0000
;

//--------------- dance-single - tikal. ----------------
#NOTES:
     dance-single:
     tikal.:
     Hard:
     8:
     0,0,0,0,0:
0000
0000
0000
0000
,
0000
0000
0000
0000
,
0000
0000
0000
0000
,
0000
0000
0000
0000
,
2000
0000
3200
0000
0320
0000
0032
0203
,
0000
1000
0000
0310
0100
0001
0010
0100
,
2000
0000
3020
0000
0230
0000
0302
2003
,
0000
0000
0100
0000
0000
0000
3001
0000
1000
0000
0010
0100
0010
0000
1000
0000
,
0002
0000
0023
0000
0230
0000
2300
3020
,
0000
0001
0000
0130
0010
1000
0100
0010
,
0002
0000
0203
0000
0320
0000
2030
3002
,
0020
0000
0003
0000
0200
0000
0330
1000
,
0001
0100
0001
0100
0020
0001
0000
1030
,
0001
0010
0001
0010
0200
0001
0000
1300
,
0010
0100
0001
0100
0010
0000
0100
0101
,
0000
1100
1000
0100
1000
0010
0100
0001
,
1000
0100
1000
0100
0020
1000
0000
0031
,
1000
0010
1000
0010
0200
1000
0000
0301
,
0010
0100
1000
0100
0010
0000
0100
1100
,
0000
0101
0001
0100
0001
0010
0010
0100
,
2000
0000
3010
0100
2000
0000
3100
0010
,
1000
0100
0001
0100
1000
0000
0010
0101
,
0000
1100
0100
1000
0010
0100
0001
0011
,
0000
1010
0010
1000
0100
0010
0100
0100
,
0002
0000
0103
0010
0001
1000
0010
0100
,
0001
0010
1000
0010
0001
0000
0100
1010
,
0000
0011
0001
1000
0010
0100
0001
0010
,
0100
0100
1000
1000
0001
0001
0100
0000
,
0001
0010
0001
0010
1000
0001
1000
0001
,
0100
1000
0100
1000
0010
0100
0010
0100
,
0001
0010
1000
0001
0100
1000
0010
0100
,
0101
1100
1010
0011
,
1000
0010
1000
0010
0001
1000
0001
1000
,
0100
0001
0100
0001
0010
0100
0010
0100
,
1000
0010
0001
1000
0100
0001
0010
0100
,
0120
0032
2003
3020
,
1030
0100
1000
0100
0001
1000
0001
1000
,
0010
0001
0010
0001
0100
0010
0100
0010
,
1000
0100
0001
1000
0010
0001
0100
0010
,
1010
0011
0101
1100
,
0001
0100
0001
0100
1000
0001
1000
0001
,
0010
1000
0010
1000
0100
0010
0100
0010
,
0001
0100
1000
0001
0010
1000
0100
0010
,
0210
1000
0001
0310
,
0001
0001
1000
1000
0010
0010
0100
0100
,
0002
0000
0023
0000
0230
0000
2300
3020
,
0000
0001
0000
0130
0010
1000
0100
0010
,
0002
0000
0203
0000
0320
0000
2030
3002
,
0000
0000
0010
0000
0000
0000
1003
0000
0001
0000
0100
0010
0100
0000
0001
0000
,
2000
0000
3200
0000
0320
0000
0032
0203
,
0000
1000
0000
0310
0100
0001
0010
0100
,
2000
0000
3020
0000
0230
0000
0302
2003
,
0200
3000
0020
0330
,
0010
0001
0010
0001
0100
1000
0100
1000
,
0001
0010
0001
0010
1000
0100
1000
0100
,
0010
0001
0100
1000
0001
0010
1000
0100
,
1100
0101
0011
1010
,
0010
1000
0010
1000
0100
0001
0100
0001
,
1000
0010
1000
0010
0001
0100
0001
0100
,
0010
1000
0100
0001
1000
0010
0001
0100
,
0220
0000
0000
0000
0000
0000
0330
0000
1000
0001
1000
0000
0001
1000
0001
0000
,
0100
0001
0101
0001
0010
1000
1010
1000
,
0001
0100
0101
0100
1000
0010
1010
0010
,
0100
0001
0010
1000
0001
0100
1000
0010
,
1010
0101
0011
1100
,
0100
1000
1100
1000
0010
0001
0011
0001
,
1000
0100
1100
0100
0001
0010
0011
0010
,
0100
1000
0010
0001
1000
0100
0001
0010
,
0021
1000
0001
0130
,
1020
0001
1000
0130
,
1000
0000
1000
0000
0001
0000
0001
0000
1000
0010
1000
0000
0001
0010
0001
0000
,
0100
0000
0000
0000
;

//--------------- dance-single - tikal. and his unconscious ----------------
#NOTES:
     dance-single:
     tikal. and his unconscious:
     Challenge:
     10:
     0,0,0,0,0:
0000
0000
0000
0000
,
0000
0000
0000
0000
,
0000
0000
0000
0000
,
0000
0000
0000
0000
,
2000
0100
3200
0001
0302
0100
0203
0320
,
0000
1000
0000
0031
0002
0023
0230
2300
,
3002
0100
0203
1000
2300
0100
3200
0320
,
0000
0000
0001
0000
0000
0000
1030
0000
2000
0000
3001
0010
0200
0000
0302
0000
,
0203
1000
2300
0001
3002
0010
0023
0230
,
0000
0001
0000
1300
2000
3020
0230
0302
,
0203
0001
0302
1000
2003
0010
3020
0230
,
2000
0000
3000
0000
0002
0000
0303
0001
,
1000
0000
0100
0000
0100
0000
0010
0000
0010
0000
1000
0010
0100
0000
1000
0000
,
0001
0000
0100
0000
0100
0000
0010
0000
0010
0000
0001
0010
0100
0000
0001
0000
,
1000
1000
0001
0001
0010
0000
0100
1100
,
0000
0101
0001
0010
0001
0100
0010
1000
,
0001
0000
0010
0000
0010
0000
0100
0000
0100
0000
0001
0100
0010
0000
0001
0000
,
1000
0000
0010
0000
0010
0000
0100
0000
0100
0000
1000
0100
0010
0000
1000
0000
,
0001
0001
1000
1000
0100
0000
0010
0011
,
0000
1010
1000
0100
1000
0010
0010
0100
,
0002
0000
1003
0100
0002
0000
0103
0010
,
0001
0100
1000
0100
0001
0000
0010
1100
,
0000
0101
1000
0100
1000
0001
0100
1010
,
0000
0011
1000
0010
1000
0001
0010
0100
,
2000
0000
3001
0100
2000
3100
0010
0010
,
1000
0100
0001
0100
1000
0000
0010
0101
,
0000
1100
0001
0010
0001
1000
0010
0100
,
0001
0000
0001
0000
1000
0000
1000
0000
0001
0100
0001
0000
1000
0100
1000
0000
,
1100
0100
1100
1000
0101
0100
0101
0001
,
1010
0010
1010
1000
0011
0010
0011
0001
,
1100
0100
0101
0100
0110
0010
0110
0100
,
1100
0101
0011
1010
,
0101
0001
0101
0100
1100
1000
1100
0100
,
0011
0001
0011
0010
1010
1000
1010
0010
,
0101
0001
1100
1000
1001
0010
1001
0100
,
0110
0000
1000
0100
0000
0000
0100
0010
0000
0000
0010
0001
0000
0000
0001
1000
,
1010
0010
1010
1000
0011
0010
0011
0001
,
1100
0100
1100
1000
0101
0100
0101
0001
,
1010
0010
0011
0010
0110
0100
0110
0010
,
1010
0011
0101
1100
,
0011
0001
0011
0010
1010
1000
1010
0010
,
0101
0001
0101
0100
1100
1000
1100
0100
,
0011
0001
1010
1000
1001
0100
1001
0010
,
0210
1000
0001
0310
,
0001
0010
0001
0000
0010
0100
0010
0000
0100
1000
0100
0000
1000
0001
1000
0000
,
2001
0000
3020
0001
0032
0010
0023
0230
,
0000
1000
0000
0301
0002
0203
0320
2030
,
3002
0010
0023
1000
2030
0010
3020
0230
,
0000
0000
0001
0000
0000
0000
1300
0000
2000
0000
3001
0100
0020
0000
0032
0000
,
0023
1000
2030
0001
3002
0100
0203
0320
,
0000
0001
0000
1030
2000
3200
0320
0032
,
0023
0001
0032
1000
2003
0100
3200
0320
,
0031
0010
0001
0000
1000
0010
1000
0000
0100
0010
0100
0010
0001
0000
1000
0000
,
0010
1000
1010
0010
1000
0001
1001
1000
,
0100
1000
1100
0100
1000
0001
1001
1000
,
0010
0001
0011
0010
1000
0100
0001
0100
,
1100
0101
1010
0011
,
0010
0001
0011
0010
0001
1000
1001
0001
,
0100
0001
0101
0100
0001
1000
1001
0001
,
0010
1000
1010
0010
0001
0100
1000
0100
,
0120
0000
0000
0000
0001
0000
0000
0000
1030
0100
1000
0001
0100
0001
1000
0100
,
0010
0000
0011
0000
1001
0000
0001
0100
0010
0000
1010
0000
1001
0000
1000
0010
,
0100
0000
0101
0000
1001
0000
0001
0010
0100
0000
1100
0000
1001
0000
0001
1000
,
0010
0000
0110
0000
0101
0000
1000
0001
0010
0000
0110
0000
1100
0000
1000
0010
,
1010
0000
0001
0010
0011
0000
0001
0100
0101
0000
1000
0100
1100
0000
1000
0010
,
0100
0000
0101
0000
1001
0000
0001
0010
0100
0000
1100
0000
1001
0000
1000
0100
,
0010
0000
0011
0000
1001
0000
0001
0100
0010
0000
1010
0000
1001
0000
0001
1000
,
0100
0000
0110
0000
0011
0000
1000
0001
0100
0000
0110
0000
1010
0000
1000
0100
,
0020
0001
1000
0130
,
1001
0000
1000
0010
0000
0000
0010
0100
0000
0000
0100
0001
0000
0000
0001
1000
,
0100
1000
0001
0100
0010
1000
0001
1000
0100
0010
0001
0010
0100
1000
0010
0100
,
0001
0000
0000
0000
;

//--------------- dance-double - tikal. ----------------
#NOTES:
     dance-double:
     tikal.:
     Hard:
     8:
     0,0,0,0,0:
00000000
00000000
00000000
00000000
,
00000000
00000000
00000000
00000000
,
00000000
00000000
00000000
00000000
,
00000000
00000000
00000000
00000000
,
20000000
00000000
32000000
00000000
03200000
00000000
00320000
00032000
,
00000000
00000100
00000000
00013000
00001000
00000100
00000010
00000001
,
00002000
00000000
00003020
00000000
00000230
00000000
00000302
00002003
,
00000000
00010000
00000000
00003001
00010000
00001000
00100000
00010000
,
20000000
00000000
30200000
00000000
02300000
00000000
03020000
00032000
,
00000000
00000010
00000000
00013000
00001000
00000010
00000100
00000001
,
00002000
00000000
00003200
00000000
00000320
00000000
00000032
00002003
,
00020000
00000000
00003000
00000000
20000000
00000000
30030000
10000000
,
00100000
01000000
01000000
00010000
00010000
00110000
00000000
00100000
,
00001000
00001000
00010000
00010000
00000010
00001010
00000000
00001000
,
00000001
00000010
00000100
00000010
00000001
00000000
00000100
00001010
,
00000000
00010100
00010000
00000100
00001000
00000010
00000100
00000001
,
00000010
00000100
00000100
00001000
00001000
00001010
00000000
00000010
,
00010000
00010000
00001000
00001000
00100000
00110000
00000000
00010000
,
10000000
00100000
01000000
00100000
10000000
00000000
01000000
00110000
,
00000000
01001000
00001000
01000000
00010000
00100000
00100000
01000000
,
20000000
00000000
30100000
01000000
20000000
00000000
31000000
00010000
,
10000000
01000000
00010000
01000000
10000000
00000000
00100000
01010000
,
00000000
00101000
00001000
01000000
00001000
00100000
00001000
00011000
,
00000000
00010010
00000010
00010000
00000100
00001000
00000010
00000100
,
00000002
00000000
00000013
00000100
00000001
00000100
00001000
00000001
,
00000001
00000100
00001000
00000100
00000001
00000000
00000010
00001100
,
00000000
00010010
00010000
00000010
00001000
00000100
00010000
00001000
,
00100000
00010000
01000000
00100000
00010000
00001000
00000100
00000000
,
00000001
00000100
00000001
00000100
00001000
00010000
00001000
00010000
,
00000010
00001000
00000010
00001000
00000100
00000010
00000100
00000010
,
00000001
00000100
00001000
00010000
00000010
00001000
00000100
00000010
,
00000011
00001100
00110000
11000000
,
10000000
01000000
10000000
01000000
00010000
00001000
00010000
00001000
,
00100000
00010000
00100000
00010000
01000000
00100000
01000000
00100000
,
10000000
01000000
00010000
00001000
00100000
00010000
01000000
00100000
,
10200000
00320000
00032000
00003200
,
00000301
00000010
00000001
00000010
00001000
00010000
00001000
00010000
,
00000100
00001000
00000100
00001000
00000010
00000100
00000010
00000100
,
00000001
00000010
00001000
00010000
00000100
00001000
00000010
00000100
,
00000101
00001010
01010000
10100000
,
10000000
00100000
10000000
00100000
00010000
00001000
00010000
00001000
,
01000000
00010000
01000000
00010000
00100000
01000000
00100000
01000000
,
10000000
00100000
00010000
00001000
01000000
00010000
00100000
01000000
,
12000000
00100000
00010000
03100000
,
00010000
00100000
00001000
00010000
00000100
00001000
00000010
00000100
,
00000002
00000000
00000023
00000000
00000230
00000000
00002300
00023000
,
00000000
00100000
00000000
00031000
00010000
00100000
01000000
10000000
,
00020000
00000000
02030000
00000000
03200000
00000000
20300000
30020000
,
00000000
00001000
00000000
10030000
00001000
00010000
00000100
00001000
,
00000002
00000000
00000203
00000000
00000320
00000000
00002030
00023000
,
00000000
01000000
00000000
00031000
00010000
01000000
00100000
10000000
,
00020000
00000000
00230000
00000000
02300000
00000000
23000000
30020000
,
00002000
00030000
00000002
00003003
,
00001000
00000010
00001000
00000010
00000100
00010000
00000100
00010000
,
00001000
00100000
00001000
00100000
01000000
00010000
01000000
00010000
,
00001000
00000010
00000100
00010000
00001000
00100000
01000000
00010000
,
00110000
00011000
01100000
00110000
,
00010000
00100000
00010000
00100000
01000000
00001000
01000000
00001000
,
00010000
00000010
00010000
00000010
00000100
00001000
00000100
00001000
,
00010000
00100000
01000000
00001000
00010000
00000010
00000100
00001000
,
00002020
00000000
00000000
00000000
00000000
00000000
00003030
00000000
00000001
00001000
00000001
00000000
00001000
00000001
00001000
00000000
,
00000010
00010000
00000010
00010000
00001000
01000000
00001000
01000000
,
00100000
00010000
00100000
00010000
00001000
00000100
00001000
00000100
,
00000010
00010000
00001000
01000000
00100000
00010000
00001000
00000100
,
00000110
00011000
01100000
00011000
,
00100000
00001000
00100000
00001000
00010000
00000100
00010000
00000100
,
00000010
00001000
00000010
00001000
00010000
01000000
00010000
01000000
,
00100000
00001000
00010000
00000100
00000010
00001000
00010000
01000000
,
01020000
00001000
01000000
00031000
,
00002100
00010000
00000100
00013000
,
00001000
00000000
00001000
00000000
00010000
00000000
00010000
00000000
00001000
01000000
00001000
00000000
00010000
00000100
00010000
00000000
,
00011000
00000000
00000000
00000000
;

//--------------- dance-double - tikal. ----------------
#NOTES:
     dance-double:
     tikal.:
     Challenge:
     10:
     0,0,0,0,0:
00000000
00000000
00000000
00000000
,
00000000
00000000
00000000
00000000
,
00000000
00000000
00000000
00000000
,
00000000
00000000
00000000
00000000
,
20000000
00000000
32000000
00000000
03200000
00000000
00320000
00032000
,
00000000
00000001
00000000
00013000
00002000
00003020
00000230
00000302
,
00002003
00000000
00003200
00000000
00000320
00000000
00000032
00002003
,
00000000
00010000
00000000
00003001
00001000
00010000
01000000
00010000
,
20000000
00000000
30200000
00000000
02300000
00000000
03020000
00032000
,
00000000
00000001
00000000
00013000
00002000
00003200
00000320
00000032
,
00002003
00000000
00003020
00000000
00000230
00000000
00000302
00002003
,
00020000
00000000
00003000
00000000
20000000
00000000
30030000
10000000
,
00100000
01000000
01000000
00010000
00020000
00001000
00000000
10030000
,
01000000
00100000
00100000
00010000
00020000
00001000
00000000
10030000
,
00010000
00010000
00100000
00100000
00001000
00000000
01000000
01010000
,
00000000
00101000
00100000
00001000
00010000
00000100
00001000
00000001
,
00000010
00000100
00000100
00001000
00002000
00010000
00000000
00003001
,
00000100
00000010
00000010
00001000
00002000
00010000
00000000
00003001
,
00001000
00001000
00000010
00000010
00010000
00000000
00000100
00001100
,
00000000
00010010
00010000
00001000
01000000
00010000
10000000
01000000
,
00020000
00000000
01030000
10000000
00020000
00000000
10030000
01000000
,
00010000
00001000
00010000
00100000
00010000
00000000
00001000
00011000
,
00000000
00101000
00001000
01000000
00001000
00100000
00001000
00011000
,
00000000
00010010
00000010
00010000
00000100
00001000
00000001
00000100
,
00002000
00000000
00003100
00000001
00002000
00003010
00000001
00000001
,
00000010
00000100
00001000
00010000
00001000
00000000
00010000
00010100
,
00000000
01001000
00001000
00010000
00000010
00001000
00000100
00000010
,
00001000
00010000
00001000
01000000
00100000
01000000
00010000
00000000
,
10000000
00100000
10000000
00100000
00010000
00001000
00010000
00001000
,
00000100
00000001
00000100
00000001
00010000
00001000
00010000
00001000
,
10000000
00100000
00010000
00001000
00000100
00000001
00010000
00001000
,
00011000
10010000
00011000
00001001
,
00000001
00000010
00000001
00000010
00001000
00010000
00001000
00010000
,
01000000
10000000
01000000
10000000
00001000
00010000
00001000
00010000
,
00000001
00000010
00001000
00010000
01000000
10000000
00001000
00010000
,
00011000
00000000
00000100
00010000
00000000
00000000
00001000
01000000
00000000
00000000
00000100
00010000
00000000
00000000
00001000
01000000
,
00100000
10000000
00100000
10000000
00001000
00010000
00001000
00010000
,
00000001
00000100
00000001
00000100
00001000
00010000
00001000
00010000
,
00100000
10000000
00001000
00010000
00000001
00000100
00001000
00010000
,
00011000
10100000
00011000
00000011
,
00000010
00000001
00000010
00000001
00010000
00001000
00010000
00001000
,
10000000
01000000
10000000
01000000
00010000
00001000
00010000
00001000
,
00000010
00000001
00010000
00001000
10000000
01000000
00010000
00001000
,
00012000
00000010
00100000
01003000
,
00010000
01000000
00001000
00000000
00100000
00001000
00010000
00000000
00000010
00010000
00001000
00000000
00010000
00000100
00001000
00000000
,
00001002
00000000
00000203
00000000
00000320
00000000
00002030
00023000
,
00000000
10000000
00000000
00031000
00020000
00230000
02300000
23000000
,
30020000
00000000
02030000
00000000
03200000
00000000
20300000
30020000
,
00000000
00001000
00000000
10030000
00010000
00001000
00000100
00001000
,
00000002
00000000
00000023
00000000
00000230
00000000
00002300
00023000
,
00000000
10000000
00000000
00031000
00020000
02030000
03200000
20300000
,
30020000
00000000
00230000
00000000
02300000
00000000
23000000
30020000
,
00002000
00030000
00000002
00003003
,
00000001
00000100
00000001
00000100
00000001
00001000
00000001
00001000
,
00000001
00010000
00000001
00010000
00000001
01000000
00000001
01000000
,
00000100
01000000
00001000
01000000
00010000
00100000
10000000
00100000
,
01100000
00011000
00000110
00011000
,
10000000
01000000
10000000
01000000
10000000
00010000
10000000
00010000
,
10000000
00001000
10000000
00001000
10000000
00000100
10000000
00000100
,
01000000
00000100
00010000
00000100
00001000
00000010
00000001
00000010
,
00000220
00000000
00000000
00000000
00000000
00000000
00000330
00000000
00000001
00001000
00000001
00001000
00000001
00001000
00000001
00001000
,
00000001
00000100
00000001
00001000
00000001
00010000
00000001
01000000
,
00001000
00000100
00010000
01000000
00100000
00001000
00000010
00010000
,
00100000
10000000
00010000
00001000
00000010
00000001
00000010
00001000
,
00001001
10010000
00001001
10010000
,
10000000
01000000
10000000
00010000
10000000
00001000
10000000
00000100
,
00010000
01000000
00001000
00000100
00000010
00010000
00100000
00001000
,
00000010
00000001
00001000
00010000
00100000
10000000
00100000
00010000
,
00012000
00000100
00000010
00103000
,
00021000
00000100
01000000
00130000
,
00010000
01000000
00100000
00000000
00010000
00001000
00000100
00000000
00000010
00001000
00000100
00000000
00010000
00001000
00100000
00000000
,
00011000
00000000
00000000
00000000
;
