#TITLE:Cytokinesis("PACING" Special);
#ARTIST:Hommarju;
#GENRE:Freeform hardcore;
#MUSIC:Cytokinesis.ogg;
#BANNER:Cytokinesis.png;
#BACKGROUND:Cytokinesis-bg.png;
#CREDIT:tikal.;
#CDTITLE:cdtitle.png;
#SAMPLESTART:96.654;
#SAMPLELENGTH:15;
#BPMS:0=111,20=56.25,21=58.5,22=70.5,23=84,24=99,25=114,26=123,27=138.5,28=154,44=77,45=154,59=77,60=154,68=155,70=160,72=168,74=173,78=175,80=182,82=187,84=193,86=197,90=182,206=95.75,208=102,210=106,212=112.5,214=115,215=118.5,216=122,217=127,218=128.5,220=132.5,222=137,223=145,224=152.5,225=158,226=165,228=173,230=176,231=180,232=191,233=200,234=212,238=217,242=228,244=234,246=250,248=261,250=273,252=376,256=444,400=55.5;
#DISPLAYBPM:55:444;

//--------------- dance-single - tikal. (The Penguin Guy) ----------------
#NOTES:
     dance-single:
     tikal. (The Penguin Guy):
     Challenge:
     12:
     0,0,0,0,0:
0000
0000
0000
0000
,
0000
0000
0000
0000
,
0000
0000
0000
0000
,
0000
0000
0000
0000
,
0000
0000
0000
0000
,
2002
0000
0000
0000
,
0000
0000
0000
0000
,
3003
0000
0000
0000
1000
1000
0001
0001
,
1000
0000
0010
0000
0100
0000
0010
0000
1000
0000
0010
0100
0001
0000
1000
0000
,
0001
0000
0010
0000
0100
0000
0010
0000
0001
0000
0010
0100
1000
0001
1000
0000
,
0010
0000
0001
0000
0010
0000
0100
0000
0010
0000
1000
0001
0010
0000
0100
0000
,
2002
0000
0000
3003
0001
0000
0001
0000
1000
0000
1000
0000
0001
0000
0100
0000
,
0010
0000
0100
0000
0001
0000
0100
0010
1000
0000
0001
0000
1000
0000
0100
0000
,
0010
0000
0100
0000
1000
0000
0100
0010
0001
1000
0001
0000
0100
0000
1000
0000
,
0100
0000
0010
0000
0100
0000
0001
1000
0100
0000
0010
0000
2002
0000
0000
3003
,
1000
1000
0001
0001
1000
0000
0000
0000
,
0101
0000
0001
0000
,
1100
0000
0110
0110
0001
0000
0000
0000
,
0011
0000
1000
0000
,
1010
0010
0110
0110
0200
0000
0310
1000
,
0200
0000
0310
0001
2000
0000
3010
1000
,
0002
0000
0013
0100
0001
0100
1000
0010
,
0100
0001
0010
0100
2000
0000
0000
0000
,
0002
0000
3003
0000
1000
0010
0101
0000
,
0000
0000
0101
0000
0001
0010
1000
0000
,
1000
0010
0001
0000
0100
0000
1010
0000
,
1001
0000
0000
0000
0011
0000
0000
0000
1000
0000
1001
0000
1001
0000
0000
1001
,
0000
0001
0100
0000
0010
0000
1000
0000
0002
0000
0000
0000
0000
0000
0000
0000
,
2000
0000
0000
0000
3003
0000
0000
0000
0001
0000
0010
0000
0100
0000
0000
1000
,
0000
0100
1000
0000
0010
0000
0000
0000
0100
0000
0001
0000
0010
0000
0000
0000
,
0001
0000
1000
0001
0010
0000
0000
0000
0001
0000
1001
0000
1001
0000
0000
1001
,
0000
1000
0100
0000
0010
0000
0001
0000
1000
0000
0000
0000
1001
0000
0000
1001
,
0000
0001
1000
0000
1001
0000
0001
0000
0010
0000
0000
0000
0110
0000
0000
0110
,
0000
0100
0010
0000
0110
0000
0100
0000
1000
0000
0100
0000
0001
0000
0100
0000
,
1000
0000
0010
0000
0001
0000
0010
0000
0100
0001
0100
0001
1000
0010
0100
0001
,
0010
0100
1000
0100
1000
0001
0100
0010
2000
0000
0000
0000
3200
0000
0000
0000
,
0320
0230
0302
2003
,
3002
0203
2300
3020
,
0032
2003
3002
0023
,
0130
0001
0000
1000
0002
0000
0203
0000
,
0320
0230
2300
3002
,
2003
3200
0302
0023
,
2030
3002
2003
3020
,
0031
0100
0000
0010
1000
0000
0000
0000
,
0101
0000
0010
0000
,
1100
0000
0001
0000
,
1001
0000
0000
0000
1000
0010
0100
0000
,
0110
0000
0001
1000
0001
0000
0000
0000
,
1010
0000
0100
0000
,
0011
0000
1000
0000
,
1001
0000
0000
0000
0001
0100
0010
0000
,
0110
1001
2200
3300
,
0022
0033
2020
3030
,
0202
0303
0022
0033
,
2200
3300
0220
0330
,
2002
0000
3003
0000
1000
0010
1000
0100
,
1000
0010
0100
0001
0010
0100
0001
0100
,
1000
0010
0001
0010
0100
1000
0100
0001
,
0010
0100
1000
0100
0001
0100
1000
0001
,
0100
0010
1000
0001
0010
0010
0100
0100
,
1000
1000
0001
0001
0100
0100
1000
1000
,
0100
0000
0100
0000
0001
0000
0001
0000
1000
0010
1000
0100
0010
0001
1000
0001
,
0100
0010
1000
0001
0010
0100
1000
0010
0100
0002
2000
0000
0000
0000
0000
0000
,
0000
0000
0000
0000
0000
0000
0000
0000
3003
0000
0000
0000
,
1010
0110
0101
1000
,
0110
0101
1000
1010
,
0001
0110
1100
0001
,
0110
0000
1100
0000
0001
0000
1000
0010
,
0100
0101
0011
1000
,
0101
0011
1000
1001
,
0001
0000
1100
0000
1000
0010
0100
0001
,
0010
0000
0110
0000
0100
1000
0010
0100
,
0001
0110
1100
0001
,
0110
1100
0001
0011
,
1000
0110
0101
1000
,
0110
0000
0101
0000
1000
0000
0001
0010
,
0100
1100
1010
0001
,
1100
1010
0001
1001
,
1000
0000
0101
0000
0001
0010
0100
0000
,
1100
0011
0101
1010
,
0001
0101
1100
1000
,
0101
1100
0001
0110
,
1000
0011
1010
0001
,
0011
0000
1010
0000
0001
0000
1000
0100
,
0010
0110
0011
1000
,
0110
1010
0001
1001
,
1000
0000
0001
0010
0100
0000
0110
0000
,
0100
1000
0001
0100
0010
0000
0000
0000
,
0110
0000
1000
0010
0100
0000
0101
0000
,
1010
0000
0011
0000
1100
0000
1000
0001
,
1000
0000
1010
0000
0011
0000
0001
0010
,
0100
1000
0010
0000
0110
0000
0100
0001
,
1000
1010
0101
0001
,
0011
1100
0001
1001
,
1000
0010
1000
0100
0010
0001
0100
1000
,
0100
0001
0010
1000
0010
0100
1000
0001
,
2002
0000
0000
3003
0000
0000
0000
0000
,
0220
0000
0000
0330
0000
0000
0000
0000
,
2002
0000
0000
3003
0000
0000
0000
0000
,
0220
0000
0000
0330
0000
0000
0000
0000
,
2002
0000
0000
3003
0000
0000
0000
0000
;

//--------------- dance-double - tikal. (The Penguin Guy) ----------------
#NOTES:
     dance-double:
     tikal. (The Penguin Guy):
     Challenge:
     12:
     0,0,0,0,0:
00000000
00000000
00000000
00000000
,
00000000
00000000
00000000
00000000
,
00000000
00000000
00000000
00000000
,
00000000
00000000
00000000
00000000
,
00000000
00000000
00000000
00000000
,
00022000
00000000
00000000
00000000
,
00000000
00000000
00000000
00000000
,
00033000
00000000
00000000
00000000
00001000
00001000
00010000
00010000
,
00001000
00010000
01000000
10000000
00001000
01000000
00100000
00000000
,
00010000
00001000
00000100
00000001
00010000
00000100
00000010
00000000
,
00000100
00010000
00000100
00000000
01000000
00001000
01000000
00000000
,
00022000
00000000
00000000
00033000
00010000
00000000
00010000
00000000
00001000
00000000
00001000
00000000
00010000
00000000
00001000
00000000
,
00000010
00000001
00010000
00000010
00000100
00000000
00001000
00010000
,
00100000
10000000
00001000
00100000
01000000
00000000
00100000
00001000
,
00100000
00000000
00000000
00000000
00000010
00000000
00010000
00000000
00000010
00000000
00000000
00000000
00022000
00000000
00000000
00033000
,
00001000
00001000
00010000
00010000
00000010
00000000
00001000
00000000
,
00010100
00000000
00100000
00001000
,
01010000
00000000
01100000
01100000
01000000
00000000
00001000
00000000
,
00110000
00000000
00000100
00010000
,
00001010
00000010
00000110
00000110
00000200
00000000
00001300
00010000
,
02000000
00000000
03010000
00001000
00000020
00000000
00001030
00010000
,
00200000
00000000
00310000
00001000
00000100
00000001
00000010
00001000
,
00010000
01000000
10000000
00100000
00020000
00000000
00000000
00000000
,
00002000
00000000
00033000
00000000
00010000
00000100
00010100
00000000
,
00000000
00000000
00010100
00000000
00000100
00000010
00000001
00000000
,
00000100
00000010
00001000
00000000
00000010
00010000
00010100
00000000
,
00100000
00000000
00000000
00000000
01010000
00000000
00000000
00000000
10000000
00000000
11000000
00000000
11000000
00000000
00000000
11000000
,
00000000
01000000
00010000
00000000
01000000
00000000
00100000
00000000
00002000
00000000
00000000
00000000
00000000
00000000
00000000
00000000
,
00020000
00000000
00000000
00000000
00033000
00000000
00000000
00000000
00001000
00000000
01000000
00000000
00100000
00000000
00000000
10000000
,
00000000
00100000
10000000
00000000
01000000
00000000
00000000
00000000
00100000
00000000
00001000
00000000
01000000
00000000
00000000
00000000
,
00001000
00000000
00010000
00001000
00000100
00000000
00000000
00000000
00000001
00000000
00000101
00000000
00000101
00000000
00000000
00000101
,
00000000
00000100
00001000
00000000
00000100
00000000
00000010
00000000
00001000
00000000
00000000
00000000
00001001
00000000
00000000
00001001
,
00000000
00000001
00001000
00000000
00000001
00000000
00000100
00000000
00010000
00000000
00000000
00000000
10010000
00000000
00000000
10010000
,
00000000
10000000
00010000
00000000
10000000
00000000
01000000
00000000
00001000
00000000
00010000
00000000
00001000
00000000
00000100
00000000
,
00000010
00000000
00000001
00000000
00000100
00000000
00000001
00000000
00001000
00000100
00001000
00000100
00010000
00001000
01000000
00100000
,
10000000
01000000
00100000
00010000
01000000
00001000
00010000
00000010
00000200
00000000
00000000
00000000
00002300
00000000
00000000
00000000
,
00003200
00000302
00000023
00002030
,
00023000
00032000
00003200
00020300
,
02030000
03002000
00023000
02030000
,
03100000
00010000
00000000
10000000
02000000
00000000
03020000
00000000
,
02030000
23000000
30200000
00320000
,
00032000
00023000
02030000
03002000
,
00003200
00020300
00032000
00003200
,
00000310
00001000
00000000
00000001
00000100
00000000
00001000
00000000
,
00102000
00003000
01000000
00010000
,
00020010
00030000
00000010
00001000
,
01002000
00000000
00003000
00000000
10000000
00010000
00100000
00000000
,
00001000
01000000
01000000
00010000
00100000
00000000
00010000
00000000
,
00020100
00030000
00000010
00001000
,
01002000
00003000
01000000
00010000
,
00020010
00000000
00030000
00000000
00000001
00001000
00000100
00000000
,
00010000
00000010
00000100
00000000
00000202
00000000
00000303
00000000
,
00020020
00030030
00220000
00330000
,
02002000
03003000
20200000
30300000
,
00020200
00030300
02200000
03300000
,
00002002
00000000
00003003
00000000
00000001
00000010
00000001
00000100
,
00000010
00001000
00000100
00010000
00001000
00000010
00001000
00010000
,
00100000
01000000
00010000
10000000
01000000
00010000
01000000
10000000
,
00100000
00010000
00100000
01000000
00010000
00001000
00010000
01000000
,
00001000
00010000
00000100
00000010
00000001
00000100
00001000
00010000
,
00001000
00000010
00001000
00010000
01000000
10000000
00100000
00010000
,
00001000
00000000
00010000
00000000
01000000
00000000
00100000
00000000
00010000
01000000
00100000
10000000
01000000
00100000
00010000
01000000
,
00001000
00100000
00001000
00010000
00000100
00000010
00000001
00000100
00000010
00020000
00002000
00000000
00000000
00000000
00000000
00000000
,
00000000
00000000
00000000
00000000
00000000
00000000
00000000
00000000
00033000
00000000
00000000
00000000
,
01001000
01100000
10100000
00010000
,
00110000
01100000
01000000
01010000
,
00010000
00011000
00001010
00001000
,
00001010
00000000
00011000
00000000
00010000
00000000
00100000
01000000
,
00010000
01001000
00010010
00010000
,
00010100
00101000
00001000
01001000
,
01000000
00000000
01100000
00000000
00100000
10000000
01000000
00010000
,
00001000
00000000
00011000
00000000
00010000
00001000
00000100
00000001
,
00000010
00000110
00000011
00001000
,
00001010
00000110
00000100
00001100
,
00001000
00011000
00110000
00010000
,
00110000
00000000
00011000
00000000
00001000
00000000
00000010
00000100
,
00001000
00010100
00101000
00001000
,
01001000
00010010
00010000
00010100
,
00000100
00000000
00000110
00000000
00000010
00000001
00000100
00000000
,
00000110
00010010
00101000
01100000
,
10000000
11000000
00101000
00001000
,
01001000
00010010
00010000
00010100
,
00000001
00000011
00001100
00001000
,
00010010
00000000
01001000
00000000
01000000
00000000
00100000
10000000
,
01000000
10010000
00101000
00001000
,
00011000
00010010
00010000
00001100
,
00000001
00000000
00000010
00001000
00010000
00000000
00011000
00000000
,
00001000
00010000
01000000
00100000
00010000
00000000
00000000
00000000
,
10010000
00000000
10000000
00100000
01000000
00000000
01100000
00000000
,
01001000
00000000
00110000
00000000
00011000
00000000
00001000
00010000
,
00001000
00000000
01001000
00000000
00010010
00000000
00000010
00001000
,
00000100
00000010
00000001
00000000
00000101
00000000
00000100
00000010
,
00001000
00010100
00001010
00010000
,
01001000
00110000
10000000
10010000
,
10000000
01000000
00010000
00001000
00010000
00000010
00000100
00001000
,
00010000
00100000
00010000
00001000
00000010
00000001
00001000
00000100
,
00000220
00000000
00000000
00000330
00000000
00000000
00000000
00000000
,
02200000
00000000
00000000
03300000
00000000
00000000
00000000
00000000
,
00002002
00000000
00000000
00003003
00000000
00000000
00000000
00000000
,
20020000
00000000
00000000
30030000
00000000
00000000
00000000
00000000
,
00200020
00000000
00000000
00300030
00000000
00000000
00000000
00000000
;
