#TITLE:Crackpot Evangelist;
#ARTIST:ZAQUVA;
#GENRE:Neo industrial;
#CREDIT:tikal. in the Ninth Circle (amplified);
#MUSIC:cpev.ogg;
#BANNER:cpev_th.png;
#BACKGROUND:cpev_bk.png;
#CDTITLE:cdtitle.png;
#SAMPLESTART:20.4;
#SAMPLELENGTH:19.2;
#BPMS:0=200,192=100,194=200,226=400,482=200,490=400,514=200;
#SCROLLS:0=1,72=0,72.25=2,72.5=1,80=0,80.25=2,80.5=1,88=0,88.25=2,88.5=1,160=0.5,162=1.5,164=1,192=0,192.25=2,192.5=0,192.75=2,193=0,193.25=2,193.5=0,193.75=2,194=1;
#DISPLAYBPM:200:400;

//--------------- dance-single - tikal. in Caina (amplified) ----------------
#NOTEDATA:;
#STEPSTYPE:dance-single;
#DESCRIPTION:tikal. in Caina (amplified);
#DIFFICULTY:Easy;
#METER:8;
#RADARVALUES:0,0,0,0,0;
#CHARTNAME:Caina (amplified);
#NOTES:
0000
0000
0000
0000
,
0000
0000
0000
0000
,
0000
0000
0000
0000
,
0000
0000
0000
0000
,
0000
0000
0000
0000
,
0000
0000
0000
0000
,
0000
0000
0000
0000
,
0000
0000
0000
0000
,
0000
0000
0000
0000
,
1000
0010
1000
0010
,
1000
0001
1000
0001
,
0010
0001
0010
0001
,
0100
0010
0100
0010
,
1000
0010
1000
0000
0001
0010
0001
0000
,
1000
0100
1000
0000
0001
0100
0001
0000
,
1000
0010
0100
0001
0010
0100
1000
0001
,
0200
0000
0000
0310
,
2020
0000
0030
0000
3001
1000
0002
0000
,
0003
1000
0100
0000
1000
0001
0010
0000
,
0022
0000
0030
0000
1003
0001
2000
0000
,
3000
0000
0000
0001
0000
0000
0100
0000
0000
0000
0000
0000
0010
0000
1000
0000
0010
0000
1000
0000
0000
0000
0000
0000
,
2200
0000
0300
0000
3001
1000
0002
0000
,
0003
1000
0010
0000
1000
0001
0100
0000
,
0010
1000
0100
0000
0010
0001
0100
0000
,
0010
1000
0001
0010
0001
1000
0010
0000
,
0100
0000
0100
0000
0001
1000
0001
0010
,
0000
0100
0100
0000
0010
0001
1000
0000
,
0100
0000
0100
0000
1000
0001
1000
0010
,
0000
0100
0100
0000
0010
1000
0001
0000
,
0010
0000
0100
1000
0001
1000
0010
0000
,
0100
0001
1000
0001
0010
0100
1000
0000
,
0001
0000
0000
1000
0000
0000
0100
0000
1000
0000
0000
0001
0000
0000
0100
0000
,
0010
0000
0010
0000
1000
0001
0010
0000
,
0110
1000
1000
1000
,
1000
0000
0001
0000
1000
0000
0001
0000
0100
0000
0000
0100
0000
0000
0100
0000
,
0110
0001
0001
0001
,
0001
1000
0001
1000
0100
0010
0001
0000
,
1000
0000
0000
0001
0000
0000
1000
0000
0001
0000
0100
0000
0010
0000
0000
0000
,
1000
0100
0010
0001
0100
0010
1000
0000
,
0001
0010
0001
0100
0010
1000
0100
1000
,
0002
0000
2000
3003
,
0001
0010
0001
0010
,
0001
1000
0010
0010
,
1000
0010
1000
0010
,
1000
0000
0000
0000
0001
0000
0000
0000
0010
0000
0000
0010
0000
0000
0010
0000
,
0001
0100
0001
0100
,
0001
1000
0100
0100
,
1000
0100
1000
0001
,
0200
0000
0000
0300
0001
0000
0001
0000
,
0010
0000
0010
0000
0001
0010
0001
0000
,
0100
0000
0000
0100
0000
0000
0100
0000
0010
0000
0000
0000
0010
0000
0000
0000
,
1000
0000
1000
0000
0010
1000
0010
0000
,
0100
0000
0000
0100
0000
0000
0100
0000
0001
0000
0000
0000
0010
0000
0000
0000
,
1000
0010
0001
0100
,
1000
0000
0100
0000
0010
1000
0001
1000
,
0100
0010
0001
0100
0010
0000
0110
0000
,
2002
3003
1000
0100
,
1000
0000
0001
0010
,
0100
0000
1000
0100
,
1000
0000
0100
0010
,
0001
1000
0001
0100
,
0001
0000
1000
0010
,
0100
0000
0001
0000
,
0001
0000
0001
1000
,
0001
1000
0001
0010
,
0001
0000
1000
0100
,
0010
0000
0001
0010
,
0001
0000
0010
0100
,
1000
0001
1000
0010
,
1000
0000
0001
0100
,
0010
0000
1000
0000
,
1000
0000
1000
0001
,
1001
0000
0011
0000
,
1000
0000
1010
0000
,
0001
0000
0011
0000
,
1000
0000
1100
0000
,
1001
0000
0101
0000
,
1000
0000
0000
0000
0000
0000
0100
0000
0000
0000
0010
0000
,
0000
0000
0100
0000
0000
0000
1000
0000
0000
0000
0000
0000
,
1000
0000
1000
0001
,
1000
0001
1000
0010
,
0100
0000
0010
1000
,
0100
0000
0010
0001
,
0100
0000
0001
0100
,
0010
0000
1000
0010
,
1000
0001
0010
0001
,
0100
0010
1000
0100
,
0010
0001
0100
0010
,
1000
0000
0000
0000
1010
0000
0000
0001
,
0000
0000
1000
0000
0100
0000
0000
0010
,
0000
0000
0000
0000
0011
0000
0000
1000
,
0000
0000
0001
0000
0100
0000
0000
0010
,
0000
0000
0000
0000
0110
0000
0000
1000
,
0000
0000
0001
0000
0010
0000
0000
0100
,
0000
0000
0000
0000
1000
0000
0000
1000
,
0000
1000
0010
0100
,
0001
0000
0000
0000
0101
0000
0000
1000
,
0000
0000
0001
0000
0010
0000
0000
0100
,
0000
0000
0000
0000
1100
0000
0000
0001
,
0000
0000
1000
0000
0010
0000
0000
0100
,
0000
0000
0000
0000
0110
0000
0000
0001
,
0000
0000
1000
0000
0100
0000
0000
0010
,
0000
0000
0000
0000
0001
0000
0000
0001
,
0000
0001
0100
0010
,
1000
0000
1010
0000
,
0001
0000
0101
0000
,
1000
0000
1100
0000
,
0001
0000
0011
0000
,
0110
0000
1100
0000
,
0001
0000
0000
0000
0000
0000
0100
0000
0000
0000
0010
0000
,
0000
0000
0100
0000
0000
0000
0001
0000
0000
0000
1000
0000
,
0001
0000
1000
0000
0001
0000
0020
0000
0000
0000
0000
0000
,
0130
1000
0001
0010
,
0001
0010
0100
1000
,
0010
0000
1000
0010
,
1000
0010
0100
0001
,
0010
0000
0100
1000
,
0001
0100
0001
1000
,
0010
0100
0001
0010
,
1000
0001
0100
1000
,
0001
0100
0020
0000
,
0000
0000
0000
0000
0130
0010
0100
0000
,
0001
1000
1001
0000
1000
0000
0100
0000
,
1000
0001
0010
0010
,
0001
0100
1000
0100
,
0010
0100
1000
0100
,
0001
1000
0100
0001
,
0100
1000
0010
0100
,
0001
0000
0001
0000
0020
0000
0000
0030
;

//--------------- dance-single - tikal. in Antenora (amplified) ----------------
#NOTEDATA:;
#STEPSTYPE:dance-single;
#DESCRIPTION:tikal. in Antenora (amplified);
#DIFFICULTY:Medium;
#METER:10;
#RADARVALUES:0,0,0,0,0;
#CHARTNAME:Antenora (amplified);
#NOTES:
0000
0000
0000
0000
,
0000
0000
0000
0000
,
0000
0000
0000
0000
,
0000
0000
0000
0000
,
0000
0000
0000
0000
,
0000
0000
0000
0000
,
0000
0000
0000
0000
,
0000
0000
0000
0000
,
0000
0000
0000
0000
,
1000
0000
1000
0000
1000
0000
1000
0100
,
0001
0000
0001
0000
0001
0000
0001
0100
,
0010
0000
0010
0000
0010
0000
0010
0001
,
0100
0000
0100
0000
0100
0000
0100
0010
,
1000
0100
1000
0001
0100
0100
0001
0020
,
0000
0130
2000
0000
3001
0001
0100
0000
,
0001
0000
0010
0000
0100
0000
1000
0000
0001
0010
0001
0000
1000
0010
1000
0000
,
0200
0000
0000
0310
,
0120
0000
0031
0001
1000
1000
2000
0000
,
3000
0000
0010
0000
0010
0000
0100
0000
0100
0000
0001
0000
0020
0000
0000
0030
,
0210
0000
1300
1000
0001
0001
0002
0000
,
0003
0000
0000
0100
0000
0000
0100
0000
0000
0010
0000
0000
0010
0000
1000
0000
0001
0000
1000
0000
0000
0000
0000
0000
,
2100
0000
3001
0001
0100
0100
0200
0000
,
0300
0010
0010
1000
1000
0001
0002
0000
,
0013
0001
0100
0100
0010
1000
0100
0100
,
0001
0100
1000
0001
0100
0010
2000
0000
,
3001
0010
1000
0010
0001
1000
0100
0100
,
0010
1000
0001
0100
0010
0001
0200
0000
,
0301
0100
1000
0100
0001
1000
0010
0100
,
0001
0000
0010
0000
0010
0000
0100
0000
0001
0000
0100
0000
1000
0100
1000
0000
,
0010
0001
0010
0100
0001
0010
0100
1000
,
0010
0010
1000
0100
0100
0001
1000
0010
,
0100
0000
0000
0110
0000
0000
0010
0000
0001
0000
0000
1001
0000
0000
1000
0000
,
0020
0000
0130
0000
0020
0000
1030
0001
0010
0000
0100
0000
0110
0000
0000
0000
,
1001
0000
1000
0001
0001
1000
1000
0001
,
0001
0000
0010
0000
0100
0000
1000
0000
1000
0000
0001
1000
0000
0001
1000
0000
,
1001
0000
0001
1000
1000
0001
0001
1000
,
1000
0000
0010
0000
0100
0000
0001
1000
0001
1000
0001
0000
0020
0000
0000
0000
,
0130
0000
1000
0100
0000
1000
0100
0000
0010
0000
0001
0000
0001
0000
0100
0000
,
0010
0000
1000
0000
0100
0000
0010
0001
0010
0000
0100
0000
1000
0000
0000
0000
,
0001
0100
0001
0000
1000
0100
1000
0000
0001
1000
0001
1000
0001
1000
0001
1000
,
0200
0000
0000
0000
0020
0000
0000
0330
,
0001
0001
0010
0010
,
0001
0000
0010
0000
0001
0000
0000
0000
0100
0000
0000
0100
0000
0000
0100
0000
,
0010
0010
1000
1000
,
0010
0000
1000
0000
0010
0000
0000
0000
0100
0000
0000
0100
0000
0000
0001
0000
,
1000
1000
0100
0100
,
1000
0000
0100
0000
1000
0000
0000
0000
0010
0000
0000
0010
0000
0000
0010
0000
,
0100
0100
0001
0001
,
0020
0000
0000
0130
1000
0000
0100
0000
,
1000
0000
0010
0000
0100
0010
0100
0000
,
0001
0000
0000
0001
0000
0000
1000
0000
0001
0000
0000
0000
0100
0000
0000
0000
,
0001
0000
0010
0010
0100
0010
0100
0000
,
1000
0000
0000
1000
0000
0000
0001
1000
0001
0000
0100
0000
0001
0000
0000
0000
,
1000
0100
1000
0000
0010
0100
0010
0000
,
1000
0000
0001
0000
1000
0000
0000
0000
0001
0100
0001
0000
1000
0100
1000
0000
,
0001
1000
0001
1000
0001
1000
0001
1000
0010
0000
0000
0000
0110
0000
0000
0000
,
2002
3003
1000
1000
,
0100
1000
0010
0100
,
0001
0000
1000
1000
,
0010
1000
0100
0010
,
1000
0010
0001
0001
,
0100
0001
0010
0100
,
1000
0000
0000
0000
0010
0000
0000
0010
,
0000
0010
0100
0001
,
1000
0001
1000
0000
0001
0000
0001
0000
,
0100
0001
0010
0100
,
1000
0000
0001
0001
,
0010
0001
0100
0010
,
0001
0010
1000
1000
,
0100
1000
0010
0100
,
0001
0000
0000
0000
0010
0000
0000
0010
,
0000
0000
0010
0000
0100
0010
0100
0000
,
2000
0000
0000
3000
0000
0000
1100
0000
0000
0000
0001
0000
,
0000
0000
0100
0000
0000
0000
0101
0000
0000
0000
1000
0000
,
0000
0000
0010
0000
0000
0000
1010
0000
0000
0000
0001
0000
,
0000
0000
0010
0000
0000
0000
0100
0000
1000
0000
0010
0000
,
0000
0000
1000
0000
0001
0000
0011
0000
0000
0000
1000
0000
,
0000
0000
0100
0000
0000
0000
0010
0000
0001
0000
1000
0000
,
0100
0000
0000
0000
1000
0000
0000
0000
0001
0000
0000
0000
0100
0000
0000
0000
0000
0000
0000
0000
0000
0100
0000
0000
,
0000
0100
0010
1000
,
0001
1000
0001
0000
1000
0000
1000
0000
,
0010
1000
0100
0010
,
1000
0010
0001
0001
,
0010
0001
0100
0010
,
0001
0000
0010
0000
1000
0000
0001
1000
,
0000
0100
1000
0000
0001
0100
0000
0010
,
0000
0000
0100
0000
0001
1000
0000
0001
,
1000
0000
0001
1000
0001
1000
0001
0100
,
0010
0000
0000
0000
1001
0000
1000
0010
,
0000
0010
1000
0000
0010
0100
0000
0110
,
0000
0000
0000
0000
1001
0000
0001
0010
,
0000
0010
0001
0000
0010
0100
0000
0110
,
0000
0000
0000
0000
1001
0000
1000
0100
,
0000
0100
1000
0000
0100
0010
0000
0110
,
0000
0000
0000
0000
0001
1000
0000
0001
,
1000
0000
0001
0000
1000
0001
1000
0000
,
0200
0000
0300
0000
1001
0000
0001
0010
,
0000
0010
0001
0000
0010
0100
0000
0110
,
0000
0000
0000
0000
1001
0000
1000
0010
,
0000
0010
1000
0000
0010
0100
0000
0110
,
0000
0000
0000
0000
1001
0000
0001
0100
,
0000
0100
0001
0000
0100
0010
0000
0110
,
0000
0000
0000
0000
1000
0001
0000
1000
,
0001
0000
1000
0000
0001
1000
0001
1000
,
0200
0000
0000
0300
0000
0000
0011
0000
0000
0000
1000
0000
,
0000
0000
0010
0000
0000
0000
1010
0000
0000
0000
0001
0000
,
0000
0000
0100
0000
0000
0000
0101
0000
0000
0000
1000
0000
,
0000
0000
0100
0000
0000
0000
0010
0000
0001
0000
0100
0000
,
0000
0000
0001
0000
1000
0000
1100
0000
0000
0000
0001
0000
,
0000
0000
0010
0000
0000
0000
0100
0000
1000
0000
0001
0000
,
0010
0000
0001
0000
1000
0000
0010
0000
0100
0000
0001
0000
,
0010
0000
0100
0000
1000
0000
0020
0000
0000
0000
0000
0000
,
0130
0001
0100
0000
0010
0000
1000
0001
,
0000
0001
1000
0000
0100
0010
0000
0011
,
0000
0000
0001
0000
0010
0000
0001
1000
,
0000
1000
0001
0000
0100
0010
0000
1010
,
0000
0000
1000
0000
0001
0000
0010
0100
,
0000
0100
0010
0000
0001
0100
0000
0010
,
0000
1000
0100
1000
0001
0000
1000
0001
,
0000
0100
0001
0100
0010
1000
0001
1000
,
0100
0010
0001
1000
0020
0000
0100
0000
,
0100
0000
0000
0000
0130
0000
0000
0100
0010
0000
0010
0000
0010
0000
0000
0000
,
1000
0001
1001
0000
1000
0010
1000
0000
,
0001
0010
0000
0010
0001
1000
0001
0000
,
0100
0010
1000
0100
,
0010
0001
0000
0001
1000
0000
0010
0000
,
0100
0001
0100
0000
0010
1000
0001
0000
,
0010
0001
1000
0000
0001
0010
0100
0010
,
0100
1000
0010
0100
0002
0000
0000
0003
;

//--------------- dance-single - tikal. in Tolomea (amplified) ----------------
#NOTEDATA:;
#STEPSTYPE:dance-single;
#DESCRIPTION:tikal. in Tolomea (amplified);
#DIFFICULTY:Hard;
#METER:12;
#RADARVALUES:0,0,0,0,0;
#CHARTNAME:Tolomea (amplified);
#NOTES:
0000
0000
0000
0000
,
0000
0000
0000
0000
,
0000
0000
0000
0000
,
0000
0000
0000
0000
,
0000
0000
0000
0000
,
0000
0000
0000
0000
,
0000
0000
0000
0000
,
0000
0000
0000
0000
,
0000
0000
0000
0000
,
1000
0000
0010
0000
1000
0000
0000
0000
1000
0000
0001
0000
1000
0000
0100
0010
,
0001
0000
0001
0000
0001
0000
0000
0000
1000
0000
0001
0000
1000
0000
0010
0100
,
0001
0000
0010
0000
0001
0000
0000
0000
0001
0000
1000
0000
0001
0000
0100
0010
,
1000
0000
1000
0000
1000
0000
0000
0000
0001
0000
1000
0000
0001
0000
0010
0100
,
1000
0010
1000
0100
0010
0001
0100
0001
,
1000
0100
1000
0010
0100
0001
0010
0001
,
1000
0100
1000
0000
0001
0100
0001
0000
1000
0001
1000
0001
1000
0001
1000
0001
,
0200
0000
0000
0310
,
2010
0000
0000
0000
3001
0010
0100
0000
1000
0000
1000
0000
2100
0000
0000
0000
,
3001
0000
1000
0100
1000
0000
1000
0010
1000
0000
0100
0000
1100
0000
0000
0000
,
0012
0000
0000
0000
1003
0010
0100
0001
0010
0000
0001
0000
0102
0000
0000
0000
,
1003
0000
0000
0000
0000
0000
0001
0000
0000
0100
0000
0000
0010
0000
0000
0000
0000
0000
0010
0000
0000
1000
0000
0000
0100
0000
0000
0000
0010
0000
0000
0000
0001
0000
0000
0000
1000
0000
0000
0000
0000
0000
0000
0000
0000
0000
0000
0000
,
2100
0000
0000
0000
3001
0000
0100
0010
1000
0000
1000
0000
2010
0000
0000
0000
,
3001
0000
1000
0010
1000
0000
1000
0100
1000
0000
0010
0000
1010
0000
0000
0000
,
0101
0000
0001
0000
0001
0000
1000
0100
0010
0000
0010
0000
0001
0000
0001
0100
,
0010
0000
1000
0000
0100
0000
0001
0000
0100
0000
1000
0000
0001
1000
0001
1000
,
0001
0000
0100
0000
1000
0000
0100
0000
0010
1000
0010
0000
0100
0001
0000
0100
,
0001
0000
0001
0000
0010
0100
1000
0000
1000
0000
0010
0100
0001
1000
0001
0000
,
1000
0000
0100
0000
0001
0000
0100
0000
0010
0000
0001
0010
0001
1000
0010
0000
,
0100
0000
0010
1000
0001
0010
0001
0000
0100
0000
0001
1000
0002
0000
0000
0000
,
1003
0000
0100
0000
0010
0000
0100
1000
0001
0000
0100
0000
0010
1000
0010
1000
,
0001
0000
0001
0000
0010
0100
1000
0000
1000
0000
0010
0100
0001
1000
0100
0000
,
0010
0000
0001
0010
0000
0001
1000
0010
0100
0000
0001
0100
0000
0001
1000
0100
,
0020
0000
0130
0000
0020
0000
0031
0100
0010
0000
1000
0000
1001
0000
0000
0000
,
0101
0000
0000
0000
0100
0000
0001
0010
0001
0000
1000
0010
1000
0000
0001
0010
,
0001
1000
0100
0000
0100
0000
1000
0010
1000
0000
0001
0100
0000
0001
0100
0000
,
0110
0000
0000
0000
0010
0000
1000
0100
1000
0000
0001
0100
0001
0000
1000
0100
,
1000
0001
0010
0000
0010
0000
0001
0100
0001
1000
0010
1000
0100
0000
0000
0000
,
0010
0000
0100
1000
0000
0100
1000
0000
0010
0000
0100
0001
0100
0000
0010
0000
,
1000
0000
0001
0000
0010
0000
0100
0010
0001
0000
1000
0000
0010
0000
0000
0000
,
0100
0001
0100
0001
1000
0100
1000
0100
0010
0001
0010
0001
1000
0010
1000
0010
,
0200
0000
0000
0000
0020
0000
0000
0330
,
1000
0100
1000
0100
0001
0100
0001
0100
,
1000
0001
1000
0001
1000
0100
1000
0100
,
0010
0001
1000
0100
0010
0001
0010
1000
,
0010
0001
0100
0001
0010
1000
0001
0010
,
0100
0001
1000
0001
0100
1000
0010
1000
,
0100
0001
0010
0001
0100
1000
0010
1000
,
0100
0001
0010
1000
0001
0100
1000
0010
,
0200
0000
0000
0300
2000
0000
0000
3000
0200
0000
0000
0300
0002
0000
0000
0003
1000
0000
0000
0000
0010
0000
0000
0000
1000
0000
0000
0000
0000
0000
0000
0000
,
0100
0000
1000
0000
0100
0000
0000
0000
0010
0000
0001
1000
0001
0000
0000
0000
,
0100
0000
0000
0100
0000
0000
0100
0000
0001
0000
0010
0000
0001
0000
0000
0000
,
0100
0000
0001
0000
0100
0000
0010
1000
0010
0000
1000
0001
1000
0000
0000
0000
,
0100
0000
0000
0100
0000
0000
0100
1000
0001
0000
0100
0000
0001
0000
0100
0000
,
1000
0100
1000
0100
0001
1000
0001
1000
,
0100
0000
0010
0000
0100
0000
0010
0000
0001
0010
0001
0010
0100
1000
0100
1000
,
0010
1000
0010
1000
0001
0100
0001
0100
0020
0000
0000
0000
0130
0000
0001
1000
,
0001
0010
0110
0000
1000
0000
0010
1000
,
0000
1000
0100
0000
0010
0001
0000
0101
,
0000
0000
1000
0000
0001
0000
0010
0001
,
0000
0001
0100
0000
0100
0010
0000
1010
,
0000
0000
1000
0001
1000
0000
0100
1000
,
0000
1000
0010
0000
0100
0001
0000
0011
,
0000
0000
1000
0000
0001
0010
0000
0001
,
0010
0000
0100
1000
0010
0100
0001
0000
,
2000
0000
3001
1000
0001
0000
0010
0001
,
0000
0001
0100
0000
0010
1000
0000
1100
,
0000
0000
0001
0000
1000
0000
0010
1000
,
0000
1000
0100
0000
0100
0010
0000
0011
,
0000
0000
0001
1000
0001
0000
0100
0001
,
0000
0001
0010
0000
0100
1000
0000
1010
,
0000
0000
0001
0000
1000
0010
1000
0001
,
0100
0001
1000
0100
0010
0100
0010
0001
,
2000
0000
0000
3000
0000
0000
1100
0000
0000
0000
1010
0000
,
0000
0000
0010
0000
0100
0000
0101
0000
0000
0000
0011
0000
,
0000
0000
0010
0000
0100
0000
1100
0000
0000
0000
1010
0000
,
0000
0000
0010
0000
0100
0000
0001
0000
0010
0000
1000
0000
,
0000
0000
0010
0000
0001
0000
0011
0000
0000
0000
0101
0000
,
0000
0000
0100
0000
0010
0000
1000
0000
0100
0000
0001
0000
,
0100
0000
0000
0000
1000
0000
0000
0000
0010
0000
0000
0000
0100
0000
0000
0001
0000
0000
0000
0000
0000
0100
0000
0000
,
0001
0000
1000
0100
0010
0100
1000
0001
,
0200
0000
0310
1000
0001
0000
0001
0010
,
0000
0010
0001
0000
1000
0100
0000
0110
,
0000
0000
0001
0000
1000
0000
1000
0010
,
0000
0010
1000
0000
0001
0100
0000
0110
,
0000
0100
0001
0000
1000
0100
0010
0100
,
0000
0010
0001
0000
1000
0010
0000
0100
,
0000
0010
1000
0001
0010
0001
1000
0100
,
1000
0001
0100
0001
1000
0010
0100
0001
,
0020
0000
0030
0000
0110
0000
0100
0001
,
0000
0001
0100
0000
1000
0010
0000
0110
,
0000
0000
0010
0100
0010
0000
0100
1000
,
0000
1000
0100
0000
0001
0010
0000
0010
,
0100
1000
0100
0000
0110
0000
0010
1000
,
0000
1000
0010
0000
0001
0100
0000
0110
,
0000
0000
0100
0010
1000
0100
0000
1000
,
0100
0000
0010
0001
0100
0010
1000
0000
,
0002
0000
1003
0001
0100
0000
0100
1000
,
0000
1000
0100
0000
0001
0010
0000
0110
,
0000
0000
0010
0100
0010
0000
0100
0001
,
0000
0001
0100
0000
1000
0010
0000
0010
,
0100
0001
0100
0000
0110
0000
0010
0001
,
0000
0001
0010
0000
1000
0100
0000
0110
,
0000
0000
0100
0010
0001
0100
0001
1000
,
0010
1000
0001
0010
0100
0010
0100
1000
,
0002
0000
0000
0003
0000
0000
0101
0000
0000
0000
0011
0000
,
0000
0000
0010
0000
0100
0000
1100
0000
0000
0000
1010
0000
,
0000
0000
0010
0000
0100
0000
0101
0000
0000
0000
0011
0000
,
0000
0000
0010
0000
0100
0000
1000
0000
0010
0000
0001
0000
,
0000
0000
0010
0000
1000
0000
1010
0000
0000
0000
1100
0000
,
0000
0000
0100
0000
0010
0000
0001
0000
0100
0000
1000
0000
,
0100
0000
0001
0000
0010
0000
0100
0000
0001
0000
1000
0000
,
0010
0000
0001
0000
0100
0000
0020
0000
0000
0000
0000
0000
,
1030
0001
1000
0100
0010
0000
0001
0010
,
0100
0010
0001
0000
1000
0010
0000
0110
,
0000
0001
0100
0000
0010
0000
1000
0010
,
0100
0010
1000
0000
0001
0010
0000
0110
,
0000
1000
0100
0010
0001
1000
0001
0100
,
0000
0010
1000
0001
1000
0100
0000
0010
,
0001
0100
0010
1000
0001
0010
0100
0001
,
0100
0010
0001
1000
0001
0100
0010
0100
,
1000
0100
0010
0100
0002
0000
1000
0000
,
1000
0000
0000
0000
1003
0000
0000
1000
0001
0000
0001
0000
0001
0000
0000
0000
,
0100
0010
1001
0000
1000
0010
1000
0000
,
0001
0100
0000
0100
0001
0010
0001
0100
,
0010
1000
0100
0000
0010
0000
0100
1000
,
0100
1000
0000
1000
0010
0000
0100
0001
,
0010
0100
0010
0001
1000
0010
1000
0100
,
0010
0001
0100
0001
1000
0010
0100
0010
,
0001
0010
0100
0010
2000
0000
0000
3000
;

//--------------- dance-single - tikal. in Giudecca (amplified) ----------------
#NOTEDATA:;
#STEPSTYPE:dance-single;
#DESCRIPTION:tikal. in Giudecca (amplified);
#DIFFICULTY:Challenge;
#METER:14;
#RADARVALUES:0,0,0,0,0;
#CHARTNAME:Giudecca (amplified);
#NOTES:
0000
0000
0000
0000
,
0000
0000
0000
0000
,
0000
0000
0000
0000
,
0000
0000
0000
0000
,
0000
0000
0000
0000
,
0000
0000
0000
0000
,
0000
0000
0000
0000
,
0000
0000
0000
0000
,
0000
0000
0000
0000
,
1000
0100
1000
0010
0100
1000
0100
0001
,
0010
0100
0010
0001
0100
0010
1000
0001
,
0010
0100
0001
1000
0010
0100
1000
0001
,
0100
0010
0100
0001
1000
0100
0010
0001
,
1000
1000
0010
0100
0001
0001
0010
0001
,
0100
0100
0010
1000
0100
0100
0010
0001
,
1000
0100
1000
0100
1000
0001
1000
0001
0100
0001
0100
0001
0100
0010
1000
0001
,
0020
0000
0000
0130
,
0210
0000
0000
0000
1300
0010
0100
0000
1100
0000
0100
0000
0210
0000
0000
0000
,
0301
0000
0100
0010
0100
0000
0100
1000
0100
0000
0100
0000
0102
0000
0000
0000
,
0023
0000
0000
0000
0130
0000
0001
0100
0010
0000
0011
0000
0210
0000
0000
0000
,
1300
0000
0000
0000
0000
0000
0100
0000
0000
1000
0000
0000
0010
0000
0000
0000
0000
0000
0100
0000
0000
0001
0000
0000
0010
0000
0000
0000
0001
0000
0000
0000
1000
0000
0000
0000
0200
0000
0000
0000
0000
0000
0000
0000
0000
0300
0000
0000
,
0120
0000
0000
0000
0130
0000
0100
1000
0010
0000
0011
0000
0120
0000
0000
0000
,
1030
0000
0010
0100
0010
0000
0010
0001
0010
0000
0010
0000
2010
0000
0000
0000
,
3100
0000
0110
0000
0011
0000
0001
1000
0010
0000
0110
0000
1010
0000
1000
0001
,
0010
0000
1000
0000
0001
0000
0100
0000
1000
0000
0010
0000
0100
0001
1000
0001
,
1000
0000
1000
0100
0010
0000
0010
0001
0100
0010
0100
0001
0010
0100
1000
0001
,
1000
0000
0010
0000
0001
0010
0100
0001
1000
0001
0010
0100
0010
1000
0001
0100
,
0020
0000
0031
0000
0020
0000
0130
0000
2000
0000
3010
1000
0010
0100
0001
1000
,
0001
0000
0000
0000
0000
0000
0010
0000
0000
0001
0000
0000
0010
0000
0000
0100
0000
0000
1000
0000
0000
0000
0000
0000
0010
0000
0000
0000
0000
0000
0100
0000
0000
0001
0000
0000
1000
0000
0100
0000
1000
0000
0100
0000
0000
1000
0000
0000
,
0001
0000
0100
0010
0100
0000
0001
1000
0001
0010
0100
0000
1000
0010
0100
0010
,
1000
0000
0100
0000
0001
0100
0010
0001
1000
0000
0001
1000
0100
1000
0010
0100
,
0001
0000
0010
0100
0000
0010
0100
1000
0001
0100
0001
0100
0010
1000
0001
1000
,
0200
0000
0301
0000
0200
0000
1300
0001
0010
0000
0100
0000
0110
0000
0000
0000
,
1001
0000
0000
0000
0001
0000
0001
0100
0010
0000
0010
1000
0100
0000
0100
0010
,
0001
0010
0100
0000
0100
0000
1000
0010
0100
0000
0100
0001
0000
0100
0001
0000
,
1001
0000
0000
0000
1000
0000
1000
0100
0010
0000
0010
0001
0100
0000
0100
0010
,
1000
0000
0000
0100
0000
0000
0010
0000
0000
0000
0000
0000
0010
0000
0000
0000
0000
0000
0001
0000
0000
0100
0000
0000
0010
0000
0000
1000
0000
0000
0100
0000
0000
1000
0000
0000
0001
0000
0100
0000
0001
0000
0100
0000
0000
0001
0000
0000
,
1000
0000
1000
0200
0300
0200
0301
0000
1000
0000
0001
0010
0100
0010
0001
0000
,
1000
0000
0001
0000
0100
0000
0010
1000
0001
0000
1000
0000
0100
0000
0000
0000
,
1000
0010
1000
0100
0010
0001
0100
0010
0100
0001
0010
0100
1000
0001
0100
0010
,
2000
0000
0000
0000
0002
0000
0000
3003
,
1000
0010
1000
0100
,
0010
0000
0100
0000
0010
0000
0000
0000
0001
0000
0000
0001
0000
0000
0001
0000
,
1000
0100
1000
0010
,
0100
0000
0010
0000
0100
0000
0000
0000
0001
0000
0000
0001
0000
0000
0001
1000
,
0001
0010
0001
0100
,
0010
0000
0100
0000
0010
0000
0000
0000
1000
0000
0000
1000
0000
0000
1000
0000
,
0001
0000
0100
0000
0001
0010
0001
0000
,
2000
0000
0000
3000
0200
0000
0000
0300
0002
0000
0000
0003
0020
0000
0000
0030
1000
0000
0000
0000
0000
0000
0001
0000
0000
0000
0000
0000
0010
0000
0000
0000
,
0100
0000
0001
0000
0100
0000
0010
0000
0001
0000
0100
0010
0100
0000
0001
0000
,
0010
0000
0100
1000
0000
0100
1000
0000
0001
0000
0000
1000
0000
0000
0010
0000
,
0100
0000
0001
1000
0100
0000
0010
0001
1000
0000
0010
0100
0010
0000
1000
0000
,
0100
0000
0010
0001
0000
0010
0001
1000
0001
0000
0100
0000
0010
0000
0100
0000
,
0001
0000
0010
0000
0100
0000
1000
0001
1000
0000
0010
0000
0100
0000
0010
0000
,
1000
0100
0010
0000
0001
0000
1000
0000
0010
0100
0010
0100
0001
0100
0001
1000
,
0001
1000
0100
0010
0001
1000
0010
0100
0001
1000
0100
0000
0100
0000
0010
0001
,
1000
0010
0100
0000
0110
0000
0000
0000
1010
0000
0000
0000
0010
0000
1000
0000
,
0000
1000
0100
0000
0010
0001
0000
1100
,
0000
0001
0010
0100
1000
0000
1000
0010
,
0000
0010
0100
0000
0100
0001
0000
0011
,
0000
0001
1000
0100
0010
0000
0010
0001
,
0000
0001
0100
0000
0010
1000
0000
0101
,
0000
1000
0010
0100
0001
0010
0100
1000
,
0010
0100
1000
0100
0010
1000
0100
0010
,
0002
0000
1003
0010
0100
0000
0100
0001
,
0000
0001
0010
0000
0100
1000
0000
0011
,
0000
1000
0100
0010
0001
0000
0001
0100
,
0000
0100
0010
0000
0010
1000
0000
1100
,
0000
1000
0001
0010
0100
0000
0001
0100
,
0000
0100
0010
0000
0001
1000
0000
0110
,
0000
1000
0100
0010
0001
0100
0010
0100
,
0001
0010
0100
1000
0010
0100
0010
1000
,
0001
0100
0001
0100
0000
0000
0101
0000
0000
0000
1010
0000
,
1000
0000
0001
1000
0100
0000
1100
0000
0000
0000
0011
0000
,
0001
0000
1000
0001
0100
0000
0101
0000
0000
0000
1010
0000
,
1000
0000
0001
1000
0100
0000
1100
0000
1000
0001
0100
0000
,
0010
0000
1000
0001
0010
0000
0011
0000
0000
0000
1100
0000
,
1000
0000
0001
1000
0010
0000
1010
0000
1000
0000
0100
0000
,
0001
0000
0000
0000
0100
0000
0000
0000
1000
0000
0000
0000
0010
0000
0000
0100
0000
0000
0001
0000
0000
0010
0000
0000
,
0100
0001
1000
0010
0100
1000
0010
0100
,
0002
0000
1003
0100
0010
0000
0010
1000
,
0000
1000
0010
0000
0001
0100
0000
0011
,
0000
0100
0001
1000
0010
0000
0010
0001
,
0000
0001
0010
0000
1000
0100
0000
1010
,
0000
0100
1000
0001
1000
0010
1000
0100
,
0010
0001
0100
0001
0010
0100
0010
1000
,
0010
0100
1000
0001
0100
1000
0001
0010
,
1000
0001
0100
1000
0001
0010
0100
0001
,
0020
0000
0000
0000
0000
0000
0030
0000
1001
0000
0000
0000
1000
0000
0020
0030
,
0000
0000
0020
0030
0001
0000
0000
0000
1000
0000
0010
0000
0000
0000
1100
0000
,
0000
0000
0000
0000
1000
0000
0001
0000
1000
0000
0000
0000
0001
0000
0020
0030
,
0000
0000
0020
0030
1000
0000
0000
0000
0001
0000
0100
0000
0000
0000
0001
0000
,
0010
0000
0100
0000
1000
0000
0000
0000
1001
0000
0000
0000
0001
0000
0200
0300
,
0000
0000
0200
0300
1000
0000
0000
0000
0001
0000
0100
0000
0000
0000
0011
0000
,
0000
0000
0001
1000
0001
0100
0010
0001
,
0010
0100
0001
0010
0100
1000
0010
0100
,
0002
0000
0000
0000
0203
0300
0200
0300
1000
0000
0000
0000
0001
0000
0020
0030
,
0000
0000
0020
0030
1000
0000
0000
0000
0001
0000
0010
0000
0000
0000
0101
0000
,
0000
0000
0000
0000
0001
0000
1000
0000
0001
0000
0000
0000
1000
0000
0020
0030
,
0000
0000
0020
0030
0001
0000
0000
0000
1000
0000
0100
0000
0000
0000
1000
0000
,
0010
0000
0100
0000
0001
0000
0000
0000
1001
0000
0000
0000
0001
0000
0200
0300
,
0000
0000
0200
0300
1000
0000
0000
0000
0001
0000
0100
0000
0000
0000
0011
0000
,
0000
0000
0001
1000
0010
0100
1000
0100
,
0010
1000
0100
0010
0001
0100
1000
0100
,
0002
0000
0000
0000
0000
0000
0000
0000
0000
0003
0000
0000
0011
0000
0000
0000
0000
0000
0000
0000
1100
0000
0000
0000
,
1000
0000
0001
1000
0010
0000
1010
0000
0000
0000
0101
0000
,
0001
0000
1000
0001
0010
0000
0011
0000
0000
0000
1100
0000
,
1000
0000
0001
1000
0010
0000
1010
0000
1000
0001
0010
0000
,
0100
0000
1000
0001
0100
0000
0101
0000
0000
0000
1010
0000
,
1000
0000
0001
1000
0100
0000
1100
0000
1000
0100
1000
0100
,
1000
0000
0010
0000
0100
0000
0001
0000
0010
0000
1000
0000
,
0001
0000
0100
0000
1000
0000
0020
0000
0000
0000
0000
0000
,
0130
0000
0001
0000
1000
0000
0100
0000
0010
0000
0000
0000
0010
0000
0002
0003
,
0000
0000
0002
0003
0100
0000
0000
0000
1000
0000
0010
0000
0000
0000
0101
0000
,
0000
0000
1000
0000
0001
0000
0100
0000
0010
0000
0000
0000
0010
0000
2000
3000
,
0000
0000
2000
3000
0100
0000
0000
0000
0001
0000
0010
0000
0000
0000
1100
0000
,
0000
0001
1000
0100
0010
0001
0100
0001
,
0100
0010
1000
0100
1000
0001
0010
0100
,
0010
1000
0010
0100
1000
0001
0100
1000
,
0001
1000
0100
0001
0010
0100
0001
1000
,
0010
0100
0010
0001
2000
0000
0001
0000
,
0001
0000
0000
0000
3001
0000
0000
0001
1000
0000
1000
0000
1000
0000
0000
0000
,
0100
0010
1001
0000
0001
0010
0001
0000
,
1000
0000
0000
0010
0000
0000
0000
0000
0000
0010
0000
0000
0100
0000
0001
0000
1000
0000
0001
0000
0000
0010
0000
0000
,
0100
0000
0000
1000
0000
0000
0010
0000
0000
0000
0000
0000
0100
0000
0000
0000
0000
0000
0001
0000
0010
0000
0100
0000
,
0010
0001
1000
0001
0100
0000
0010
1000
,
0100
0000
0000
0010
0000
0000
0100
0000
0000
1000
0000
0000
0010
0000
1000
0000
0001
0000
1000
0000
0000
0100
0000
0000
,
0001
1000
0010
0100
1000
0001
0100
0010
,
1000
0000
0010
0000
1000
0000
0001
0000
0010
0000
0001
0000
0200
0000
0000
0000
0000
0000
0000
0000
0000
0300
0000
0000
;

//--------------- dance-double - tikal. (Bonus!) ----------------
#NOTEDATA:;
#STEPSTYPE:dance-double;
#DESCRIPTION:tikal. (Bonus!);
#DIFFICULTY:Hard;
#METER:12;
#RADARVALUES:0,0,0,0,0;
#NOTES:
00000000
00000000
00000000
00000000
,
00000000
00000000
00000000
00000000
,
00000000
00000000
00000000
00000000
,
00000000
00000000
00000000
00000000
,
00000000
00000000
00000000
00000000
,
00000000
00000000
00000000
00000000
,
00000000
00000000
00000000
00000000
,
00000000
00000000
00000000
00000000
,
00000000
00000000
00000000
00000000
,
10000000
00000000
01000000
00000000
10000000
00000000
00000000
00000000
10000000
00000000
00010000
00000000
10000000
00000000
00100000
01000000
,
00010000
00010000
00010000
00000000
00010000
00001000
00000010
00001000
,
00000001
00000000
00000100
00000000
00000001
00000000
00000000
00000000
00000001
00000000
00001000
00000000
00000001
00000000
00000010
00000100
,
00001000
00001000
00001000
00000000
00001000
00010000
00100000
00010000
,
10000000
00100000
01000000
10000000
01000000
00010000
00100000
00001000
,
00010000
00000010
00000100
00001000
00000100
00000001
00000010
00000100
,
00001000
00000100
00001000
00000000
00000010
00001000
00000010
00000000
00010000
00001000
00010000
00000000
00001000
00100000
00001000
00000000
,
02000000
00000000
00000000
03100000
,
20100000
00000000
00000000
00000000
30010000
00100000
01000000
00000000
10000000
00000000
10000000
00000000
12000000
00000000
00000000
00000000
,
03010000
00000000
01000000
00100000
00010000
00000000
00010000
01000000
00100000
00000000
00010000
00000000
00001000
00000000
00000000
00000000
,
00000012
00000000
00000000
00000000
00001003
00000010
00000100
00000001
00000010
00000000
00000001
00000000
00000201
00000000
00000000
00000000
,
00001300
00000000
00000000
00000000
00000000
00000000
00000100
00000000
00000000
00000010
00000000
00000000
00001000
00000000
00000000
00000000
00000000
00000000
00001000
00000000
00000000
00000100
00000000
00000000
00000010
00000000
00000000
00000000
00001000
00000000
00000000
00000000
00010000
00000000
00000000
00000000
00001000
00000000
00000000
00000000
00000000
00000000
00000000
00000000
00000000
00000000
00000000
00000000
,
21000000
00000000
00000000
00000000
30010000
00000000
01000000
00100000
10000000
00000000
10000000
00000000
10200000
00000000
00000000
00000000
,
00310000
00000000
00100000
01000000
00010000
00000000
00010000
00100000
01000000
00000000
00010000
00000000
00001000
00000000
00000000
00000000
,
00000010
00000000
00000001
00000000
00000001
00000000
00001000
00000010
00000100
00000000
00000001
00000000
00000001
00000000
00000010
00000100
,
00001000
00000000
00010000
00000000
00100000
00000000
00001000
00000000
00010000
00000000
01000000
00000000
00100000
00010000
00100000
00010000
,
10000000
00000000
00100000
00000000
00010000
00000000
00100000
00000000
01000000
00010000
01000000
00000000
00010000
00100000
00000000
00001000
,
00010000
00000000
00010000
00000000
00000010
00000100
00001000
00000000
00001000
00000000
00010000
00001000
00000100
00000010
00001000
00000000
,
00000001
00000000
00000010
00000000
00001000
00000000
00000010
00000000
00000100
00000000
00001000
00000010
00001000
00000001
00000010
00000000
,
00000100
00000000
00000010
00000001
00001000
00000010
00010000
00000000
00000100
00000000
00010000
00001000
02000000
00000000
00000000
00000000
,
03010000
00000000
01000000
00000000
00100000
00000000
01000000
00010000
10000000
00000000
01000000
00000000
00100000
00010000
00100000
00010000
,
01000000
00000000
01000000
00000000
00010000
01000000
00001000
00000000
00001000
00000000
00010000
00001000
00000100
00000010
00000100
00000000
,
00000001
00000000
00000000
00001000
00000000
00000000
00001010
00000000
00010000
00000000
00000000
00001000
00000000
00100000
00010000
00000000
,
02000000
00000000
13000000
00000000
02000000
00000000
03100000
01000000
00010000
00000000
10000000
00000000
10010000
00000000
00000000
00000000
,
01010000
00000000
00000000
00000000
00010000
00000000
00100000
00001000
00010000
00000000
00001000
00010000
00000010
00000000
00001000
00000100
,
00010000
00001000
01000000
00000000
00100000
00000000
01000000
00001000
00010000
00000000
00000100
00001000
00000000
00000100
00001000
00000000
,
00001100
00000000
00000000
00000000
00001000
00000000
00000010
00010000
00001000
00000000
00010000
00001000
00100000
00000000
00010000
01000000
,
00001000
00010000
00000100
00000000
00000010
00000000
00000100
00010000
00001000
01000000
00010000
01000000
00200000
00000000
00000000
00000000
,
10300000
00000000
00010000
00100000
00000000
00010000
00100000
00000000
01000000
00000000
00010000
00001000
00010000
00000000
00100000
00000000
,
00010000
00000000
00001000
00000000
00000100
00000000
00000010
00001000
00000001
00000000
00001000
00000000
00000100
00000000
00000000
00000000
,
00000010
00000001
00000010
00000000
00000100
00001000
00000100
00000000
00010000
00001000
00010000
00001000
01000000
00010000
01000000
00100000
,
20000000
00000000
00000000
00000000
00020000
00000000
00000000
30030000
,
10000000
00100000
10000000
01000000
,
00100000
00000000
01000000
00000000
00100000
00000000
00000000
00000000
00010000
00000000
00000000
00010000
00000000
00000000
00010000
00000000
,
00001000
00000100
00001000
00000010
,
00000100
00000000
00000010
00000000
00000100
00000000
00000000
00000000
00000001
00000000
00000000
00000001
00000000
00000000
00000001
00001000
,
00000001
00000010
00000001
00000100
,
00000010
00000000
00000100
00000000
00000010
00000000
00000000
00000000
00001000
00000000
00000000
00001000
00000000
00000000
00001000
00000000
,
00010000
01000000
00010000
00100000
,
02000000
00000000
00000000
03000000
00020000
00000000
00000000
00030000
02000000
00000000
00000000
03000000
20000000
00000000
00000000
30000000
00010000
00000000
00000000
00000000
00100000
00000000
00000000
00000000
00010000
00000000
00000000
00000000
00000000
00000000
00000000
00000000
,
01000000
00001000
01000000
00000000
00010000
00001000
00000010
00000100
,
00000001
00000000
00000000
00000001
00000000
00000000
00000001
00000000
00001000
00000000
00000010
00000000
00001000
00000000
00000000
00000000
,
00000100
00000000
00010000
00000000
00000100
00000000
00100000
00001000
00100000
00000000
00010000
01000000
00010000
00000000
00000000
00000000
,
10000000
00000000
00000000
10000000
00000000
00000000
10000000
00010000
10000000
00000000
01000000
00000000
10000000
00000000
01000000
00000000
,
00010000
01000000
00010000
00001000
00010000
00001000
00000100
00000001
,
00000100
00000000
00000001
00000000
00000010
00000000
00000100
00000000
00001000
00000010
00001000
00000000
00000001
00000100
00000001
00000000
,
00000010
00000100
00001000
00000100
00010000
00001000
01000000
00100000
20000000
00000000
00000000
00000000
31000000
00000000
00010000
00000000
,
00001000
00000000
00011000
00000000
00010000
00000000
00000010
00001000
,
00000000
00001000
00000010
00000000
00000100
00000001
00000000
00000010
,
00000000
00000000
00000100
00000000
00001000
00000000
00000010
00001000
,
00000000
00001000
00000100
00000000
00010000
00001000
00000000
01000000
,
00000000
00000000
00100000
10000000
00010000
00000000
00100000
00010000
,
00000000
00010000
00100000
00000000
01000000
10000000
00000000
00100000
,
00000000
00000000
01000000
00000000
00001000
00010000
00000000
00001000
,
00010000
00000000
00001000
00010000
01000000
00010000
00001000
00000000
,
00200000
00000000
00310000
01000000
00001000
00000000
00100000
00010000
,
00000000
00010000
00100000
00000000
01000000
10000000
00000000
00100000
,
00000000
00000000
01000000
00000000
00010000
00000000
00100000
00010000
,
00000000
00010000
01000000
00000000
00001000
00010000
00000000
00000100
,
00000000
00000000
00000010
00000001
00001000
00000000
00000010
00001000
,
00000000
00001000
00000010
00000000
00000100
00000001
00000000
00000010
,
00000000
00000000
00000100
00000000
00010000
00001000
00000000
00010000
,
00001000
00000000
00010000
00001000
00000100
00001000
00010000
00001000
,
02000000
00000000
00000000
03000000
00000000
00000000
10100000
00000000
00000000
00000000
00010000
00000000
,
00000000
00000000
00100000
00000000
00010000
00000000
00110000
00000000
00000000
00000000
10000000
00000000
,
00000000
00000000
00100000
00000000
01000000
00000000
01010000
00000000
00000000
00000000
10000000
00000000
,
00000000
00000000
01000000
00000000
00010000
00000000
00001000
00000000
00010000
00000000
00000010
00000000
,
00000000
00000000
00001000
00000000
00000100
00000000
00001100
00000000
00000000
00000000
00000001
00000000
,
00000000
00000000
00000100
00000000
00000001
00000000
00001000
00000000
00000010
00000000
00000100
00000000
,
00001000
00000000
00000000
00000000
00000100
00000000
00000000
00000000
00000010
00000000
00000000
00000000
00010000
00000000
00000000
00001000
00000000
00000000
00000000
00000000
00000000
00010000
00000000
00000000
,
00001000
00000000
00010000
00001000
00000100
00001000
00010000
00000000
,
00000020
00000000
00001030
00000100
00010000
00000000
00000100
00001000
,
00000000
00001000
00000100
00000000
00000010
00000001
00000000
00001000
,
00000000
00000010
00010000
00000000
00001000
00000000
01000000
00010000
,
00000000
00010000
01000000
00000000
00100000
10000000
00000000
00010000
,
00000000
00100000
00001000
00000000
00010000
00000100
00001000
00000010
,
00000000
00000100
00000001
00000000
00000100
00001000
00000000
00010000
,
00000000
00000010
00010000
00001000
00100000
00001000
00010000
00000010
,
00010000
00001000
01000000
00100000
10000000
01000000
00100000
00010000
,
02000000
00000000
03000000
00000000
01100000
00000000
01000000
10000000
,
00000000
10000000
01000000
00000000
00010000
00100000
00000000
00101000
,
00000000
00000000
00001000
00010000
00001000
00000000
00000100
00001000
,
00000000
00001000
00000100
00000000
00000001
00000010
00000000
00000100
,
00001000
00000100
00000010
00000000
00000110
00000000
00000100
00000001
,
00000000
00000001
00000100
00000000
00001000
00000010
00000000
00010010
,
00000000
00000000
00010000
00000010
00010000
00001000
00000000
00010000
,
00001000
00000000
00010000
00001000
00000010
00001000
00010000
00000000
,
00000200
00000000
00000300
00000000
00000110
00000000
00000100
00000001
,
00000000
00000001
00000100
00000000
00001000
00000010
00000000
00010010
,
00000000
00000000
00010000
00001000
00010000
00000000
01000000
00010000
,
00000000
00010000
01000000
00000000
10000000
00100000
00000000
01000000
,
00010000
01000000
00100000
00000000
01100000
00000000
01000000
10000000
,
00000000
10000000
01000000
00000000
00010000
00100000
00000000
00101000
,
00000000
00000000
00001000
00100000
00001000
00010000
00000000
00001000
,
00010000
00000000
00001000
00010000
00100000
00010000
00001000
00010000
,
00000200
00000000
00000000
00000300
00000000
00000000
00000011
00000000
00000000
00000000
00001000
00000000
,
00000000
00000000
00000010
00000000
00001000
00000000
00001010
00000000
00000000
00000000
00000001
00000000
,
00000000
00000000
00000010
00000000
00000100
00000000
00001100
00000000
00000000
00000000
00000001
00000000
,
00000000
00000000
00000100
00000000
00001000
00000000
00010000
00000000
00001000
00000000
00100000
00000000
,
00000000
00000000
00010000
00000000
01000000
00000000
01010000
00000000
00000000
00000000
10000000
00000000
,
00000000
00000000
01000000
00000000
10000000
00000000
00010000
00000000
00100000
00000000
01000000
00000000
,
00010000
00000000
01000000
00000000
00100000
00000000
00010000
00000000
00001000
00000000
00000100
00000000
,
00000010
00000000
00000001
00000000
00000100
00000000
00000020
00000000
00000000
00000000
00000000
00000000
,
00001030
00000001
00001000
00000100
00000010
00000000
00000001
00000100
,
00000000
00000100
00000001
00000000
00001000
00000100
00000000
00010000
,
00000000
00001000
01000000
00000000
00100000
00000000
10000000
01000000
,
00000000
01000000
10000000
00000000
00100000
01000000
00000000
00010000
,
00000000
00100000
00010000
01000000
00100000
10000000
01000000
00100000
,
00000000
00001000
00010000
00000100
00000010
00000001
00000000
00000100
,
00000000
00001000
00010000
00000100
00010000
00001000
01000000
00001000
,
00010000
00000100
00000010
00000001
00000100
00000010
00001000
00000100
,
00010000
00001000
01000000
00010000
20000000
00000000
00010000
00000000
,
00010000
00000000
00000000
00000000
30010000
00000000
00000000
00010000
10000000
00000000
10000000
00000000
10000000
00000000
00000000
00000000
,
01000000
00100000
10010000
00000000
00010000
00100000
00010000
00000000
,
01000000
00010000
00000000
00010000
00100000
00001000
00010000
00000000
,
00000100
00001000
00000010
00000000
00000100
00000000
00000001
00000010
,
00000001
00000010
00000000
00000010
00000100
00000000
00001000
00000100
,
00010000
00001000
01000000
00000000
00100000
10000000
01000000
00000000
,
00100000
00010000
01000000
00000000
00100000
00010000
00001000
00010000
,
00000010
00010000
00001000
00010000
00000200
00000000
00000000
00000300
;

//--------------- dance-double - tikal. (Bonus!) ----------------
#NOTEDATA:;
#STEPSTYPE:dance-double;
#DESCRIPTION:tikal. (Bonus!);
#DIFFICULTY:Challenge;
#METER:14;
#RADARVALUES:0,0,0,0,0;
#NOTES:
00000000
00000000
00000000
00000000
,
00000000
00000000
00000000
00000000
,
00000000
00000000
00000000
00000000
,
00000000
00000000
00000000
00000000
,
00000000
00000000
00000000
00000000
,
00000000
00000000
00000000
00000000
,
00000000
00000000
00000000
00000000
,
00000000
00000000
00000000
00000000
,
00000000
00000000
00000000
00000000
,
10000000
00100000
10000000
00010000
10000000
01000000
00100000
00010000
,
01000000
00100000
00010000
00001000
00010000
01000000
00100000
00010000
,
00001000
00000100
00000010
00001000
00000010
00000100
00001000
00000001
,
00000100
00000010
00000001
00000010
00000100
00001000
00010000
00001000
,
00000010
00000010
00000001
00001000
00000010
00000010
00000100
00001000
,
00010000
00010000
00100000
00010000
00001000
00001000
00010000
01000000
,
10000000
01000000
10000000
00000000
00010000
00100000
00010000
00000000
00100000
00001000
00010000
00001000
00010000
00000010
00001000
00000010
,
00000200
00000000
00000000
00000310
,
00002010
00000000
00000000
00000000
00003001
00000010
00000100
00000000
00001100
00000000
00000100
00000000
00000210
00000000
00000000
00000000
,
00010300
00000000
00000010
00001000
00000010
00000000
00010000
00001000
00010000
00000000
00010000
00000000
01000000
00000000
00000000
00000000
,
00120000
00000000
00000000
00000000
10030000
00000000
00100000
01000000
00010000
00000000
01010000
00000000
02100000
00000000
00000000
00000000
,
03001000
00000000
00000000
00000000
00000000
00000000
00100000
00000000
00000000
00010000
00000000
00000000
00100000
00000000
00000000
00000000
00000000
00000000
00001000
00000000
00000000
00010000
00000000
00000000
00001000
00000000
00000000
00000000
00000100
00000000
00000000
00000000
00000010
00000000
00000000
00000000
00001000
00000000
00000000
00000000
00000000
00000000
00000000
00000000
00000000
00000000
00000000
00000000
,
00001200
00000000
00000000
00000000
00000310
00000000
00000001
00001000
00000010
00000000
00001010
00000000
00000120
00000000
00000000
00000000
,
00010030
00000000
00001000
00100000
00001000
00000000
01000000
00010000
01000000
00000000
01000000
00000000
00100000
00000000
00000000
00000000
,
10100000
00000000
00010000
00000000
00010000
00000000
00100000
01000000
00010000
00000000
00001000
00000000
00001000
00000000
00000100
00000010
,
00001000
00000000
00000001
00000000
00000010
00000000
00001000
00000000
00000001
00000000
00000100
00000000
00000010
00000100
00001000
00000100
,
00010000
00000000
00001000
00010000
00000100
00000000
00010000
00001000
01000000
00010000
10000000
00000000
00100000
10000000
00010000
01000000
,
00001000
00000000
00001000
00000000
00010000
00001000
00100000
00000000
00100000
00000000
01000000
00010000
00001000
00010000
00001000
00000100
,
00000020
00000000
00001030
00000000
00000020
00000000
00000130
00000000
00000001
00000000
00000010
00000001
00001000
00000010
00001000
00000100
,
00010000
00000000
00001000
00010000
00001000
01000000
00100000
00000000
00100000
00000000
10000000
01000000
00200000
00000000
00000000
00000000
,
00310000
00000000
01000000
00000000
00100000
00000000
01000000
00010000
00100000
00001000
00010000
00000000
00001000
00010000
00000010
00001000
,
00000100
00000000
00000100
00000000
00000010
00000001
00000100
00000000
00000100
00000000
00000010
00010000
00001000
00010000
00000100
00001000
,
00000010
00000000
00000000
00010010
00000000
00000000
00011000
00000000
00001000
01000000
00100000
00010000
00100000
01000000
00100000
10000000
,
02000000
00000000
03100000
00000000
02000000
00000000
13000000
00100000
01000000
00000000
00010000
00000000
10010000
00000000
00000000
00000000
,
01001000
00000000
00000000
00000000
00001000
00000000
00001000
00100000
00010000
00000000
00010000
00100000
01000000
00000000
01000000
10000000
,
00100000
10000000
01000000
00000000
00100000
00000000
00010000
00001000
00000100
00000000
00000010
00000001
00000000
00001000
00000100
00000000
,
00010100
00000000
00000000
00000000
00010000
00000000
00010000
00000010
00001000
00000000
00001000
00000010
00000100
00000000
00000100
00000001
,
00000010
00000001
00000100
00000000
00000010
00000000
00000100
00001000
00010000
01000000
00100000
01000000
20000000
00000000
00000000
00000000
,
30100000
00000000
10000000
02000000
03000000
02000000
03010000
00000000
00100000
00000000
00001000
00010000
00100000
00010000
00001000
00000000
,
01000000
00000000
00010000
00000000
00001000
00000000
00000010
00000100
00001000
00000100
00000010
00000000
00001000
00000000
00000000
00000000
,
00000001
00000010
00000001
00001000
00000100
00010000
00001000
00010000
00000010
00010000
00001000
01000000
00010000
10000000
00100000
10000000
,
00020000
00000000
00000000
00000000
20000000
00000000
00000000
30030000
,
10000000
00100000
01000000
00100000
00010000
00100000
01000000
00010000
,
00100000
01000000
00010000
00001000
00000100
00000010
00001000
00000001
,
00000010
00001000
00000001
00001000
00000010
00000001
00000100
00000010
,
00001000
00000000
00000001
00000000
00000100
00000000
00001000
00000000
00010000
00000000
00001000
00000000
00000100
00000000
00000001
00001000
,
00000001
00000010
00001000
00000010
00000100
00001000
00010000
00100000
,
01000000
00010000
01000000
10000000
00100000
00010000
00100000
10000000
,
00010000
00100000
00001000
00010000
00000010
00000100
00001000
00000100
,
00000002
00000000
00000000
00000003
00002000
00000000
00000000
00003000
00020000
00000000
00000000
00030000
20000000
00000000
00000000
30000000
00100000
00000000
00000000
00000000
00000000
00000000
10000000
00000000
00000000
00000000
00000000
00000000
00100000
00000000
00000000
00000000
,
01000000
10000000
01000000
00010000
00100000
01000000
00010000
00001000
,
00000100
00000000
00000010
00000000
00000100
00000000
00000001
00000000
00000010
00000000
00000000
00000001
00000000
00000000
00000010
00000000
,
00000100
00000000
00000001
00000000
00000100
00000000
00001000
00000100
00001000
00000000
00000010
00000000
00010000
00000000
00001000
00000000
,
01000000
00000000
00000000
00010000
00000000
00000000
01000000
00100000
10000000
00000000
01000000
00000000
10000000
00000000
00100000
00000000
,
01000000
00010000
00100000
01000000
00010000
00001000
00000010
00000100
,
00001000
00000000
00000010
00000000
00000100
00000000
00000001
00000000
00000010
00000001
00001000
00000010
00001000
00000100
00010000
00001000
,
00100000
00010000
10000000
01000000
00100000
00010000
10000000
00100000
01000000
00010000
10000000
00000000
00100000
00000000
10000000
00010000
,
00100000
00000000
01100000
00000000
11000000
00000000
00010000
00100000
,
00000000
00100000
00010000
00000000
10000000
00100000
00000000
01000000
,
00000000
00010000
00100000
00001000
00010000
00000000
00000010
00001000
,
00000000
00001000
00000010
00000000
00000100
00000001
00000000
00000011
,
00000000
00001000
00000010
00000100
00000001
00000000
00001000
00000010
,
00000000
00000010
00001000
00000000
00000001
00000010
00000000
00000100
,
00000000
00001000
00000010
00010000
00001000
01000000
00010000
01000000
,
00001000
00010000
00000100
00010000
00000010
00001000
00010000
00001000
,
00000010
00010000
00001000
00010000
00000100
00000000
00001000
00000010
,
00000000
00000010
00001000
00000000
00000001
00001000
00000000
00000100
,
00000000
00010000
00001000
00100000
01000000
00000000
00100000
00010000
,
00000000
00010000
00100000
00000000
01000000
10000000
00000000
10100000
,
00000000
00010000
10000000
00100000
01000000
00000000
00010000
00100000
,
00000000
00100000
00010000
00000000
10000000
00100000
00000000
01000000
,
00000000
00010000
00100000
00001000
00010000
00000100
00001000
00000100
,
00010000
00001000
01000000
00001000
00100000
00010000
00001000
00010000
,
00200000
00000000
00000000
00000000
00000000
00000000
00000000
00000000
00000000
00300000
00000000
00000000
01100000
00000000
00000000
00000000
00000000
00000000
00000000
00000000
10000000
00000000
00000000
00000000
,
01000000
00000000
00010000
00000000
00001000
00000000
00011000
00000000
00000000
00000000
00010000
00000000
,
00001000
00000000
00000100
00000000
00000010
00000000
00000110
00000000
00000000
00000000
00001000
00000000
,
00000001
00000000
00000010
00000000
00000100
00000000
00000001
00000000
00000100
00000000
00001000
00000000
,
00000000
00000000
00000010
00000000
00000100
00000000
00000110
00000000
00000000
00000000
00000001
00000000
,
00000100
00000000
00001000
00000000
00010000
00000000
01000000
00000000
10000000
00000000
00100000
00000000
,
00010000
00000000
00000000
00000000
00100000
00000000
00000000
00000000
10000000
00000000
00000000
00000000
00001000
00000000
00000000
00100000
00000000
00000000
00010000
00000000
00000000
00100000
00000000
00000000
,
00001000
00010000
00000010
00010000
00000100
00001000
00010000
00001000
,
00000100
00010000
00001000
00010000
00000010
00000000
00000100
00000001
,
00000000
00000001
00000100
00000000
00000001
00001000
00000000
00010100
,
00000000
00000100
00010000
00001000
00100000
00000000
01000000
10000000
,
00000000
10000000
01000000
00000000
10000000
00010000
00000000
01001000
,
00000000
00001000
00010000
00000100
00000010
00000001
00000010
00000001
,
00000100
00000001
00000100
00000010
00000100
00001000
00000100
00001000
,
00010000
00100000
01000000
00100000
00010000
00001000
00000100
00001000
,
00010000
01000000
00010000
00001000
00000100
00000001
00001000
00000100
,
00000020
00000000
00000000
00000000
00000000
00000000
00000030
00000000
00000011
00000000
00000000
00000000
00000001
00000000
00000200
00000300
,
00000000
00000000
00000200
00000300
00010000
00000000
00000000
00000000
00000010
00000000
00010000
00000000
00000000
00000000
00011000
00000000
,
00000000
00000000
00000000
00000000
00010000
00000000
00001000
00000000
00010000
00000000
00000000
00000000
00001000
00000000
02000000
03000000
,
00000000
00000000
02000000
03000000
10000000
00000000
00000000
00000000
00010000
00000000
00100000
00000000
00000000
00000000
01000000
00000000
,
10000000
00000000
00010000
00000000
10000000
00000000
00000000
00000000
11000000
00000000
00000000
00000000
10000000
00000000
02000000
03000000
,
00000000
00000000
02000000
03000000
00001000
00000000
00000000
00000000
00100000
00000000
00001000
00000000
00000000
00000000
00011000
00000000
,
00000000
00000000
00001000
00010000
00001000
00100000
00010000
00100000
,
00001000
00010000
00000010
00010000
00000100
00001000
00010000
00001000
,
00000200
00000000
00000000
00000000
00000301
00000000
00000000
00000000
00000101
00000000
00000000
00000000
00000001
00000000
00000020
00000030
,
00000000
00000000
00000020
00000030
00010000
00000000
00000000
00000000
00000100
00000000
00010000
00000000
00000000
00000000
00011000
00000000
,
00000000
00000000
00000000
00000000
00010000
00000000
00001000
00000000
00010000
00000000
00000000
00000000
00001000
00000000
00200000
00300000
,
00000000
00000000
00200000
00300000
10000000
00000000
00000000
00000000
00010000
00000000
01000000
00000000
00000000
00000000
00100000
00000000
,
10000000
00000000
00010000
00000000
10000000
00000000
00000000
00000000
10100000
00000000
00000000
00000000
10000000
00000000
00200000
00300000
,
00000000
00000000
00200000
00300000
00001000
00000000
00000000
00000000
01000000
00000000
00001000
00000000
00000000
00000000
00011000
00000000
,
00000000
00000000
00001000
00010000
00001000
01000000
00010000
01000000
,
00001000
00010000
00000100
00010000
00000010
00001000
00010000
00001000
,
00000020
00000000
00000000
00000000
00000000
00000000
00000000
00000000
00000000
00000030
00000000
00000000
00000110
00000000
00000000
00000000
00000000
00000000
00000000
00000000
00000001
00000000
00000000
00000000
,
00000100
00000000
00001000
00000000
00010000
00000000
00011000
00000000
00000000
00000000
00001000
00000000
,
00010000
00000000
01000000
00000000
00100000
00000000
01100000
00000000
00000000
00000000
00010000
00000000
,
10000000
00000000
00100000
00000000
01000000
00000000
10000000
00000000
01000000
00000000
00010000
00000000
,
00000000
00000000
00100000
00000000
01000000
00000000
01100000
00000000
00000000
00000000
10000000
00000000
,
01000000
00000000
00010000
00000000
00001000
00000000
00000100
00000000
00000001
00000000
00000010
00000000
,
00001000
00000000
00000010
00000000
00000001
00000000
00000100
00000000
00001000
00000000
00010000
00000000
,
01000000
00000000
10000000
00000000
00100000
00000000
00020000
00000000
00000000
00000000
00000000
00000000
,
00031000
00010000
00000100
00001000
00000010
00000000
00000100
00000001
,
00000000
00000001
00000010
00000000
00000100
00001000
00000000
00001010
,
00000000
00000010
00000100
00001000
00010000
00000000
01000000
10000000
,
00000000
10000000
00100000
00000000
01000000
00010000
00000000
00110000
,
00000000
00100000
01000000
00010000
00001000
00010000
00001000
00010000
,
00000010
00010000
00000010
00001000
00000100
00000010
00000001
00001000
,
00000001
00000100
00000010
00000100
00001000
00010000
01000000
00010000
,
00001000
00000010
00001000
00010000
00100000
01000000
00010000
10000000
,
01000000
00100000
00010000
00001000
00000200
00000000
00010000
00000000
,
00010000
00000000
00000000
00000000
00010300
00000000
00000000
00010000
00001000
00000000
01000000
00000000
00001000
00000000
00000000
00000000
,
00010000
00001000
00011000
00000000
01000000
00010000
01000000
00000000
,
00100000
10000000
00000000
10000000
01000000
00100000
00010000
01000000
,
00100000
00010000
00001000
00000000
00000010
00000000
00001000
00010000
,
00001000
00000100
00000000
00000100
00000010
00000000
00000100
00000001
,
00000010
00000100
00001000
00000100
00010000
00001000
00000010
00001000
,
00010000
01000000
00010000
00001000
00010000
00100000
01000000
00010000
,
00100000
00000000
00001000
00000000
00000000
00000000
00010000
00000000
00000010
00000000
00000000
00000000
00000200
00000000
00000000
00000000
00000000
00000000
00000000
00000000
00000000
00000300
00000000
00000000
;
