#TITLE:COZMIC OPERATION;
#SUBTITLE:;
#ARTIST:COSIO;
#TITLETRANSLIT:;
#SUBTITLETRANSLIT:;
#ARTISTTRANSLIT:;
#GENRE:Trance;
#CREDIT:tikal.;
#MUSIC:cozmic.ogg;
#BANNER:bn.png;
#BACKGROUND:bg.png;
#CDTITLE:cdtitle.png;
#SAMPLESTART:0.012;
#SAMPLELENGTH:14.015;
#SELECTABLE:YES;
#OFFSET:-0.012;
#BPMS:0.000=137.000;
#STOPS:;
#BGCHANGES:;
#FGCHANGES:;

//--------------- dance-single - tikal. ----------------
#NOTES:
     dance-single:
     tikal.:
     Challenge:
     11:
     0,0,0,0,0:
0000
0000
0000
0000
,
0000
0000
0000
0000
,
0000
0000
0000
0000
,
0000
0000
0000
0000
,
1000
0000
0001
0000
0001
0000
0000
0000
0100
0010
0100
0001
0000
0000
0000
0000
,
1000
0000
0100
0000
0220
0000
0000
0330
,
0001
0000
1000
0000
1000
0000
0000
0000
0100
0010
0100
1000
0000
0000
0000
0000
,
0001
0000
0100
0000
0220
0000
0000
0330
,
1001
0000
0001
0010
0001
0010
0100
1000
0001
0010
0001
0010
0100
1000
0001
0010
,
0001
0010
0100
1000
0001
0010
0001
0010
0100
1000
0001
0010
0001
0010
0100
1000
,
0001
0100
0001
0100
0010
1000
0001
0100
0001
0100
0010
1000
0001
0100
0001
0100
,
0010
1000
0001
0100
0001
0100
0010
1000
0001
0100
0001
0100
0010
1000
0001
0010
,
0100
1000
0100
1000
0001
0010
0100
1000
0100
1000
0001
0010
0100
1000
0100
1000
,
0001
0010
0100
1000
0100
1000
0001
0010
0100
1000
0100
1000
0001
0100
0010
1000
,
0010
1000
0001
0100
0010
1000
0010
1000
0001
0100
0010
1000
0010
1000
0001
0100
,
0010
1000
0010
1000
0001
0100
0010
1000
0010
1000
0001
0010
0100
1000
0010
0000
,
1010
1000
0000
1010
0012
1100
0003
0001
,
0011
0000
0001
0000
0000
0000
0011
0000
2010
0000
0001
0000
3100
1000
0001
0000
,
0101
0001
0000
0101
2100
0011
3000
1000
,
1100
0000
1000
0000
0000
0000
1100
0000
0102
0000
1000
0000
0013
0000
0010
0001
,
0100
0000
0100
0000
0010
1000
0100
0010
0100
1000
0001
0000
0100
0010
1000
0010
,
0100
0001
0100
0000
0010
0000
1000
0100
0010
0100
1000
0000
0001
1000
0001
0000
,
0010
0001
1000
0001
0010
0000
0100
1000
0010
1000
0100
0010
0001
1000
0000
0000
,
0100
1000
0100
0000
0010
0000
0001
0100
0010
0000
1000
0000
1000
0001
1000
0001
,
0400
0000
0000
0000
,
0000
0000
0000
0000
,
0000
0000
0000
0000
,
0000
0000
0000
0000
0000
0000
0000
0300
,
2010
0001
3000
1100
0102
1000
0000
0013
,
2100
0000
0001
0000
3010
0000
1010
0000
1000
0100
0010
0001
0100
0000
0100
0000
,
0102
1000
0003
0011
2010
0001
0100
3000
,
0012
0000
1000
0000
0103
0000
0101
0000
0001
0000
1000
0000
0100
0010
0100
0000
,
1000
0000
0010
0000
0000
0010
0000
0000
0010
0000
0000
0010
0000
0000
0010
0000
,
0000
0010
0000
0000
0010
0000
0000
0010
0000
0000
0010
0000
0000
0010
0000
0000
,
0100
0000
0000
0100
0000
0000
0100
0000
0000
0100
0000
0000
0100
0000
0000
0100
,
0000
0000
0100
0000
0000
0100
0000
0000
0100
0000
0000
0100
0000
0000
0001
0000
,
0000
1000
0100
0000
1000
0100
0000
0010
0100
0000
0010
0100
0000
0001
0100
0000
,
0001
0100
0000
0010
0100
0000
0010
0100
0000
1000
0001
0000
1000
0001
0000
1000
,
0010
0000
1000
0010
0000
0100
0010
0000
0100
0010
0000
0001
0010
0000
0001
0010
,
0000
0100
0010
0000
0100
0010
0000
1000
0001
0000
1000
0001
0000
0010
0100
1000
,
0001
0000
1000
0010
0100
0001
1000
0001
0100
0010
1000
0001
0100
0001
1000
0010
,
0100
0001
1000
0001
0100
0010
1000
0001
0100
0001
1000
0010
0100
0001
1000
0001
,
0010
0100
1000
0001
0010
0001
1000
0100
0010
0001
1000
0001
0010
0100
1000
0001
,
0010
0001
1000
0100
0010
0001
1000
0001
0010
0100
1000
0001
0010
0001
1000
0010
,
1000
0001
0100
0010
1000
0001
1000
0010
0100
0001
1000
0010
1000
0001
0100
0010
,
1000
0001
1000
0010
0100
0001
1000
0010
1000
0001
0100
0010
1000
0001
1000
0100
,
0010
0001
1000
0100
1000
0001
0010
0100
1000
0001
1000
0100
0010
0001
1000
0100
,
1000
0001
0010
0100
1000
0001
1000
0100
0010
0001
1000
0010
0100
0001
0010
0100
,
1000
0000
0001
0000
0001
0000
0000
0000
0100
0010
0100
0001
1000
0000
0000
0000
,
0100
0000
0010
0000
2002
0000
0000
3003
,
0001
0000
1000
0000
1000
0000
0000
0000
0100
0010
0100
1000
0001
0000
0000
0000
,
0100
0000
0010
0000
2002
0000
0000
3003
,
1000
0000
0001
0000
0001
0000
0000
0000
0100
0010
0100
0002
0010
0000
0000
0000
,
1000
0000
0103
0000
0220
0000
0000
0330
,
0001
0000
1000
0000
1000
0000
0000
0000
0100
0010
0100
2000
0010
0000
0000
0000
,
0001
0000
3100
0000
0220
0000
0000
0330
,
0001
1000
0100
0100
,
1000
0000
0001
0000
0020
0000
0130
0100
,
1000
0001
0100
0100
,
0001
0000
1000
0000
0020
0000
0130
0100
,
0001
0000
0100
0001
0000
0100
0001
0000
0100
0010
0000
0100
0010
0000
0100
1000
,
0000
0100
1000
0000
0100
0010
0000
0100
0010
0000
0100
0001
0000
1000
0001
0000
,
0010
0001
0000
0010
0001
0000
0010
0100
0000
0010
0100
0000
0010
1000
0000
0010
,
1000
0000
0010
0100
0000
0010
0100
0000
0010
0001
0000
1000
0001
0000
0100
0000
,
0010
0010
0010
0010
0010
0010
0010
0010
0010
0010
0010
0010
0010
0010
0010
0010
,
0010
0010
0010
0010
0010
0010
0010
0010
0010
0010
0010
0010
0010
0010
0010
0010
;
