#VERSION:0.83;
#TITLE:Bufu;
#SUBTITLE:;
#ARTIST:Helvetican;
#TITLETRANSLIT:;
#SUBTITLETRANSLIT:;
#ARTISTTRANSLIT:;
#GENRE:Jungle terror;
#CREDIT:tikal.;
#MUSIC:bufu.ogg;
#BANNER:bn.png;
#BACKGROUND:;
#CDTITLE:;
#SAMPLESTART:29.789;
#SAMPLELENGTH:29.785;
#SELECTABLE:YES;
#OFFSET:-0.004;
#BPMS:0.000=128.926;
#STOPS:;
#BGCHANGES:;
#FGCHANGES:;

//--------------- dance-single - tikal. ----------------
#NOTEDATA:;
#STEPSTYPE:dance-single;
#DESCRIPTION:tikal.;
#DIFFICULTY:Hard;
#METER:9;
#RADARVALUES:0,0,0,0,0;
#NOTES:
0000
0000
0000
0000
,
0000
0000
0000
0000
,
0000
0000
0000
0000
,
0000
0000
0000
0000
,
1000
0000
0000
0100
0000
0000
0010
0000
0000
0010
0000
0000
0001
0000
0000
0100
,
0000
0000
0010
0000
0000
1000
0000
0000
0010
0000
0000
0010
0100
0000
0001
0000
,
1000
0000
0000
0100
0000
0000
0001
0000
0000
0100
0000
0000
1000
0000
0000
0010
,
0000
0000
0001
0000
0000
0010
0000
0000
1000
0000
0000
0100
0010
0000
0010
0000
,
0001
0000
0000
0010
0001
0000
1000
0000
0001
0100
0000
0100
0001
0000
1000
0000
,
0001
0010
0000
0010
0100
0000
0010
0100
1000
0000
0001
0000
0100
0010
0000
0000
,
1000
0000
0000
0010
1000
0000
0001
0000
1000
0100
0000
0100
1000
0000
0001
0000
,
1000
0010
0000
0010
0100
0000
0010
0100
0001
0000
1000
0000
0100
0010
0000
0000
,
0001
0010
0001
0010
1000
0010
1000
0010
,
0001
0100
0001
0100
1000
0100
1000
0100
,
0010
1000
0010
0000
1000
0001
1000
0000
0001
0010
0001
0000
0010
0100
0010
0100
,
0020
0100
0100
0130
,
0011
0000
0000
0000
0000
0000
0000
0000
0000
0000
0000
0000
0000
0000
0000
0000
0000
0000
0000
0000
0000
0000
0000
0000
0000
0000
0000
0000
0000
0000
0000
0000
0000
0000
0000
0000
0000
0000
0000
0000
0000
0000
0000
0000
0000
0000
0000
0000
1000
0000
0000
0000
0000
0000
0000
0000
0000
0000
0000
0000
0000
0000
0000
0000
0000
0000
0000
0000
0000
0000
0000
0000
0010
0000
0000
0000
0000
0000
0000
0000
0000
0000
0000
0000
0000
0000
0000
0000
0000
0000
0000
0000
0000
0000
0000
0000
0001
0000
0000
0000
0000
0000
0000
0000
0000
0000
0000
0000
0000
0000
0000
0000
0000
0000
0000
0000
0000
0000
0000
0000
0010
0000
0000
0000
0000
0000
0000
0000
0000
0000
0000
0000
0000
0000
0000
0000
0000
0000
0000
0000
0000
0000
0000
0000
1000
0000
0000
0000
0000
0000
0000
0000
0000
0000
0000
0000
0000
0000
0000
0000
0000
0000
0000
0000
0000
0000
0000
0000
0010
0000
0000
0000
0000
0000
0000
0000
0000
0000
0000
0000
0000
0100
0000
0000
0000
0000
0000
0000
0000
0000
0000
0000
,
0001
0000
0010
0000
0100
0000
0010
0000
1000
0000
0010
0001
1000
0001
0100
0000
,
1010
0000
0000
0000
0000
0000
0000
0000
0000
0000
0000
0000
0000
0000
0000
0000
0000
0000
0000
0000
0000
0000
0000
0000
0000
0000
0000
0000
0000
0000
0000
0000
0000
0000
0000
0000
1000
0000
0000
0000
0000
0000
0000
0000
0000
0000
0000
0000
0001
0000
0000
0000
0000
0000
0000
0000
0000
0000
0000
0000
0000
0000
0000
0000
0000
0000
0000
0000
0000
0000
0000
0000
0010
0000
0000
0000
0000
0000
0000
0000
0000
0000
0000
0000
0000
0000
0000
0000
0000
0000
0000
0000
0000
0000
0000
0000
1000
0000
0000
0000
0000
0000
0000
0000
0000
0000
0000
0000
0000
0000
0000
0000
0000
0000
0000
0000
0000
0000
0000
0000
0010
0000
0000
0000
0000
0000
0000
0000
0000
0000
0000
0000
0000
0000
0000
0000
0000
0000
0000
0000
0000
0000
0000
0000
0001
0000
0000
0000
0000
0000
0000
0000
0000
0000
0000
0000
0000
0100
0000
0000
0000
0000
0000
0000
0000
0000
0000
0000
0010
0000
0000
0000
0000
0000
0000
0000
0000
0000
0000
0000
0000
0100
0000
0000
0000
0000
0000
0000
0000
0000
0000
0000
,
1000
0000
0100
0000
0010
0000
0100
0000
0001
0000
0010
000M
0010
0000
1000
0000
,
1100
0000
0000
0000
0000
0000
0000
0000
0000
0000
0000
0000
0000
0000
0000
0000
0000
0000
0000
0000
0000
0000
0000
0000
0000
0000
0000
0000
0000
0000
0000
0000
0000
0000
0000
0000
0000
0000
0000
0000
0000
0000
0000
0000
0000
0000
0000
0000
0001
0000
0000
0000
0000
0000
0000
0000
0000
0000
0000
0000
0000
0000
0000
0000
0000
0000
0000
0000
0000
0000
0000
0000
0100
0000
0000
0000
0000
0000
0000
0000
0000
0000
0000
0000
0000
0000
0000
0000
0000
0000
0000
0000
0000
0000
0000
0000
1000
0000
0000
0000
0000
0000
0000
0000
0000
0000
0000
0000
0000
0000
0000
0000
0000
0000
0000
0000
0000
0000
0000
0000
0100
0000
0000
0000
0000
0000
0000
0000
0000
0000
0000
0000
0000
0000
0000
0000
0000
0000
0000
0000
0000
0000
0000
0000
0001
0000
0000
0000
0000
0000
0000
0000
0000
0000
0000
0000
0000
0000
0000
0000
0000
0000
0000
0000
0000
0000
0000
0000
0100
0000
0000
0000
0000
0000
0000
0000
0000
0000
0000
0000
0000
0010
0000
0000
0000
0000
0000
0000
0000
0000
0000
0000
,
1000
0000
0100
0000
0010
0000
0100
0000
0001
0000
0100
1000
0001
1000
0010
0000
,
0101
0000
0000
0000
0000
0000
0000
0000
0000
0000
0000
0000
0000
0000
0000
0000
0000
0000
0000
0000
0000
0000
0000
0000
0000
0000
0000
0000
0000
0000
0000
0000
0000
0000
0000
0000
0001
0000
0000
0000
0000
0000
0000
0000
0000
0000
0000
0000
1000
0000
0000
0000
0000
0000
0000
0000
0000
0000
0000
0000
0000
0000
0000
0000
0000
0000
0000
0000
0000
0000
0000
0000
0100
0000
0000
0000
0000
0000
0000
0000
0000
0000
0000
0000
0000
0000
0000
0000
0000
0000
0000
0000
0000
0000
0000
0000
0001
0000
0000
0000
0000
0000
0000
0000
0000
0000
0000
0000
0000
0000
0000
0000
0000
0000
0000
0000
0000
0000
0000
0000
0100
0000
0000
0000
0000
0000
0000
0000
0000
0000
0000
0000
0000
0000
0000
0000
0000
0000
0000
0000
0000
0000
0000
0000
1000
0000
0000
0000
0000
0000
0000
0000
0000
0000
0000
0000
0000
0010
0000
0000
0000
0000
0000
0000
0000
0000
0000
0000
0100
0000
0000
0000
0000
0000
0000
0000
0000
0000
0000
0000
0000
0010
0000
0000
0000
0000
0000
0000
0000
0000
0000
0000
,
0001
0000
0010
0000
0100
0000
0001
1000
0001
0000
0010
0000
0100
0000
1000
0000
,
1100
0000
0000
0000
0000
0000
0000
0000
0000
0000
0000
0000
0000
0000
0000
0000
0000
0000
0000
0000
0000
0000
0000
0000
0000
0000
0000
0000
0000
0000
0000
0000
0000
0000
0000
0000
1000
0000
0000
0000
0000
0000
0000
0000
0000
0000
0000
0000
0100
0000
0000
0000
0000
0000
0000
0000
0000
0000
0000
0000
M000
0000
0000
0000
0000
0000
0000
0000
0000
0000
0000
0000
0100
0000
0000
0000
0000
0000
0000
0000
0000
0000
0000
0000
0000
0000
0000
0000
0000
0000
0000
0000
0000
0000
0000
0000
0001
0000
0000
0000
0000
0000
0000
0000
0000
0000
0000
0000
0000
0000
0000
0000
0000
0000
0000
0000
0000
0000
0000
0000
0010
0000
0000
0000
0000
0000
0000
0000
0000
0000
0000
0000
000M
0000
0000
0000
0000
0000
0000
0000
0000
0000
0000
0000
0010
0000
0000
0000
0000
0000
0000
0000
0000
0000
0000
0000
0000
0000
0000
0000
0000
0000
0000
0000
0000
0000
0000
0000
1000
0000
0000
0000
0000
0000
0000
0000
0000
0000
0000
0000
0000
0001
0000
0000
0000
0000
0000
0000
0000
0000
0000
0000
,
0010
0000
1000
0000
0001
0000
1000
0000
0010
0000
0001
1000
0100
0010
0100
1000
,
0001
0000
0000
0000
0000
0000
0000
0000
0000
0000
0000
0000
0000
0000
0000
0000
0000
0000
0000
0000
0000
0000
0000
0000
0000
0000
0000
0000
0000
0000
0000
0000
0000
0000
0000
0000
0001
0000
0000
0000
0000
0000
0000
0000
0000
0000
0000
0000
0010
0000
0000
0000
0000
0000
0000
0000
0000
0000
0000
0000
000M
0000
0000
0000
0000
0000
0000
0000
0000
0000
0000
0000
0010
0000
0000
0000
0000
0000
0000
0000
0000
0000
0000
0000
0000
0000
0000
0000
0000
0000
0000
0000
0000
0000
0000
0000
1000
0000
0000
0000
0000
0000
0000
0000
0000
0000
0000
0000
0000
0000
0000
0000
0000
0000
0000
0000
0000
0000
0000
0000
0100
0000
0000
0000
0000
0000
0000
0000
0000
0000
0000
0000
M000
0000
0000
0000
0000
0000
0000
0000
0000
0000
0000
0000
0100
0000
0000
0000
0000
0000
0000
0000
0000
0000
0000
0000
0000
0001
0000
0000
0000
0000
0000
0000
0000
0000
0000
0000
1000
0000
0000
0000
0000
0000
0000
0000
0000
0000
0000
0000
0000
0001
0000
0000
0000
0000
0000
0000
0000
0000
0000
0000
,
0010
0000
1000
0000
0001
0000
1000
0000
0010
0000
0001
00M0
0001
0000
0100
0000
,
1010
0000
0000
0000
0000
0000
0000
0000
0000
0000
0000
0000
0000
0000
0000
0000
0000
0000
0000
0000
0000
0000
0000
0000
0000
0000
0000
0000
0000
0000
0000
0000
0000
0000
0000
0000
1000
0000
0000
0000
0000
0000
0000
0000
0000
0000
0000
0000
0010
0000
0000
0000
0000
0000
0000
0000
0000
0000
0000
0000
M000
0000
0000
0000
0000
0000
0000
0000
0000
0000
0000
0000
0010
0000
0000
0000
0000
0000
0000
0000
0000
0000
0000
0000
0000
0000
0000
0000
0000
0000
0000
0000
0000
0000
0000
0000
0001
0000
0000
0000
0000
0000
0000
0000
0000
0000
0000
0000
0000
0000
0000
0000
0000
0000
0000
0000
0000
0000
0000
0000
0100
0000
0000
0000
0000
0000
0000
0000
0000
0000
0000
0000
000M
0000
0000
0000
0000
0000
0000
0000
0000
0000
0000
0000
0100
0000
0000
0000
0000
0000
0000
0000
0000
0000
0000
0000
0000
0000
0000
0000
0000
0000
0000
0000
0000
0000
0000
0000
1000
0000
0000
0000
0000
0000
0000
0000
0000
0000
0000
0000
0000
0001
0000
0000
0000
0000
0000
0000
0000
0000
0000
0000
,
0100
0000
1000
0000
0001
0000
1000
0000
0100
0000
0001
1000
0010
0100
0010
1000
,
0001
0000
0000
0000
0000
0000
0000
0000
0000
0000
0000
0000
0000
0000
0000
0000
0000
0000
0000
0000
0000
0000
0000
0000
0000
0000
0000
0000
0000
0000
0000
0000
0000
0000
0000
0000
0001
0000
0000
0000
0000
0000
0000
0000
0000
0000
0000
0000
0100
0000
0000
0000
0000
0000
0000
0000
0000
0000
0000
0000
000M
0000
0000
0000
0000
0000
0000
0000
0000
0000
0000
0000
0100
0000
0000
0000
0000
0000
0000
0000
0000
0000
0000
0000
0000
0000
0000
0000
0000
0000
0000
0000
0000
0000
0000
0000
1000
0000
0000
0000
0000
0000
0000
0000
0000
0000
0000
0000
0000
0000
0000
0000
0000
0000
0000
0000
0000
0000
0000
0000
0010
0000
0000
0000
0000
0000
0000
0000
0000
0000
0000
0000
M000
0000
0000
0000
0000
0000
0000
0000
0000
0000
0000
0000
0010
0000
0000
0000
0000
0000
0000
0000
0000
0000
0000
0000
0000
0001
0000
0000
0000
0000
0000
0000
0000
0000
0000
0000
1000
0000
0000
0000
0000
0000
0000
0000
0000
0000
0000
0000
0000
0001
0000
0000
0000
0000
0000
0000
0000
0000
0000
0000
,
0100
0000
1000
0000
0001
0000
0020
0000
0000
0000
0130
0010
0100
0000
0100
0000
,
2001
0000
0000
0000
,
0000
0000
0000
0000
0000
0000
0000
0000
0000
0000
0000
3001
0100
0000
0010
0000
,
1002
0000
0000
0000
,
0000
0000
0000
0000
0000
0000
0000
0000
0000
0000
0000
1003
0100
0000
0100
0000
,
1000
0000
0000
0010
0000
0000
0100
0000
0000
0100
0000
0000
0001
0000
0000
0010
,
0000
0000
0100
0000
0000
1000
0000
0000
0100
0000
0000
0100
0010
0000
0001
0000
,
1000
0000
0000
0010
0000
0000
0001
0000
0000
0010
0000
0000
1000
0000
0000
0100
,
0000
0000
0001
0000
0000
0100
0000
0000
1000
0000
0000
0010
0100
0000
0100
0000
,
0001
0000
0100
0010
0000
0000
1010
0000
1010
0000
0000
1000
0001
0000
0010
0001
,
0000
0000
0011
0000
0000
0000
1001
0000
1001
0000
0000
1000
0100
0000
1100
0000
,
1000
0000
0100
0010
0000
0000
0011
0000
0011
0000
0000
0001
1000
0000
0010
1000
,
0000
0000
1010
0000
0000
0000
1001
0000
1001
0000
0000
0001
0100
0000
0101
0000
,
0001
0100
0001
0100
1000
0100
1000
0100
,
0001
0010
0001
0010
1000
0010
1000
0010
,
0100
1000
0100
0000
1000
0001
1000
0000
0001
0100
0001
0000
0100
0010
0100
0010
,
0100
0100
0100
0100
,
1001
0000
0000
0000
2100
0000
3010
0000
0102
0000
0000
0013
0001
0000
1000
0000
,
2010
0000
0000
3100
1000
0000
0001
0000
0100
0000
1000
0000
0100
0000
0001
0000
,
1001
0000
0000
0000
0012
0000
0103
0000
2010
0000
0000
3100
1000
0000
0001
0000
,
0102
0000
0000
0013
0001
0000
1000
0000
0001
0000
0010
000M
0010
0000
1000
0000
,
1001
0000
0000
0000
2010
0000
3100
0000
0012
0000
0000
0103
0001
0000
1000
0000
,
2100
0000
0000
3010
1000
0000
0001
0000
0010
0000
1000
0000
0010
0000
0001
0000
,
1001
0000
0000
0000
0102
0000
0013
0000
2100
0000
0000
3010
1000
0000
0001
0000
,
0012
0000
0100
0000
0103
0000
2010
0000
3100
0000
0010
0000
0001
1000
0001
0000
,
1001
0000
1100
1000
1010
0000
0101
0001
,
0011
0000
0000
0000
1100
0000
1000
0000
0010
0000
0001
0000
0010
1000
0001
0000
,
1001
0000
0101
0001
0011
0000
1100
1000
,
1010
0000
0000
0000
0101
0000
0001
0000
1000
0000
0010
M000
0010
0000
0001
0000
,
1001
0000
1010
1000
1100
0000
0011
0001
,
0101
0000
0000
0000
1010
0000
1000
0000
0100
0000
0001
0000
0100
1000
0001
0000
,
1001
0000
0011
0001
0101
0000
1010
1000
,
2100
0000
0010
0000
3010
0000
0102
0000
0000
0000
0013
0100
0010
0000
0010
0000
,
0001
0000
0000
0010
0000
0000
0100
0000
0000
0100
0000
0000
1000
0000
0000
0010
,
0000
0000
0001
0000
0000
0010
0000
0000
0100
0000
0000
0100
0000
0000
0001
0000
,
1000
0000
0010
0100
0000
0001
0010
0000
0100
0010
0000
0100
1000
0000
0100
0010
,
0000
0000
0001
0000
0000
1000
0000
0000
0001
0000
0100
0001
0100
0000
0010
0000
,
1000
0000
0000
0010
0000
0000
0100
0000
0000
0100
0000
0000
0001
0000
0000
0010
,
0000
0000
1000
0000
0000
0010
0000
0000
0100
0000
0000
0100
0000
0000
1000
0000
,
0001
0000
0010
0100
0000
1000
0010
0000
0100
0010
0000
0100
0001
0000
0100
0010
,
0000
0000
1000
0000
0000
0001
0000
0000
1000
0000
0000
1000
0100
0000
0020
0000
,
0000
0000
0000
0000
,
0000
0000
0000
0000
,
0000
0000
0030
0000
;

//--------------- dance-single - tikal. ----------------
#NOTEDATA:;
#STEPSTYPE:dance-single;
#DESCRIPTION:tikal.;
#DIFFICULTY:Challenge;
#METER:10;
#RADARVALUES:0,0,0,0,0;
#NOTES:
0000
0000
0000
0000
,
0000
0000
0000
0000
,
0000
0000
0000
0000
,
0000
0000
0000
0000
,
1000
0000
0000
0100
0000
0000
0010
0000
0000
0010
0000
0000
0001
0000
0000
0100
,
0000
0000
0010
0000
0000
1000
0000
0000
0010
0000
0000
0010
0100
0001
0100
0010
,
1000
0000
0010
0100
0000
0001
0010
0000
0100
0010
0000
0100
1000
0000
0100
0010
,
0000
0001
0100
0000
0010
0001
0000
0010
1000
0001
0010
0100
1000
0010
1000
0001
,
0100
0000
0001
0010
0100
0010
0001
0000
0100
1000
0000
0100
0001
0000
1000
0010
,
0100
0000
0010
0000
1000
0000
0100
M000
0100
0000
0001
0000
1000
0000
0100
0000
0001
0000
0000
0000
0001
0000
0100
0000
1000
0000
0010
0000
1000
0000
0000
0000
,
0100
0000
1000
0010
0100
0010
1000
0000
0100
0001
0000
0100
1000
0000
0001
0010
,
0100
0000
0010
0000
0001
0000
0100
000M
0100
0000
1000
0000
0001
0000
0100
0000
1000
0000
0000
0000
1000
0000
0100
0000
0001
0000
0010
0000
0100
0000
0000
0000
,
1000
0000
0100
1000
0001
0010
0100
0000
0010
0001
1000
0100
0010
0000
0100
1000
,
0001
0000
1000
0000
0001
0000
0010
000M
0010
0000
1000
0000
0001
0000
0010
0000
1000
0000
0000
0000
1000
0000
0010
0000
0001
0000
1000
0000
0001
0000
0000
0000
,
2000
3010
1000
0010
0100
0001
0100
0001
2000
3001
1000
0001
0100
0010
0100
0010
,
2000
0000
0000
0000
0000
0000
3000
0000
0000
0000
0000
0000
0000
0000
0000
0000
0000
0000
0000
0000
0000
0000
0000
0000
000M
0000
0000
0000
0000
0000
0000
0000
0000
0000
0000
0000
M000
0000
0000
0000
0000
0000
0000
0000
0000
0000
0000
0000
0000
000M
0000
0000
0000
0000
0000
0000
0000
0000
0000
0000
M000
0000
0000
0000
0000
0000
0000
0000
0000
0000
0000
0000
0000
000M
0000
0000
0000
0000
0000
0000
0000
0000
0000
0000
M000
0000
0000
0000
0000
0000
0000
0000
0000
0000
0000
0000
,
1002
0000
0000
0000
0000
0000
0000
0000
0000
0000
0000
0000
0000
0000
0000
0000
0000
0000
0000
0000
0000
0000
0000
0000
0103
0000
0000
0000
0000
0000
0000
0000
0000
0000
0000
0000
0001
0000
0000
0000
0000
0000
0000
0000
0000
0000
0000
0000
0010
0000
0000
0000
0000
0000
0000
0000
0000
0000
0000
0000
0000
0000
0000
0000
0000
0000
0000
0000
0000
0000
0000
0000
0010
0000
0000
0000
0000
0000
0000
0000
0000
0000
0000
0000
0000
0000
0000
0000
0000
0000
0000
0000
0000
0000
0000
0000
0100
0000
0000
0000
0000
0000
0000
0000
0000
0000
0000
0000
0000
0000
0000
0000
0000
0000
0000
0000
0000
0000
0000
0000
0010
0000
0000
0000
0000
0000
0000
0000
0000
0000
0000
0000
0001
0000
0000
0000
0000
0000
0000
0000
0000
0000
0000
0000
1000
0000
0000
0000
0000
0000
0000
0000
0000
0000
0000
0000
0000
0000
0000
0000
0000
0000
0000
0000
0000
0000
0000
0000
0010
0000
0000
0000
0000
0000
0000
0000
0000
0000
0000
0000
M000
0010
0000
0000
0000
0000
0000
0000
0000
0000
0000
0000
,
0001
0000
0010
0001
1000
0000
0010
0000
0100
0000
0010
0100
0001
0010
0100
1000
,
0020
0000
0000
0000
0000
0000
0000
0000
0000
0000
0000
0000
0030
0000
0000
0000
0000
0000
0000
0000
0000
0000
0000
0000
1000
0000
0000
0000
0000
0000
0000
0000
0000
0000
0000
0000
0001
0000
0000
0000
0000
0000
0000
0000
0000
0000
0000
0000
0010
0000
0000
0000
0000
0000
0000
0000
0000
0000
0000
0000
0000
0000
0000
0000
0000
0000
0000
0000
0000
0000
0000
0000
0010
0000
0000
0000
0000
0000
0000
0000
0000
0000
0000
0000
0000
0000
0000
0000
0000
0000
0000
0000
0000
0000
0000
0000
0100
0000
0000
0000
0000
0000
0000
0000
0000
0000
0000
0000
0000
0000
0000
0000
0000
0000
0000
0000
0000
0000
0000
0000
0010
0000
0000
0000
0000
0000
0000
0000
0000
0000
0000
0000
0001
0000
0000
0000
0000
0000
0000
0000
0000
0000
0000
0000
1000
0000
0000
0000
0000
0000
0000
0000
0000
0000
0000
0000
000M
0010
0000
0000
0000
0000
0000
0000
0000
0000
0000
0000
M010
0000
0000
0000
0000
0000
0000
0000
0000
0000
0000
0000
000M
0010
0000
0000
0000
0000
0000
0000
0000
0000
0000
0000
,
0100
0000
0010
1000
0001
0000
0010
0000
0100
0000
1000
0001
1000
0100
0100
0000
,
2001
0000
0000
0000
0000
0000
0000
0000
0000
0000
0000
0000
0000
0000
0000
0000
0000
0000
0000
0000
0000
0000
0000
0000
3100
0000
0000
0000
0000
0000
0000
0000
0000
0000
0000
0000
1000
0000
0000
0000
0000
0000
0000
0000
0000
0000
0000
0000
0010
0000
0000
0000
0000
0000
0000
0000
0000
0000
0000
0000
0000
0000
0000
0000
0000
0000
0000
0000
0000
0000
0000
0000
0010
0000
0000
0000
0000
0000
0000
0000
0000
0000
0000
0000
0000
0000
0000
0000
0000
0000
0000
0000
0000
0000
0000
0000
0100
0000
0000
0000
0000
0000
0000
0000
0000
0000
0000
0000
0000
0000
0000
0000
0000
0000
0000
0000
0000
0000
0000
0000
0010
0000
0000
0000
0000
0000
0000
0000
0000
0000
0000
0000
1000
0000
0000
0000
0000
0000
0000
0000
0000
0000
0000
0000
0001
0000
0000
0000
0000
0000
0000
0000
0000
0000
0000
0000
0000
0000
0000
0000
0000
0000
0000
0000
0000
0000
0000
0000
0010
0000
0000
0000
0000
0000
0000
0000
0000
0000
0000
0000
000M
0010
0000
0000
0000
0000
0000
0000
0000
0000
0000
0000
,
1000
0000
0010
1000
0001
0000
0010
0000
0100
0000
0010
0100
1000
0010
0100
0001
,
0020
0000
0000
0000
0000
0000
0000
0000
0000
0000
0000
0000
0030
0000
0000
0000
0000
0000
0000
0000
0000
0000
0000
0000
0001
0000
0000
0000
0000
0000
0000
0000
0000
0000
0000
0000
1000
0000
0000
0000
0000
0000
0000
0000
0000
0000
0000
0000
0010
0000
0000
0000
0000
0000
0000
0000
0000
0000
0000
0000
0000
0000
0000
0000
0000
0000
0000
0000
0000
0000
0000
0000
0010
0000
0000
0000
0000
0000
0000
0000
0000
0000
0000
0000
0000
0000
0000
0000
0000
0000
0000
0000
0000
0000
0000
0000
0100
0000
0000
0000
0000
0000
0000
0000
0000
0000
0000
0000
0000
0000
0000
0000
0000
0000
0000
0000
0000
0000
0000
0000
0010
0000
0000
0000
0000
0000
0000
0000
0000
0000
0000
0000
1000
0000
0000
0000
0000
0000
0000
0000
0000
0000
0000
0000
0001
0000
0000
0000
0000
0000
0000
0000
0000
0000
0000
0000
M000
0010
0000
0000
0000
0000
0000
0000
0000
0000
0000
0000
001M
0000
0000
0000
0000
0000
0000
0000
0000
0000
0000
0000
M000
0010
0000
0000
0000
0000
0000
0000
0000
0000
0000
0000
,
0100
0000
0010
0001
1000
0000
0001
1000
0001
0000
0010
0100
1000
0010
0100
0000
,
1002
0000
0000
0000
0000
0000
0000
0000
0000
0000
0000
0000
0000
0000
0000
0000
0000
0000
0000
0000
0000
0000
0000
0000
0013
0000
0000
0000
0000
0000
0000
0000
0000
0000
0000
0000
0001
0000
0000
0000
0000
0000
0000
0000
0000
0000
0000
0000
0100
0000
0000
0000
0000
0000
0000
0000
0000
0000
0000
0000
0000
0000
0000
0000
0000
0000
0000
0000
0000
0000
0000
0000
0100
0000
0000
0000
0000
0000
0000
0000
0000
0000
0000
0000
0000
0000
0000
0000
0000
0000
0000
0000
0000
0000
0000
0000
0010
0000
0000
0000
0000
0000
0000
0000
0000
0000
0000
0000
0000
0000
0000
0000
0000
0000
0000
0000
0000
0000
0000
0000
0100
0000
0000
0000
0000
0000
0000
0000
0000
0000
0000
0000
0001
0000
0000
0000
0000
0000
0000
0000
0000
0000
0000
0000
1000
0000
0000
0000
0000
0000
0000
0000
0000
0000
0000
0000
0000
0000
0000
0000
0000
0000
0000
0000
0000
0000
0000
0000
0100
0000
0000
0000
0000
0000
0000
0000
0000
0000
0000
0000
M000
0100
0000
0000
0000
0000
0000
0000
0000
0000
0000
0000
,
0001
0000
0100
0001
1000
0000
0100
0000
0010
0000
0100
0010
0001
0100
0010
1000
,
0200
0000
0000
0000
0000
0000
0000
0000
0000
0000
0000
0000
0300
0000
0000
0000
0000
0000
0000
0000
0000
0000
0000
0000
1000
0000
0000
0000
0000
0000
0000
0000
0000
0000
0000
0000
0001
0000
0000
0000
0000
0000
0000
0000
0000
0000
0000
0000
0100
0000
0000
0000
0000
0000
0000
0000
0000
0000
0000
0000
0000
0000
0000
0000
0000
0000
0000
0000
0000
0000
0000
0000
0100
0000
0000
0000
0000
0000
0000
0000
0000
0000
0000
0000
0000
0000
0000
0000
0000
0000
0000
0000
0000
0000
0000
0000
0010
0000
0000
0000
0000
0000
0000
0000
0000
0000
0000
0000
0000
0000
0000
0000
0000
0000
0000
0000
0000
0000
0000
0000
0100
0000
0000
0000
0000
0000
0000
0000
0000
0000
0000
0000
0001
0000
0000
0000
0000
0000
0000
0000
0000
0000
0000
0000
1000
0000
0000
0000
0000
0000
0000
0000
0000
0000
0000
0000
000M
0100
0000
0000
0000
0000
0000
0000
0000
0000
0000
0000
M100
0000
0000
0000
0000
0000
0000
0000
0000
0000
0000
0000
000M
0100
0000
0000
0000
0000
0000
0000
0000
0000
0000
0000
,
0010
0000
0100
1000
0001
0000
0100
0000
0010
0000
1000
0001
1000
0010
0010
0000
,
2001
0000
0000
0000
0000
0000
0000
0000
0000
0000
0000
0000
0000
0000
0000
0000
0000
0000
0000
0000
0000
0000
0000
0000
3010
0000
0000
0000
0000
0000
0000
0000
0000
0000
0000
0000
1000
0000
0000
0000
0000
0000
0000
0000
0000
0000
0000
0000
0100
0000
0000
0000
0000
0000
0000
0000
0000
0000
0000
0000
0000
0000
0000
0000
0000
0000
0000
0000
0000
0000
0000
0000
0100
0000
0000
0000
0000
0000
0000
0000
0000
0000
0000
0000
0000
0000
0000
0000
0000
0000
0000
0000
0000
0000
0000
0000
0010
0000
0000
0000
0000
0000
0000
0000
0000
0000
0000
0000
0000
0000
0000
0000
0000
0000
0000
0000
0000
0000
0000
0000
0100
0000
0000
0000
0000
0000
0000
0000
0000
0000
0000
0000
1000
0000
0000
0000
0000
0000
0000
0000
0000
0000
0000
0000
0001
0000
0000
0000
0000
0000
0000
0000
0000
0000
0000
0000
0000
0000
0000
0000
0000
0000
0000
0000
0000
0000
0000
0000
0100
0000
0000
0000
0000
0000
0000
0000
0000
0000
0000
0000
000M
0100
0000
0000
0000
0000
0000
0000
0000
0000
0000
0000
,
1000
0000
0100
1000
0001
0000
0100
0000
0010
0000
0100
0010
1000
0100
0010
0001
,
0200
0000
0000
0000
0000
0000
0000
0000
0000
0000
0000
0000
0300
0000
0000
0000
0000
0000
0000
0000
0000
0000
0000
0000
0001
0000
0000
0000
0000
0000
0000
0000
0000
0000
0000
0000
1000
0000
0000
0000
0000
0000
0000
0000
0000
0000
0000
0000
0100
0000
0000
0000
0000
0000
0000
0000
0000
0000
0000
0000
0000
0000
0000
0000
0000
0000
0000
0000
0000
0000
0000
0000
0100
0000
0000
0000
0000
0000
0000
0000
0000
0000
0000
0000
0000
0000
0000
0000
0000
0000
0000
0000
0000
0000
0000
0000
0010
0000
0000
0000
0000
0000
0000
0000
0000
0000
0000
0000
0000
0000
0000
0000
0000
0000
0000
0000
0000
0000
0000
0000
0100
0000
0000
0000
0000
0000
0000
0000
0000
0000
0000
0000
1000
0000
0000
0000
0000
0000
0000
0000
0000
0000
0000
0000
0001
0000
0000
0000
0000
0000
0000
0000
0000
0000
0000
0000
M000
0100
0000
0000
0000
0000
0000
0000
0000
0000
0000
0000
010M
0000
0000
0000
0000
0000
0000
0000
0000
0000
0000
0000
M000
0100
0000
0000
0000
0000
0000
0000
0000
0000
0000
0000
,
0010
0000
0000
0000
0100
0000
0001
0000
1000
0000
0000
0000
0001
0000
1000
0000
0001
0000
0000
0000
0100
0010
0100
0000
0010
0000
0000
0000
1000
0000
0000
0000
,
1002
0000
0000
0000
,
0000
0000
0000
0000
0000
0000
0000
0000
0000
0000
0000
0000
0000
0000
0000
0000
0000
0000
0000
0000
0000
0000
1003
0000
0001
0000
0100
000M
0100
0000
1000
0000
,
2001
0000
0000
0000
,
0000
0000
0000
0000
0000
0000
0000
0000
0000
0000
0000
3001
0100
0000
0100
0000
,
1001
0000
0000
1000
0000
0000
0100
0000
0000
0100
0000
0000
1000
0000
0000
0001
,
0000
0000
0000
0000
0100
0000
0000
0000
0000
0000
0010
0000
0000
0000
0000
0000
0100
0000
0000
0000
0000
0000
0100
0000
0001
0000
0010
000M
0010
0000
1000
0000
,
0001
0000
0010
0100
0000
1000
0010
0000
0100
0010
0000
0100
0001
0000
0100
0010
,
0000
1000
0100
0000
0010
1000
0000
0010
0001
1000
0010
0100
0001
0010
0001
1000
,
0200
0300
1000
0001
0000
0100
0020
0030
0020
1030
0000
0001
0200
0300
0001
1000
,
0000
0100
0020
0030
0100
1000
0020
0130
0020
0030
0100
0001
0020
1030
0020
0030
,
0020
0030
0001
1000
0000
0010
0200
0300
0200
0301
0000
1000
0020
0030
1000
0001
,
0000
0010
0200
0300
0010
0001
0200
0310
0200
0300
0010
1000
0200
0301
0200
0300
,
1000
0100
1000
0100
0010
0001
0010
0001
0100
0010
0100
0010
1000
0010
1000
0010
,
0100
0001
0100
0001
0010
0100
0010
0100
1000
0001
1000
0001
1000
0100
0010
0001
,
1000
0100
1000
0000
0100
0000
0010
0000
0001
0010
0001
0000
1000
0000
0001
0000
1000
0010
1000
0000
0010
0000
0100
0000
0001
0100
0001
0000
1000
0000
0001
0000
,
0M00
0000
0000
0000
0000
0000
0000
0000
0000
0000
0000
0000
0000
0000
0000
0000
0000
0000
0000
0000
0000
0000
0000
0000
00M0
0000
0000
0000
0000
0000
0000
0000
0000
0000
0000
0000
0000
0000
0000
0000
0000
0000
0000
0000
0000
0000
0000
0000
0000
0M00
0000
0000
0000
0000
0000
0000
0000
0000
0000
0000
0000
0000
0000
0000
0000
0000
0000
0000
0000
0000
0000
0000
0000
00M0
0000
0000
0000
0000
0000
0000
0000
0000
0000
0000
0000
0000
0000
0000
0000
0000
0000
0000
0000
0000
0000
0000
0M00
0000
0000
0000
0000
0000
0000
0000
0000
0000
0000
0000
0000
0000
0000
0000
0000
0000
0000
0000
0000
0000
0000
0000
0000
00M0
0000
0000
0000
0000
0000
0000
0000
0000
0000
0000
0000
0000
0000
0000
0000
0000
0000
0000
0000
0000
0000
0000
0000
0M00
0000
0000
0000
0000
0000
0000
0000
0000
0000
0000
0000
0000
0000
0000
0000
0000
0000
0000
0000
0000
0000
0000
00M0
0000
0000
0000
0000
0000
0000
0000
0000
0000
0000
0000
0000
0000
0000
0000
0000
0000
0000
0000
0000
0000
0000
0000
,
1001
0000
0000
0000
2100
0000
3010
0000
0102
0000
0013
0100
2010
0000
3100
0000
,
0012
0000
0103
0010
2100
0000
3010
0000
0102
0000
1003
0100
0010
0000
0001
0000
,
1001
0000
0000
0000
0102
0000
0013
0000
2100
0000
3010
0100
0012
0000
0103
0000
,
2010
0000
3100
0010
0102
0000
0013
0000
0100
0000
1000
0001
1000
0000
0010
0000
,
1001
0000
0000
0001
2010
0000
3100
0000
0012
0000
0103
0010
2100
0000
3010
0000
,
0102
0000
0013
0100
2010
0000
3100
0000
0012
0000
1003
0010
0100
0000
0001
0000
,
1001
0000
0000
0000
0012
0000
0103
0000
2010
0000
3100
0010
0102
0000
0013
0000
,
2100
0000
3010
0001
0010
0000
2100
0000
3010
0000
0100
0001
1000
0100
0010
0000
,
1001
0000
0000
0000
0101
0000
0001
0000
0011
0000
0010
0100
1010
0000
0100
0000
,
1100
0000
0100
0010
0101
0000
1000
0000
0001
0000
0100
0010
1000
0100
0010
0001
,
0200
0300
0000
0000
1010
0000
1000
0000
1100
0000
0100
0010
0101
0000
0010
0000
,
0011
0000
0010
0100
1010
0000
0001
0000
1000
0000
0010
0100
0010
1000
0001
0000
,
1001
0000
0000
1000
0011
0000
0001
0000
0101
0000
0100
0010
1100
0000
0010
0000
,
1010
0000
0010
0100
0011
0000
1000
0000
0001
0000
0010
0100
1000
0010
0100
0001
,
0020
0030
0000
0000
1100
0000
1000
0000
1010
0000
0010
0100
0011
0000
0100
0000
,
0102
0000
0000
0000
0013
0000
1000
0000
0010
0000
0000
0000
0001
0000
0100
0000
0001
0000
0000
0000
1000
0001
1000
0000
0100
0000
0000
0000
0010
0000
0000
0000
,
0001
0000
0010
0100
0000
0000
1000
0000
0000
1000
0100
1000
0001
0000
0010
0100
,
1000
0000
0001
0100
0010
0100
0010
0000
1000
0000
0001
1000
0001
0000
0010
0000
,
0001
0000
0100
0010
0100
1000
0100
0000
0010
0100
0001
0010
0001
0000
0010
0100
,
1000
0000
0010
0100
1000
0100
0010
0000
1000
0000
0001
1000
0001
0000
0001
0000
,
1000
0000
0010
0100
0001
0000
0010
0000
0000
0001
0100
0001
1000
0000
0010
0100
,
0001
0000
1000
0100
0010
0100
0010
0000
0001
0000
1000
0001
1000
0000
0010
0000
,
1000
0000
0100
0010
0100
0001
0100
0000
0010
0100
1000
0010
1000
0000
0010
0100
,
0001
0000
0010
0100
0001
0100
0010
0000
0001
0000
1000
0001
0100
0000
0020
0000
,
0000
0000
0000
0000
,
0000
0000
0000
0000
,
0000
0000
0030
0000
;
