#VERSION:0.83;
#TITLE:Bayoen~;
#SUBTITLE:;
#ARTIST:Kommisar;
#TITLETRANSLIT:;
#SUBTITLETRANSLIT:;
#ARTISTTRANSLIT:;
#GENRE:Chiptune;
#CREDIT:tikal.;
#MUSIC:arle.ogg;
#BANNER:arle-bn.png;
#BACKGROUND:arle-bg.png;
#CDTITLE:cdtitle.png;
#SAMPLESTART:49.453;
#SAMPLELENGTH:14.632;
#SELECTABLE:YES;
#OFFSET:-0.069;
#BPMS:0.000=131.217;
#STOPS:;
#DISPLAYBPM:131.220;
#BGCHANGES:;
#FGCHANGES:;

//--------------- dance-single - tikal. ----------------
#NOTEDATA:;
#STEPSTYPE:dance-single;
#DESCRIPTION:tikal.;
#DIFFICULTY:Medium;
#METER:6;
#RADARVALUES:0,0,0,0,0;
#NOTES:
0000
0000
0000
0000
,
0000
0000
0000
0000
,
0000
0000
0000
0000
,
0000
0000
0000
0000
,
1001
1000
0000
1000
0000
0001
0000
0001
,
0000
1000
0000
1000
0000
0001
0010
0100
,
1000
0001
0000
0001
0000
1000
0000
1000
,
0000
0001
0000
0001
1000
0010
0100
0001
,
0000
0010
0000
0010
0000
0100
0000
0100
,
0000
0010
0000
0010
0000
0100
1000
0001
,
0100
0010
0000
0010
0000
0100
0000
0100
,
1001
0000
0000
0000
1000
0100
0010
0001
,
1000
0000
0100
0000
0010
0100
1000
0000
,
0001
0100
0010
0000
0100
0001
1000
0000
,
0001
0000
0100
0000
0010
0100
0001
0000
,
1000
0000
0100
0000
0010
0000
0001
1000
,
0001
0000
0010
0000
0100
0010
0001
0000
,
1000
0010
0100
0000
0010
1000
0001
0000
,
1000
0000
0010
0000
0100
0010
1000
0000
,
0001
0010
0100
1000
,
0001
0000
0000
0100
0000
0001
0000
0100
0000
0000
0010
0000
0100
0000
0000
0000
,
0010
0000
0000
1000
0000
0010
0000
1000
0000
0000
0100
0000
1000
0000
0000
0000
,
0100
0000
0000
0010
0000
0100
0000
0010
0000
0000
0001
0000
0010
0000
0000
0000
,
0001
0000
0000
0010
0000
0001
0000
0010
0000
0000
0100
0000
0010
0000
0001
0000
,
1000
0000
0000
0100
0000
1000
0000
0100
0000
0000
0010
0000
0100
0000
0000
0000
,
0010
0000
0000
0001
0000
0010
0000
0001
0000
0000
0100
0000
0001
0000
0000
0000
,
0100
0000
0000
0010
0000
0100
0000
0010
0000
0000
1000
0000
0010
0000
0000
0000
,
1000
0000
0000
0010
0000
0000
0100
0000
0001
0000
0000
0000
1001
0000
0000
0000
,
1000
0100
0001
0100
1000
0100
0010
0000
,
0001
0100
1000
0100
0001
0100
0010
0000
,
1000
0010
0001
0010
1000
0010
0100
0000
,
0001
0010
1000
0010
0001
0010
0100
0100
,
1000
0010
0100
0010
0001
0010
0100
0000
,
0001
0010
0100
0010
1000
0010
0100
0000
,
1000
0100
0010
0100
0001
0100
0010
0000
,
0001
0000
0000
0010
0000
0000
0100
0000
1000
0000
0000
0000
1001
0000
0000
0000
,
0001
0010
0100
1000
0001
0010
0100
0010
,
0001
0100
0010
1000
0001
0100
0010
0100
,
0001
1000
0100
0010
0001
1000
0100
0010
,
0200
0000
0000
0000
1300
0100
0010
0001
,
1000
0010
0100
0001
1000
0010
0100
0010
,
1000
0100
0010
0001
1000
0100
0010
0100
,
1000
0001
0100
0010
1000
0001
0100
0010
,
1000
0000
0000
0100
0000
0000
0010
0000
0001
0000
0000
0000
1001
0000
0000
0000
,
1000
0000
0100
0000
0010
0000
0100
1000
,
0001
0000
0100
0000
0010
0000
0100
0001
,
1000
0000
0010
0000
0100
0000
0010
1000
,
0001
0000
0010
0000
0100
0000
0010
0001
,
1000
0000
0100
0000
0001
0000
0100
0010
,
0001
0000
0100
0000
1000
0000
0100
0010
,
1000
0000
0010
0000
0001
0000
0010
0100
,
0001
1000
0002
2000
0000
0000
3003
0000
,
1000
0000
0000
1000
0000
0000
0000
0000
0010
0000
0000
1000
0000
0000
0100
0000
,
0001
0000
0000
0001
0000
0000
0000
0000
0100
0000
0000
0000
1000
0000
0000
0000
,
0001
0000
0000
0001
0000
0000
0100
0000
0010
0000
0010
0000
1000
0000
1000
0000
,
0001
0000
0000
0100
0000
0000
0010
0000
1000
0000
0000
0000
1001
0000
0000
0000
,
0001
0000
0000
0001
0000
0000
0000
0000
0010
0000
0000
0001
0000
0000
0100
0000
,
1000
0000
0000
1000
0000
0000
0000
0000
0100
0000
0000
0000
0001
0000
0000
0000
,
1000
0000
0000
1000
0000
0000
0100
0000
0010
0000
0010
0000
0001
0000
0001
0000
,
1000
0000
0000
0100
0000
0000
0010
0000
0001
0000
0000
0000
2002
0000
0000
0000
,
0000
0000
0000
0000
0000
0000
0000
0000
0000
0000
0000
0000
0000
0000
0000
0000
0000
0000
0000
0000
0000
0000
0000
0000
0000
0000
0000
0000
0000
0000
0000
0000
0000
0000
0000
0000
0000
0000
0000
0000
0000
0000
0000
3003
0000
0000
0000
0000
0000
0000
0000
0000
0000
0000
0000
0000
0000
0000
0000
0000
0000
0000
0000
0000
0000
0000
0000
0000
0000
0000
0000
0000
0000
0000
0000
0000
0000
0000
0000
0000
0000
0000
0000
0000
0000
0000
0000
0000
0000
0000
0000
0000
0000
0000
0000
0000
;

//--------------- dance-single - tikal. ----------------
#NOTEDATA:;
#STEPSTYPE:dance-single;
#DESCRIPTION:tikal.;
#DIFFICULTY:Hard;
#METER:10;
#RADARVALUES:0,0,0,0,0;
#NOTES:
0000
0000
0000
0000
,
0000
0000
0000
0000
,
0000
0000
0000
0000
,
0000
0000
0000
0000
,
2000
0000
3000
0100
0000
0100
1000
0000
2000
0000
3000
0001
0000
0001
1000
0000
,
2000
0000
3000
0010
0000
0010
1000
0000
0001
0000
0010
0000
0100
0000
0010
0000
,
0002
0000
0003
0010
0000
0010
0001
0000
0002
0000
0003
1000
0000
1000
0001
0000
,
0002
0000
0003
0100
0000
0100
0001
0000
1000
0000
0100
0000
0010
0000
0002
0000
,
2003
0000
3000
0010
0000
0010
1000
0000
2000
0000
3000
0001
0000
0001
1000
0000
,
2000
0000
3000
0100
0000
0100
1000
0000
0001
0000
0100
0000
0010
0000
0100
0000
,
0002
0000
0003
0100
0000
0100
0001
0000
0002
0000
0003
1000
0000
1000
0001
0000
,
0002
0000
0003
0010
0000
0010
0001
0000
1000
0000
0010
0000
0100
0000
0002
0000
,
1003
0000
0000
0000
0100
1000
0000
0000
0001
0000
0010
0100
0000
1000
0000
0001
,
1000
0000
0010
1000
0000
0100
0000
0001
0000
1000
0010
0000
0001
0000
1000
0000
,
0001
0000
0100
0001
0000
0001
1000
0100
0000
0000
0010
0100
1000
0000
0001
0000
,
0200
0000
0000
0000
1300
0000
0100
0000
0001
0010
0000
0100
0000
0000
1000
0000
,
1002
0000
2003
0000
3001
0010
0100
1000
,
1000
0010
0100
1000
0000
0001
0000
0010
0000
0010
0000
1000
0010
0000
0100
0000
,
0001
0010
0000
0100
0010
0000
2000
0000
0000
3020
0000
0032
0000
0000
1003
0000
,
0100
0000
0000
0000
0010
0000
0000
0000
0100
0000
0000
1000
0002
0000
0000
0000
,
1003
0100
0010
0001
0000
1000
0000
0001
0000
0001
0010
0000
0100
0000
1000
0000
,
0001
0100
0010
1000
0000
0001
0000
1000
0000
1000
0010
0000
0100
0000
0001
0000
,
1000
0010
0100
0001
0000
1000
0000
0001
0000
0001
0100
0000
0010
0000
1000
0000
,
0001
0010
0100
1000
0000
0001
0000
1000
0000
1000
0100
0000
0010
0000
0001
0000
,
M010
0001
0100
0010
M000
0100
0000
0010
M000
0010
0100
0000
M001
0000
0010
0000
,
010M
1000
0010
0100
000M
0010
0000
0100
000M
0100
0010
0000
100M
0000
0100
0000
,
10M0
0100
0001
0100
00M0
1000
0000
0001
0M00
0001
0010
0001
1M00
0000
0010
0000
,
0100
0000
0000
0001
0000
0100
0010
0000
1000
0000
0000
0000
1001
0000
0000
0000
,
0001
0010
0100
0020
0000
0130
0000
1000
0000
1000
0001
1000
0100
0000
0010
0000
,
0001
0100
0010
0200
0000
0310
0000
1000
0000
1000
0001
1000
0010
0000
0100
0000
,
0001
0010
0100
2000
0000
3010
0000
0100
0000
0100
0001
0100
0010
0000
1000
0000
,
0001
0100
0010
2000
0000
3100
0000
0010
0000
0010
0001
0010
0100
0000
0100
0000
,
1000
0010
0100
0020
0000
0130
0000
0001
0000
0001
1000
0001
0100
0000
0010
0000
,
1000
0100
0010
0200
0000
0310
0000
0001
0000
0001
1000
0001
0010
0000
0100
0000
,
1000
0010
0100
0002
0000
0013
0000
0100
0000
0100
1000
0100
0010
0000
0001
0000
,
0010
0000
0000
0001
0000
0010
0100
0000
1000
0000
0000
0000
1001
0000
0000
0000
,
0001
0010
0100
0010
0100
1000
0001
0100
0010
0100
0001
1000
0100
0010
0001
1000
,
0001
0100
0010
1000
0010
0100
0010
0100
0001
1000
0100
0010
0001
1000
0001
0100
,
0010
1000
0001
0100
0010
0100
0001
1000
0100
0010
0100
0010
0001
1000
0010
0100
,
0002
0000
0000
0000
0000
0000
0003
0000
1000
0100
1000
0010
0100
0001
0010
0001
,
1000
0010
0100
0010
0100
0001
1000
0100
0010
0100
1000
0001
0100
0010
1000
0001
,
1000
0100
0010
0001
0010
0100
0010
0100
1000
0001
0100
0010
1000
0001
1000
0100
,
0010
0001
1000
0100
0010
0100
1000
0001
0100
0010
0100
0010
1000
0001
0010
0100
,
2000
0000
0000
3000
0001
0000
1001
0000
,
1000
0000
0000
0010
0100
0000
0001
0000
0100
0000
0010
0000
1000
0000
0001
0000
,
1000
0000
0000
0100
0010
0000
0001
0000
0010
0000
0100
0000
2000
0000
3002
0000
,
0013
0000
0000
0100
1000
0000
0001
0000
0010
0000
0001
0000
1000
0000
0010
0000
,
0100
0000
0000
0010
1000
0000
0001
0000
0100
0000
0001
0000
2000
0000
3002
0000
,
1003
0000
0000
0100
0010
0000
0001
0000
0010
0100
1000
0000
0100
0000
0010
0000
,
0001
0000
0000
0100
0010
0000
1000
0000
0010
0100
0001
0000
0200
0000
0320
0000
,
1030
0000
0000
0010
0100
0000
0001
0000
0100
0010
1000
0000
0010
0000
0100
0000
,
0001
0000
0010
0100
2000
0000
0002
0000
0000
0000
0000
0000
3003
0000
0000
0000
,
1000
0000
0000
1000
0100
0000
0000
0000
0010
0000
0000
0001
0000
0000
0010
0000
,
0100
0000
0000
0100
1000
0000
0000
0000
1100
0000
0000
0000
0101
0000
0000
0000
,
0001
0000
0000
0001
0100
0000
0010
0000
0100
0001
0000
0100
0001
0000
1000
0100
,
0010
0000
0000
0001
0000
0010
0100
0000
1000
0000
0000
0000
1001
0000
0000
0000
,
0001
0000
0000
0001
0010
0000
0000
0000
0100
0000
0000
1000
0000
0000
0100
0000
,
0010
0000
0000
0010
0001
0000
0000
0000
0011
0000
0000
0000
1010
0000
0000
0000
,
1000
0000
0000
1000
0010
0000
0100
0000
0010
1000
0000
0010
1000
0000
0001
0010
,
0100
0000
0000
1000
0000
0100
0010
0000
0001
0000
0000
0000
2002
0000
0000
0000
,
0000
0000
0000
0000
0000
0000
0000
0000
0000
0000
0000
0000
0000
0000
0000
0000
0000
0000
0000
0000
0000
0000
0000
0000
0000
0000
0000
0000
0000
0000
0000
0000
0000
0000
0000
0000
0000
0000
0000
0000
0000
0000
0000
3003
0000
0000
0000
0000
0000
0000
0000
0000
0000
0000
0000
0000
0000
0000
0000
0000
0000
0000
0000
0000
0000
0000
0000
0000
0000
0000
0000
0000
0000
0000
0000
0000
0000
0000
0000
0000
0000
0000
0000
0000
0000
0000
0000
0000
0000
0000
0000
0000
0000
0000
0000
0000
;

//--------------- dance-single - tikal. ----------------
#NOTEDATA:;
#STEPSTYPE:dance-single;
#DESCRIPTION:tikal.;
#DIFFICULTY:Challenge;
#METER:14;
#RADARVALUES:0,0,0,0,0;
#OFFSET:-0.069;
#BPMS:0.000=131.217
,76.000=262.435
,76.500=131.217
,76.750=65.609
,77.000=262.435
,77.500=131.217
,77.750=65.609
,78.000=262.435
,78.375=131.217
,78.563=65.609
,78.750=131.217
,79.000=262.435
,79.500=131.217
,79.750=65.609
,80.000=131.217
,127.000=262.435
,127.250=131.217
,127.375=65.609
,127.500=262.435
,127.750=131.217
,127.875=65.609
,128.000=131.217
;
#NOTES:
0000
0000
0000
0000
,
0000
0000
0000
0000
,
0000
0000
0000
0000
,
0000
0000
0000
0000
0000
0000
0000
0000
0000
0000
0000
0000
0000
0000
0000
0000
0001
0000
0010
0000
0100
0000
0010
0000
0100
0000
1000
0000
0020
0000
0000
0030
,
1002
0000
0103
0010
1000
0010
0100
0000
0002
0000
0103
0010
1000
0010
0100
0000
,
0002
0000
0103
0010
1000
0010
0100
0000
0002
0000
0103
0001
0020
0000
0230
0000
,
2300
0000
3100
0010
0001
0010
0100
0000
2000
0000
3100
0010
0001
0010
0100
0000
,
2000
0000
3100
0010
0001
0010
0100
0000
1000
0010
0100
0010
0100
0001
0020
0000
,
0032
0000
0013
0100
1000
0100
0010
0000
0002
0000
0013
0100
1000
0100
0010
0000
,
0002
0000
0013
0100
1000
0100
0010
0000
0002
0000
0013
0001
0200
0000
0320
0000
,
2030
0000
3010
0100
0001
0100
0010
0000
2000
0000
3010
0100
0001
0100
0010
0000
,
2000
0000
0000
0000
3000
0000
0100
0000
0000
0000
0100
0000
0010
0000
0000
0000
0001
0000
0010
0000
0100
0000
0010
0000
0100
0000
1000
0000
0020
0000
0000
0030
,
1002
0000
0000
0000
0103
2000
0000
0000
3200
0000
0310
2000
0000
3400
0000
0301
,
0100
0000
0000
0000
0000
0000
0010
0000
0000
0100
0000
0000
0000
0000
0000
0100
2000
0000
0000
0000
0000
3020
0000
0000
0000
0000
0000
0130
0000
0000
0002
0000
0000
0000
0000
0000
1003
0000
0000
0000
0000
0000
0040
0000
0000
0000
0000
0000
,
1030
0000
0001
1000
0000
0100
0010
0200
0000
1300
0001
0010
0100
0000
1000
0000
,
0002
0000
0000
0000
0403
0000
0340
0000
1030
0010
0100
0001
1000
0100
0010
0000
,
1002
0000
0403
0000
0320
1030
0001
1000
,
1000
0100
1000
0010
0000
0001
0000
0010
0000
0010
0000
0100
0004
0000
2003
0000
,
3001
0000
0010
000M
0010
0000
1000
0000
0100
M000
0100
0000
0002
0000
0000
0000
1003
0000
0400
0000
0000
0000
0340
0000
0001
0000
0000
0000
0130
0000
0000
0000
,
2200
0000
0000
3300
0202
0000
0000
0303
0012
0000
0000
1003
2020
0000
0000
3030
,
0001
0010
0100
4000
0000
3010
0000
0001
0000
0001
0010
0100
0001
0000
1000
0000
,
0001
0100
0010
4000
0000
3100
0000
0001
0000
0001
0100
0010
0001
0000
1000
0000
,
0010
1000
0100
0004
0000
0103
0000
1000
0000
1000
0010
0100
0001
0000
0010
0000
,
0100
1000
0010
0004
0000
0013
0000
1000
0000
1000
0100
0010
0001
0000
0100
0000
,
M001
0010
0100
0004
M000
0103
0000
0010
M000
0010
0100
0010
M001
0000
0100
0000
,
100M
0100
0010
4000
000M
3100
0000
0010
000M
0010
0100
0010
100M
0000
0010
0100
,
00M1
0100
1000
0004
00M0
0103
0000
0010
0M00
1000
0010
0001
1M00
0000
0100
0000
,
0010
0000
1000
0200
0000
0310
0002
0000
4003
0000
0000
3000
2002
0000
0000
3003
,
0001
0100
0001
0000
1000
0010
1000
0000
0001
0010
0001
0010
0100
1000
0100
0000
,
1000
0100
1000
0000
0001
0010
0001
0000
1000
0010
1000
0010
0100
0001
0100
0000
,
0001
0010
0001
0000
1000
0100
1000
0000
0001
0100
0001
0100
0010
1000
0010
0000
,
1000
0010
1000
0000
0001
0100
0001
0000
1000
0100
1000
0100
0010
0000
0010
0000
,
0001
0100
1000
0000
1000
0100
0001
0000
1000
0100
0001
0100
1000
0100
0010
0000
,
0001
0010
1000
0000
1000
0010
0001
0000
1000
0010
0001
0010
1000
0010
0100
0000
,
1000
0100
0001
0000
0001
0100
1000
0000
0001
0010
1000
0010
0001
0010
0100
0000
,
0001
0000
1000
0200
0000
0310
0002
0000
4003
0000
0000
3000
2002
0000
0000
3003
,
0001
0010
0100
1000
0001
0010
0100
0010
0001
1000
0010
0100
0001
1000
0010
0100
0010
0100
0001
1000
0100
1000
0001
0100
0010
1000
0001
0010
0100
1000
0001
0100
,
0010
1000
0010
0100
0001
1000
0001
0010
0100
1000
0001
1000
0010
1000
0001
0100
0010
0100
0001
1000
0100
0010
0100
1000
0001
0100
0010
1000
0001
0100
0001
1000
,
0001
0010
0100
0010
0001
1000
0010
0100
0001
1000
0100
0010
0100
1000
0001
1000
0010
0100
0001
1000
0100
0010
0100
1000
0001
0100
0001
1000
0100
1000
0001
0010
,
0400
0040
0000
0000
0000
0000
0000
0000
0000
0000
0000
0000
0300
0030
0000
0000
0010
0001
1000
0010
0100
0001
1000
0100
0010
0100
1000
0001
1000
0010
0100
0001
,
1000
0100
0010
0001
1000
0100
0010
0100
1000
0001
0100
0010
1000
0001
0100
0010
0100
0010
1000
0001
0010
0001
1000
0010
0100
0001
1000
0100
0010
0001
1000
0010
,
0100
0001
0100
0010
1000
0001
1000
0100
0010
0001
1000
0001
0100
0001
1000
0010
0100
0010
1000
0001
0010
0100
0010
0001
1000
0010
0100
0010
0100
0001
1000
0010
,
1000
0001
0010
0100
1000
0001
0100
0010
1000
0001
0010
0100
0010
0001
1000
0001
0100
0010
1000
0001
0010
0100
0010
0001
1000
0010
1000
0001
0010
0001
1000
0100
,
0020
0000
0030
0002
0000
1003
0010
0000
0400
0000
0000
0300
0220
0000
0000
0330
,
1000
0000
0010
M000
0010
0000
0001
0000
0100
000M
0100
0000
1000
0000
0000
0000
0000
0000
0001
0000
0100
0000
0001
0000
1000
0000
0100
0000
0010
0000
0000
0000
,
0001
0000
0010
000M
0010
0000
1000
0000
0100
M000
0100
0000
0001
0000
0000
0000
0000
0000
1000
0000
0100
0000
1000
0000
0040
0000
0000
0000
0430
0000
0000
0000
,
0301
0000
0100
000M
0100
0000
1000
0000
0010
M000
0010
0000
0001
0000
0000
0000
0000
0000
1000
0000
0010
0000
1000
0000
0001
0000
0010
0000
0100
0000
0000
0000
,
1000
0000
0100
M000
0100
0000
0001
0000
0010
000M
0010
0000
1000
0000
0000
0000
0000
0000
0001
0000
0010
0000
0001
0000
0400
0000
0000
0000
0340
0000
0000
0000
,
1030
0000
0001
0100
0001
1000
0010
1000
0001
0010
0100
0010
0100
0000
1000
0000
,
0001
0100
0001
1000
0010
1000
0100
0010
0001
0010
0100
1000
0004
0000
4003
0000
,
3001
0010
0001
1000
0100
1000
0001
0100
0010
1000
0001
0010
0100
0000
0010
0000
,
0001
0100
0010
1000
0100
0010
0002
0000
0003
0000
0000
0000
0000
0000
0000
0000
,
1000
0010
0100
0001
1000
0010
0100
0001
1000
0100
0010
0001
1000
0100
0010
0001
,
1000
0000
0100
0000
1000
0000
0001
0010
0001
0100
0010
1000
0100
1000
0010
0100
0001
0000
1000
0000
0010
0000
1000
0000
0001
0000
1000
0000
0100
0000
1000
0000
,
0001
0000
0010
0000
0100
0000
1000
0000
0010
0000
0100
0000
0001
0000
0010
0000
0100
0000
1000
0M00
1000
0000
0010
0000
0001
00M0
0001
0000
0100
0000
1000
0000
,
0010
0000
0100
0002
0000
1003
0200
0000
0340
0000
0000
0030
0220
0000
0000
0330
,
0001
0010
0100
1000
0001
0010
0100
1000
0001
0100
0010
1000
0001
0100
0010
1000
,
0001
0000
0100
0000
0001
0000
1000
0010
1000
0100
0010
0001
0100
0001
0010
0100
1000
0000
0001
0000
0010
0000
0001
0000
1000
0000
0001
0000
0100
0000
0001
0000
,
1000
0000
0010
0000
0100
0000
0001
0000
0010
0000
0100
0000
1000
0000
0010
0000
0100
0000
0001
0M00
0001
0000
0010
0000
1000
00M0
1000
0000
0100
0000
0001
0000
,
0010
0000
0100
2000
0000
3001
0200
0000
0340
0000
0000
0030
0220
0000
0000
0000
,
0000
0000
0000
0000
0000
0000
0000
0000
0000
0000
0000
0000
0000
0000
0000
0000
0000
0000
0000
0000
0000
0000
0000
0000
0000
0000
0000
0000
0000
0000
0000
0000
0000
0000
0000
0000
0000
0000
0000
0000
0000
0000
0000
0000
0000
0000
0000
0000
0000
0000
0000
0000
0000
0000
0000
0000
0000
0000
0000
0000
0000
0000
0000
0000
0000
0000
0000
0000
0000
0000
0000
0000
0000
0000
0000
0000
0000
0000
0000
0000
0000
0000
0000
0000
0000
0000
0330
0000
0000
0000
0000
0000
0000
0000
0000
0000
0000
0000
0000
0000
0000
0000
0000
0000
0000
0000
0000
0000
0000
0000
0000
0000
0000
0000
0000
0000
0000
0000
0000
0000
0000
0000
0000
000M
0000
0000
0000
0000
0000
0000
0000
0000
M000
0000
0000
0000
0000
0000
0000
0000
0000
0000
0000
0000
0000
0000
0000
0000
0000
0000
0000
0000
0000
0000
0000
0000
0000
0000
0000
0000
0000
0000
0000
0000
0000
0000
0000
0000
0000
0000
0000
0000
0000
0000
0000
0000
0000
0000
0000
0000
0000
0000
0000
0000
0000
0000
0000
0000
0000
0000
0000
0000
;
