#VERSION:0.83;
#TITLE:Bad Encryption;
#SUBTITLE:;
#ARTIST:ZAQUVA respect for teranoid;
#TITLETRANSLIT:;
#SUBTITLETRANSLIT:;
#ARTISTTRANSLIT:;
#GENRE:Neo industrial;
#CREDIT:tikal.;
#MUSIC:benc.ogg;
#BANNER:benc.png;
#BACKGROUND:benc-bg.png;
#CDTITLE:cdtitle.png;
#SAMPLESTART:77.403;
#SAMPLELENGTH:19.200;
#SELECTABLE:YES;
#OFFSET:0.597;
#BPMS:0.000=200.000
,240.000=100.000
,242.000=200.000
,246.000=100.000
,248.000=200.000
,252.000=100.000
,254.000=200.000
,258.000=100.000
,260.000=200.000
,344.000=100.000
,360.000=200.000
;
#STOPS:60.000=1.200;
#WARPS:23.500=8.000,
28.000=16.000,
52.000=8.000
;
#SPEEDS:60.021=4.000=3.979=0,
360.000=8.000=4.000=0
;
#SCROLLS:0.000=1.000,
60.000=0.250,
360.000=0.125
;
#DISPLAYBPM:100.000:200.000;
#BGCHANGES:;
#FGCHANGES:;

//--------------- dance-single - tikal. in Antenora (reduced) ----------------
#NOTEDATA:;
#STEPSTYPE:dance-single;
#DESCRIPTION:tikal. in Antenora (reduced);
#DIFFICULTY:Medium;
#METER:9;
#RADARVALUES:0,0,0,0,0;
#NOTES:
0000
0000
0000
0000
,
0000
0000
0000
0000
,
0000
0000
0000
0000
,
0000
0000
0000
0000
,
0000
0000
0000
0000
,
0000
0000
0000
0000
0000
0000
0000
MMMM
,
0000
0000
0000
0000
,
0000
0000
0000
0000
,
0000
0000
0000
0000
,
0000
0000
0000
0000
,
0000
0000
0000
0000
,
0000
0000
0000
0000
0000
0000
0000
0000
0000
0000
0M00
M000
000M
00M0
0M00
M000
,
000M
00M0
0M00
M000
000M
00M0
0M00
M000
000M
00M0
0M00
M000
000M
00M0
0M00
M000
,
000M
00M0
0M00
M000
000M
00M0
0M00
M000
000M
00M0
0M00
M000
000M
00M0
0M00
M000
,
000M
00M0
0M00
M000
000M
00M0
0M00
M000
0000
0000
0000
0000
0000
0000
0000
0000
,
0000
0000
0000
0000
,
1100
0000
0100
1000
0100
1000
0002
0000
,
0103
0001
0100
0000
0100
0000
0001
1000
,
0010
0000
0100
0000
0010
0000
0000
0000
0010
0000
0000
0000
0010
0000
0000
1000
,
0001
1000
0001
0000
0100
0100
0010
0100
,
0101
0000
0100
0001
0100
0001
2000
0000
,
3100
1000
0100
0000
0100
0000
1000
0001
,
0010
0100
0010
0000
0010
0000
0010
0001
,
0200
0000
0000
0000
,
1300
0100
0010
1000
0010
1000
0002
0000
,
0010
0010
0010
0000
1003
0001
0001
1000
,
0010
0100
0010
0000
0010
0000
0010
1000
,
0001
0100
0100
0001
1000
1000
0100
0010
,
0011
0000
0010
0001
0010
0001
2000
0000
,
0010
0010
0010
0000
3001
1000
0001
1000
,
0100
0000
0000
0100
0000
0000
0100
0000
0010
0000
0010
0000
0001
0000
1000
0000
,
0020
0000
0000
0130
,
0001
0100
0000
0000
0110
0000
1000
0100
,
0000
1000
0100
0000
0110
0001
0000
1000
,
0001
0001
0110
1000
,
0000
1000
0001
0000
0110
0000
1000
0001
,
0010
0000
0000
0010
1001
0000
0001
0100
,
0000
0100
1001
0001
,
0010
0000
0010
0000
1001
0000
1000
0100
,
0000
0000
0100
0000
1001
0000
0001
1000
,
2001
0000
0000
0200
0000
0000
3300
0000
,
0002
0000
0000
0200
0000
0000
0303
0000
,
2000
0000
0000
0020
0000
0000
3030
0000
,
0002
0000
0000
0023
0000
0000
0230
0000
,
1300
1000
0001
0001
,
0100
0000
0000
0000
0100
0000
0000
0000
0010
0000
0000
0010
0100
0000
0010
0000
,
1000
1000
0001
0001
,
0010
0000
0000
0100
0000
0000
1000
0000
0000
0001
0000
0000
0100
0000
0000
0000
,
1000
0100
0010
0000
1000
0100
0010
0000
,
1000
0010
1000
0000
0010
0000
0001
1000
,
0001
0100
0010
0000
0001
0000
0010
0100
,
0001
0000
0000
1001
0000
0000
1000
0000
0100
0000
0100
0000
0010
0000
0100
0000
,
0001
0100
0010
0000
0001
0100
0010
1000
,
0001
0000
0010
0001
1000
0000
0001
1000
,
0001
0010
0100
1000
0001
0100
0010
1000
,
0100
0001
0100
1000
0010
0100
0001
0010
,
0200
0000
0000
0000
,
0000
0000
0000
0000
,
0000
0000
0000
0000
,
1300
0000
0001
0000
0100
0010
0100
0000
0001
0000
1000
0000
1001
0000
0000
0000
,
2200
0000
0000
3300
0001
0100
1000
0100
,
0001
0010
0001
0000
0202
0000
0000
0303
,
1000
0100
0001
0100
1000
0010
1000
0001
,
0022
0000
0000
0033
1000
0010
0001
0010
,
1000
0100
1000
0000
2020
0000
0000
3030
,
0001
0010
1000
0010
0001
1000
1001
0000
,
1000
0010
2000
0000
3010
0100
0020
0000
,
0130
0001
0200
0000
0301
1000
0002
0000
,
0013
0100
0001
0100
1000
0010
0100
1000
,
0100
0000
0100
0010
1000
0001
1001
0000
,
1100
0000
1000
0010
1000
0010
0200
0000
,
0310
0001
0010
1000
0010
0001
0010
0000
,
1010
0000
1000
0100
1000
0100
0020
0000
,
0130
0001
0100
1000
0100
0010
0001
0100
,
0101
0000
0001
0010
0001
0010
0200
0000
,
0310
1000
0010
0001
0010
1000
0010
0000
,
0100
0000
0000
0100
0000
0000
0010
0000
0000
0010
0000
0000
0110
0000
0000
0000
,
2002
0000
0000
0000
0000
0000
0000
0000
3003
0000
0000
0000
1000
0001
1000
0000
,
0002
0010
1003
0100
0020
0100
0031
1000
,
0200
0000
0010
0000
1300
0000
0002
0000
0100
0000
1003
0000
0100
0010
0100
0000
,
2000
0000
0010
0000
3001
0000
0100
0000
0020
0000
0100
0000
1030
0000
0001
0010
,
0200
0000
0010
0000
2300
0000
0001
0000
3020
0000
0130
0000
0001
1000
0001
0000
,
0020
0100
0100
0032
0100
0100
2003
0100
,
3020
0100
0100
2030
0100
0100
3002
0103
,
0110
0000
0000
0110
0000
0000
0110
0000
0000
0110
0000
0000
1000
0000
0001
0000
,
0000
0000
1001
0000
0000
1001
0000
0000
1001
0000
0000
1001
0000
0000
2002
0000
,
0000
0000
0000
0000
0000
0000
0000
0000
3003
0000
0000
0000
0000
0000
1000
0100
,
0020
0000
0000
0032
0000
0000
0023
0000
0230
0000
0000
2300
0000
0000
0000
0000
,
3002
0000
0000
0203
0000
0000
0320
0000
0230
0000
0000
0302
0000
0000
2003
0000
,
3200
0000
0020
0000
,
0000
0000
0000
0330
,
1000
0010
1000
0000
0001
0010
0001
0000
1000
0100
1000
0000
0001
0100
0001
0000
,
0010
0000
0100
1000
0100
0000
0010
0001
0010
0000
0001
1000
0001
1000
0001
0000
,
0100
0010
0100
0001
1000
0001
0010
0000
0110
0000
1001
0000
,
0200
0000
0000
0000
0000
0000
0000
0300
0000
0000
0000
0000
;

//--------------- dance-single - tikal. in Tolomea (reduced) ----------------
#NOTEDATA:;
#STEPSTYPE:dance-single;
#DESCRIPTION:tikal. in Tolomea (reduced);
#DIFFICULTY:Hard;
#METER:11;
#RADARVALUES:0,0,0,0,0;
#OFFSET:0.597;
#BPMS:0.000=200.000
,360.000=100.000
,362.000=200.000
,366.000=100.000
,368.000=200.000
,372.000=100.000
,374.000=200.000
,378.000=100.000
,380.000=200.000
,464.000=100.000
,480.000=200.000
;
#STOPS:180.000=1.200;
#WARPS:23.500=8.000,
31.750=8.000,
40.000=8.000,
48.250=8.000,
56.500=8.000,
64.750=8.000,
73.000=8.000,
81.250=8.000,
89.500=8.000,
97.750=8.000,
106.000=8.000,
114.250=8.000,
122.500=8.000,
130.750=8.000,
139.000=8.000,
147.250=8.000,
155.500=8.000,
163.750=8.000,
172.000=8.000
;
#SPEEDS:0.000=1.000=0.000=0,
180.021=4.000=3.979=0,
480.000=8.000=4.000=0
;
#SCROLLS:0.000=1.000,
23.500=1.500,
176.000=4.000,
177.000=0.250,
480.000=0.125
;
#NOTES:
0000
0000
0000
0000
,
0000
0000
0000
0000
,
0000
0000
0000
0000
,
0000
0000
0000
0000
,
0000
0000
0000
0000
,
0000
0000
0000
0000
,
0000
0000
0000
0000
,
0000
0000
0000
0000
0000
0000
0000
0000
0000
0000
0000
0000
0000
0000
0000
0M00
,
0000
000M
0M00
00M0
0000
M000
0M00
00M0
000M
M000
000M
0M00
00M0
M000
000M
M000
,
0000
0000
0000
0000
,
M000
0M00
0000
M000
0M00
00M0
0000
000M
0M00
00M0
M000
000M
M000
0M00
00M0
000M
,
M000
000M
0000
0000
0000
0000
0000
0000
0000
0000
0000
0000
0000
0000
0000
0000
,
0000
00M0
000M
0M00
0000
000M
0M00
00M0
0000
M000
0M00
00M0
000M
M000
000M
0M00
,
00M0
M000
000M
M000
0000
0000
0000
0000
0000
0000
0000
0000
0000
0000
0000
0000
,
0000
0000
0M00
00M0
M000
0M00
0000
M000
0M00
00M0
0000
000M
0M00
00M0
M000
000M
,
M000
0M00
00M0
000M
M000
000M
0000
0000
0000
0000
0000
0000
0000
0000
0000
0000
,
0000
0000
0000
M000
0M00
00M0
000M
0M00
0000
000M
0M00
00M0
0000
M000
0M00
00M0
,
000M
M000
000M
0M00
0000
0000
0000
0000
0000
0000
0000
0000
0000
0000
0000
0000
,
0000
0000
0000
0000
00M0
000M
0M00
00M0
M000
0M00
0000
M000
0M00
00M0
0000
000M
,
0M00
00M0
M000
000M
M000
0000
0000
0000
0000
0000
0000
0000
0000
0000
0000
0000
,
0000
0000
0000
0000
0000
M000
00M0
M000
0M00
00M0
000M
0M00
0000
000M
0M00
00M0
,
0000
M000
0M00
00M0
000M
M000
0000
0000
0000
0000
0000
0000
0000
0000
0000
0000
,
0000
0000
0000
0000
0000
0000
0M00
000M
00M0
000M
0M00
00M0
M000
0M00
0000
M000
,
0M00
00M0
0000
000M
0M00
00M0
M000
0000
0000
0000
0000
0000
0000
0000
0000
0000
,
0000
0000
0000
0000
0000
0000
0000
00M0
0M00
M000
00M0
M000
0M00
00M0
000M
0M00
,
0000
000M
0M00
00M0
0000
M000
0M00
00M0
0000
0000
0000
0000
0000
0000
0000
0000
,
0000
0000
0000
0000
0000
0000
0000
0000
M000
00M0
0M00
000M
00M0
000M
0M00
00M0
,
M000
0M00
0000
M000
0M00
00M0
0000
000M
0M00
0000
0000
0000
0000
0000
0000
0000
,
0000
0000
0000
0000
0000
0000
0000
0000
0000
0M00
000M
00M0
0M00
M000
00M0
M000
,
0M00
00M0
000M
0M00
0000
000M
0M00
00M0
0000
M000
0000
0000
0000
0000
0000
0000
,
0000
0000
0000
0000
0000
0000
0000
0000
0000
0000
M000
0M00
M000
00M0
0M00
000M
,
00M0
000M
0M00
00M0
M000
0M00
0000
M000
0M00
00M0
0000
0000
0000
0000
0000
0000
,
0000
0000
0000
0000
0000
0000
0000
0000
0000
0000
0000
00M0
000M
0M00
000M
00M0
,
0M00
M000
00M0
M000
0M00
00M0
000M
0M00
0000
000M
0M00
00M0
0000
0000
0000
0000
,
0000
0000
0000
0000
0000
0000
0000
0000
0000
0000
0000
0000
0M00
00M0
M000
0M00
,
M000
00M0
0M00
000M
00M0
000M
0M00
00M0
M000
0M00
0000
0000
0000
0000
0000
0000
,
0000
0000
0000
0000
0000
0000
0000
0000
0000
0000
0000
0000
0000
M000
0M00
00M0
,
000M
0M00
000M
00M0
0M00
M000
00M0
M000
0M00
00M0
000M
0M00
0000
000M
0000
0000
,
0000
0000
0000
0000
0000
0000
0000
0000
0000
0000
0000
0000
0000
0000
00M0
000M
,
0M00
00M0
M000
0M00
M000
00M0
0M00
000M
00M0
000M
0M00
00M0
M000
0M00
0000
0000
,
0000
0000
0000
0000
0000
0000
0000
0000
0000
0000
0000
0000
0000
0000
0000
M000
,
00M0
M000
0M00
00M0
000M
0M00
000M
00M0
0M00
M000
00M0
M000
0M00
00M0
000M
0M00
,
0000
0000
0000
0000
,
0M00
000M
00M0
000M
0M00
00M0
M000
0M00
M000
00M0
0M00
000M
00M0
000M
0M00
00M0
,
M000
0000
0000
0000
,
0000
0000
0000
0000
,
1010
0000
0000
0000
0001
0000
0010
0000
0001
0000
0010
0000
0200
0000
0000
1300
,
0001
0000
0010
0000
0200
0000
0000
0000
1300
0000
0010
0000
0100
0001
0100
0000
,
0010
0000
1000
0000
0010
0000
0000
0000
0100
0000
0000
0000
0100
0000
0000
0010
,
1000
0000
0001
0000
1000
0000
0000
0000
0100
0010
0100
0010
0100
0000
0010
0000
,
0011
0000
0000
0000
1000
0000
0010
0000
1000
0000
0010
0000
0200
0000
0000
0301
,
1000
0000
0010
0000
0200
0000
0000
0000
0301
0000
0010
0000
0100
1000
0100
0000
,
0010
0000
0001
0000
0010
0000
0000
0000
0100
0000
0000
0000
1000
0001
1000
0001
,
0200
0000
0000
0000
,
1300
0000
0100
0000
0010
0000
1000
0000
0010
0000
1000
0000
0200
0000
0310
0001
,
0010
0000
0100
0000
2000
0000
0000
0000
3001
0100
0001
0000
1000
0000
0001
0010
,
0001
0000
0100
0000
0010
0000
0000
0000
0010
0000
0000
0000
1000
0010
1000
0010
,
0100
0000
0001
0100
0001
0000
0010
0000
0100
1000
0100
0000
0010
0000
0000
0000
,
0110
0000
0000
0000
0010
0000
0001
0000
0010
0000
0001
0000
0200
0000
0310
1000
,
0010
0000
0100
0000
0002
0000
0000
0000
1003
0100
1000
0100
1000
0000
0001
0000
,
0100
0000
0000
0100
0000
0000
0100
0000
0010
0000
0010
0000
1000
0001
1000
0001
,
0020
0000
0000
0130
,
1000
0000
0100
0000
0010
0000
0000
0000
0100
0000
1000
0000
0010
0000
0100
0001
,
0100
0010
1000
0000
0001
0010
0100
1000
,
0001
0100
0010
0000
0100
0000
0000
0000
0001
0000
1000
0100
1000
0000
0001
0000
,
1000
0000
0000
0000
0010
0000
0000
0000
0100
0000
0000
0000
0001
0000
0000
0000
0000
0000
0000
0000
0010
0000
0000
0000
0100
0000
0000
0000
0000
0000
1000
0000
0000
0100
0000
0000
0010
0000
0000
0000
0000
0000
0001
0000
0000
0000
0000
0000
,
1000
0000
0010
0000
0100
0000
0001
0000
0000
0000
0000
0000
0100
0000
0000
0010
0000
0000
1000
0000
0000
0001
0000
0000
,
0010
0000
0001
0000
1000
0000
0100
0000
0000
0000
0010
0000
0100
0000
0000
1000
0000
0000
0001
0000
0100
0000
0010
0000
,
1000
0000
0000
0000
0000
0000
0010
0000
0000
0000
0000
0000
0100
0000
0000
0000
0000
0000
0001
0000
0000
0000
0000
0000
1000
0000
0000
0000
0000
0000
0001
0000
0000
0010
0000
0000
0100
0000
0000
0000
0010
0000
0000
0000
0001
0000
0000
0000
,
1000
0000
0000
0000
0010
0000
0000
0000
0100
0000
0000
0000
0001
0000
0000
0000
1000
0000
0000
0000
0100
0000
0000
0000
0020
0000
0000
0000
0000
0000
0000
0000
0000
0000
0000
0000
0031
0000
0000
1000
0000
0000
0001
0000
0000
0000
0000
0000
,
2001
0000
0000
0000
0000
0000
3200
0000
0000
0000
1300
0100
1000
0100
1000
0000
,
0002
0000
0000
0000
0000
0000
0203
0000
0000
0000
0301
0100
0001
0100
0001
0000
,
2000
0000
0000
0000
0000
0000
3020
0000
0000
0000
1030
0010
1000
0010
1000
0000
,
0002
0000
0000
0023
0000
0000
0230
0000
,
1000
1000
0010
0010
,
0001
0000
0000
0000
0001
0000
0000
0000
0310
0000
0000
0010
0100
0000
1000
0000
,
0020
0000
0001
0000
0100
0000
1030
0001
,
0010
0000
0000
0010
0000
0000
0010
0000
0000
0010
0000
0000
0010
0000
0000
0000
,
1001
0000
1000
0100
0001
0100
1000
0000
,
0001
0000
0001
0000
0001
0000
0010
0000
1000
0000
0010
0000
0001
1000
0001
0000
,
1000
1000
0010
0001
0010
1000
0001
0010
,
0100
0000
1000
0001
1000
0000
0010
0000
1000
0001
1000
0000
0100
0000
0010
0001
,
1000
0000
1000
0000
1000
0000
0010
0000
0001
0000
0010
0000
1000
0000
0001
0010
,
0100
0000
0000
0000
1000
0000
1000
0010
0100
0000
0000
0001
1000
0000
0001
0000
,
0010
0000
0100
0000
1000
0000
0001
0000
0100
0010
0100
0000
0001
0000
1000
0000
,
0010
0000
0100
0000
0001
0000
1000
0000
0001
0010
0001
0010
0100
1000
0100
1000
,
0020
0000
0000
0000
,
0000
0000
0000
0000
,
0000
0000
0000
0000
,
0130
0000
0100
0000
0001
0100
0001
1000
0100
1000
0001
0000
0010
0000
0000
0000
,
2200
0000
0000
0000
0000
0000
3300
0000
1000
0000
0100
0000
0010
0000
0100
1000
,
0001
0100
0010
0000
0202
0000
0000
0303
,
0001
0000
0100
0000
0010
0000
0100
0001
1000
0000
0100
0000
0010
0000
0000
0000
,
0022
0000
0000
0000
0000
0000
0033
0000
0001
0010
0001
0000
1000
0010
1000
0000
,
0001
0010
0000
0100
1000
0000
0000
0000
2020
0000
0000
0000
0000
0000
3030
0000
,
1000
0000
0010
0100
0000
0100
0000
0001
0010
0000
0100
0000
0110
0000
0000
0000
,
1000
0100
1000
0100
0001
0100
0001
0100
,
1000
0000
0001
0000
1000
0000
0001
0000
0100
0000
0010
0000
1000
0000
0100
0010
,
0001
1000
0001
1000
0010
0100
0010
0100
0001
0100
0010
1000
0001
1000
0100
0010
,
0001
0000
0100
0010
1000
0000
1000
0000
0001
0000
0001
0000
1001
0000
0000
0000
,
1100
0000
0100
0001
0100
1000
0020
0000
,
0130
0000
0001
0000
1000
0010
1000
0000
0001
0000
0100
0000
0010
1000
0010
0000
,
1010
0000
0000
0000
0010
0000
0001
0000
0010
0000
1000
0000
0200
0000
0000
0310
,
0100
0000
1000
0000
0001
0010
0001
0000
1000
0100
1000
0100
0010
0000
0001
0000
,
0101
0000
0000
0000
0100
0000
1000
0000
0100
0000
0001
0000
0020
0000
0130
1000
,
0001
0000
0010
0000
0100
1000
0100
0000
0010
0001
0010
0000
0001
0000
1000
0000
,
1100
0000
0000
1100
0000
0000
0101
0000
0000
0101
0000
0000
0011
0000
0000
0000
,
0210
0000
0000
0000
0000
0000
0000
0000
0000
0000
0000
0000
1300
0001
1000
0000
,
1010
0010
0100
1000
0001
0010
0100
0001
,
0011
0000
0010
0000
0100
0000
0001
0000
1000
0000
0010
0000
0100
1000
0100
0000
,
1100
1000
0010
0100
1000
0001
0010
0100
,
0101
0000
0001
0000
1000
0000
0000
0000
1001
0000
1000
0001
0100
0001
1000
0000
,
0002
0000
0013
0100
0010
0000
2000
0000
3010
0100
0010
0000
0002
0000
1003
0000
,
2000
0000
3010
0100
0010
0000
0002
0000
0013
0100
0010
0000
2000
0000
3001
0000
,
1001
0000
0000
1001
0000
0000
1001
0000
0000
1001
0000
0000
1001
0000
1000
0001
,
0000
0000
0110
0000
0000
0110
0000
0000
0110
0000
0000
0110
0000
0000
0001
1000
,
0200
0000
0000
0000
0000
0000
0000
0000
0001
0000
0000
0000
0000
0000
1300
0010
,
0200
0000
0000
0302
0000
0000
0023
0000
2030
0000
0000
3020
0000
0000
0000
0000
,
0032
0000
0000
0203
0000
0000
0320
0000
0032
0000
0000
0023
0000
0000
2030
0000
,
3200
0000
0020
0000
,
0000
0000
0000
0330
,
0001
0100
0001
1000
0010
1000
0001
1000
0100
0010
0001
1000
0001
0100
0010
1000
,
0100
0000
1000
0010
1000
0000
0001
0010
0001
1000
0010
0100
0001
1000
0100
0010
,
0001
0010
0100
1000
0001
0100
0010
0000
0110
0000
1001
0000
,
0200
0000
0000
0000
0000
0000
0000
0300
0000
0000
0000
0000
;

//--------------- dance-single - tikal. in Giudecca (reduced) ----------------
#NOTEDATA:;
#STEPSTYPE:dance-single;
#DESCRIPTION:tikal. in Giudecca (reduced);
#DIFFICULTY:Challenge;
#METER:11;
#RADARVALUES:0,0,0,0,0;
#OFFSET:0.597;
#BPMS:0.000=200.000
,360.000=100.000
,362.000=200.000
,366.000=100.000
,368.000=200.000
,372.000=100.000
,374.000=200.000
,378.000=100.000
,380.000=200.000
,464.000=100.000
,480.000=200.000
;
#STOPS:180.000=1.200;
#WARPS:23.500=8.000,
31.750=8.000,
40.000=8.000,
48.250=8.000,
56.500=8.000,
64.750=8.000,
73.000=8.000,
81.250=8.000,
89.500=8.000,
97.750=8.000,
106.000=8.000,
114.250=8.000,
122.500=8.000,
130.750=8.000,
139.000=8.000,
147.250=8.000,
155.500=8.000,
163.750=8.000,
172.000=8.000
;
#SPEEDS:0.000=1.000=0.000=0,
180.021=4.000=3.979=0,
480.000=8.000=4.000=0
;
#SCROLLS:0.000=1.000,
23.500=1.500,
176.000=4.000,
177.000=0.250,
480.000=0.125
;
#NOTES:
0000
0000
0000
0000
,
0000
0000
0000
0000
,
0000
0000
0000
0000
,
0000
0000
0000
0000
,
0000
0000
0000
0000
,
0000
0000
0000
0000
,
0000
0000
0000
0000
,
0000
0000
0000
0000
0000
0000
0000
0000
0000
0000
0000
0000
0000
0000
0000
0M00
,
0000
000M
0M00
00M0
0000
M000
0M00
00M0
000M
M000
000M
0M00
00M0
M000
000M
M000
,
0000
0000
0000
0000
,
M000
0M00
0000
M000
0M00
00M0
0000
000M
0M00
00M0
M000
000M
M000
0M00
00M0
000M
,
M000
000M
0000
0000
0000
0000
0000
0000
0000
0000
0000
0000
0000
0000
0000
0000
,
0000
00M0
000M
0M00
0000
000M
0M00
00M0
0000
M000
0M00
00M0
000M
M000
000M
0M00
,
00M0
M000
000M
M000
0000
0000
0000
0000
0000
0000
0000
0000
0000
0000
0000
0000
,
0000
0000
0M00
00M0
M000
0M00
0000
M000
0M00
00M0
0000
000M
0M00
00M0
M000
000M
,
M000
0M00
00M0
000M
M000
000M
0000
0000
0000
0000
0000
0000
0000
0000
0000
0000
,
0000
0000
0000
M000
0M00
00M0
000M
0M00
0000
000M
0M00
00M0
0000
M000
0M00
00M0
,
000M
M000
000M
0M00
0000
0000
0000
0000
0000
0000
0000
0000
0000
0000
0000
0000
,
0000
0000
0000
0000
00M0
000M
0M00
00M0
M000
0M00
0000
M000
0M00
00M0
0000
000M
,
0M00
00M0
M000
000M
M000
0000
0000
0000
0000
0000
0000
0000
0000
0000
0000
0000
,
0000
0000
0000
0000
0000
M000
00M0
M000
0M00
00M0
000M
0M00
0000
000M
0M00
00M0
,
0000
M000
0M00
00M0
000M
M000
0000
0000
0000
0000
0000
0000
0000
0000
0000
0000
,
0000
0000
0000
0000
0000
0000
0M00
000M
00M0
000M
0M00
00M0
M000
0M00
0000
M000
,
0M00
00M0
0000
000M
0M00
00M0
M000
0000
0000
0000
0000
0000
0000
0000
0000
0000
,
0000
0000
0000
0000
0000
0000
0000
00M0
0M00
M000
00M0
M000
0M00
00M0
000M
0M00
,
0000
000M
0M00
00M0
0000
M000
0M00
00M0
0000
0000
0000
0000
0000
0000
0000
0000
,
0000
0000
0000
0000
0000
0000
0000
0000
M000
00M0
0M00
000M
00M0
000M
0M00
00M0
,
M000
0M00
0000
M000
0M00
00M0
0000
000M
0M00
0000
0000
0000
0000
0000
0000
0000
,
0000
0000
0000
0000
0000
0000
0000
0000
0000
0M00
000M
00M0
0M00
M000
00M0
M000
,
0M00
00M0
000M
0M00
0000
000M
0M00
00M0
0000
M000
0000
0000
0000
0000
0000
0000
,
0000
0000
0000
0000
0000
0000
0000
0000
0000
0000
M000
0M00
M000
00M0
0M00
000M
,
00M0
000M
0M00
00M0
M000
0M00
0000
M000
0M00
00M0
0000
0000
0000
0000
0000
0000
,
0000
0000
0000
0000
0000
0000
0000
0000
0000
0000
0000
00M0
000M
0M00
000M
00M0
,
0M00
M000
00M0
M000
0M00
00M0
000M
0M00
0000
000M
0M00
00M0
0000
0000
0000
0000
,
0000
0000
0000
0000
0000
0000
0000
0000
0000
0000
0000
0000
0M00
00M0
M000
0M00
,
M000
00M0
0M00
000M
00M0
000M
0M00
00M0
M000
0M00
0000
0000
0000
0000
0000
0000
,
0000
0000
0000
0000
0000
0000
0000
0000
0000
0000
0000
0000
0000
M000
0M00
00M0
,
000M
0M00
000M
00M0
0M00
M000
00M0
M000
0M00
00M0
000M
0M00
0000
000M
0000
0000
,
0000
0000
0000
0000
0000
0000
0000
0000
0000
0000
0000
0000
0000
0000
00M0
000M
,
0M00
00M0
M000
0M00
M000
00M0
0M00
000M
00M0
000M
0M00
00M0
M000
0M00
0000
0000
,
0000
0000
0000
0000
0000
0000
0000
0000
0000
0000
0000
0000
0000
0000
0000
M000
,
00M0
M000
0M00
00M0
000M
0M00
000M
00M0
0M00
M000
00M0
M000
0M00
00M0
000M
0M00
,
0000
0000
0000
0000
,
0M00
000M
00M0
000M
0M00
00M0
M000
0M00
M000
00M0
0M00
000M
00M0
000M
0M00
00M0
,
M000
0000
0000
0000
,
0000
0000
0000
0000
,
0101
0000
0000
0000
1000
0000
0010
0000
0001
0000
0010
0000
1000
0000
0000
2000
,
0001
0000
0001
0000
0001
0000
0000
0000
0010
0000
0000
0000
3100
1000
0100
1000
,
0001
0000
0001
0000
0001
0000
0000
0000
0101
0000
0000
0000
0110
0000
0000
0010
,
1000
0000
1000
0000
1000
0000
0000
0000
0001
0010
0001
0010
0100
0000
0100
0000
,
1100
0000
0000
0000
0001
0000
0010
0000
1000
0000
0010
0000
0001
0000
0000
0002
,
1000
0000
1000
0000
1000
0000
0000
0000
0010
0000
0000
0000
0103
0001
0100
0001
,
1000
0000
1000
0000
1000
0000
0000
0000
1100
0000
0000
0000
0100
0010
0001
1000
,
0020
0000
0000
0000
,
0031
0000
0110
0000
1000
0000
0100
0000
0001
0000
0100
0000
1000
0000
0001
2000
,
0001
0000
0001
0000
0001
0000
0000
0000
3100
1000
0100
0000
1000
0010
1000
0010
,
0100
0000
0100
0000
0100
0000
0000
0000
0110
0000
0000
0000
0001
0010
0001
0010
,
0100
0000
1000
0001
1000
0000
0010
0000
0100
0001
0100
0001
0100
0000
0010
0000
,
1010
0000
0000
0000
0001
0000
0100
0000
1000
0000
0100
0000
0001
0000
1000
0002
,
1000
0000
1000
0000
1000
0000
0000
0000
0103
0001
0100
0001
0010
0000
0100
0000
,
1100
0000
0000
0101
0000
0000
1001
0000
1000
0000
0001
0000
0010
0100
1000
0001
,
0200
0000
0000
0310
,
1000
0000
0010
0000
0100
0000
0000
0000
1000
0000
0100
0000
0001
0000
1000
0001
,
0010
0100
1000
0000
0100
0001
0100
0010
,
0001
0010
0100
0000
1000
0000
0000
0000
0010
0000
0100
0001
0100
0000
0010
0000
,
1000
0000
0000
0000
0100
0000
0000
0000
0010
0000
0000
0000
0001
0000
0000
0000
0000
0000
0000
0000
0010
0000
0000
0000
0100
0000
0000
0000
0000
0000
1000
0000
0000
0001
0000
0000
0100
0000
0000
0000
0000
0000
0010
0000
0000
0000
0000
0000
,
1000
0000
0001
0000
0010
0000
0100
0000
0000
0000
0000
0000
0001
0000
0000
0100
0000
0000
1000
0000
0000
0001
0000
0000
,
0100
0000
0010
0000
1000
0000
0100
0000
0000
0000
0010
0000
0001
0000
0000
1000
0000
0000
0001
0000
0100
0000
0010
0000
,
1000
0000
0000
0000
0000
0000
0001
0000
0000
0000
0000
0000
0010
0000
0000
0000
0000
0000
0100
0000
0000
0000
0000
0000
1000
0000
0000
0000
0000
0000
0010
0000
0000
0100
0000
0000
0001
0000
0000
0000
1000
0000
0000
0000
0100
0000
0000
0000
,
0010
0000
0000
0000
0001
0000
0000
0000
0100
0000
0000
0000
0010
0000
0000
0000
1000
0000
0000
0000
0100
0000
0000
0000
0020
0000
0000
0000
0000
0000
0000
0000
0000
0000
0000
0000
0031
0000
0000
1000
0000
0000
0001
0000
0000
0000
0000
0000
,
2001
0000
0000
0000
3200
0000
0320
0000
0000
0000
0130
1000
0100
1000
0100
1000
,
0002
0000
0000
0000
0203
0000
0320
0000
0000
0000
0130
0001
0100
0001
0100
0001
,
2000
0000
0000
0000
3020
0000
0230
0000
0000
0000
0310
1000
0010
1000
0010
1000
,
0002
0000
0023
0230
0000
0320
0032
0000
,
1000
0100
1000
0023
,
1000
0000
0000
0000
0100
0000
0000
0000
0001
0000
0000
0130
1000
0000
2000
0000
,
0001
0100
0001
3020
,
0100
0000
0000
0001
0000
0000
0100
0000
0000
1000
0000
0000
0230
0000
0000
0000
,
0301
0000
0010
0000
1000
0000
0010
0000
0100
0000
0010
0000
0001
0000
0000
0001
,
1000
0000
1000
0000
1000
0000
0010
0000
0001
0000
0010
0000
0100
0001
0100
0001
,
1000
0000
1000
0000
0001
0000
0010
0000
1000
0000
0010
0000
0100
0000
0010
0001
,
0100
0000
0010
1000
0100
0000
0010
0000
0100
1000
0001
0000
0001
0000
1000
0001
,
1000
0000
1000
0000
0100
0000
0001
0000
0100
0000
0010
0000
0100
0000
1000
0010
,
0100
0000
0000
0000
0100
0000
0001
0010
0100
0000
0000
1000
0001
0000
1000
0010
,
0100
0000
0100
0000
0001
0000
0001
0000
0010
0100
1000
0000
1000
0000
0010
0000
,
0100
0001
0100
0001
1000
0100
1000
0100
0010
0001
1000
0001
0100
0010
1000
0001
,
0020
0000
0000
0000
,
0000
0000
0000
0000
,
0000
0000
0000
0000
,
0130
0000
0100
0000
1000
0001
0100
0010
0100
0010
1000
0000
1001
0000
0000
0000
,
2200
0000
0000
0000
0000
0000
3300
0000
1000
0000
0100
0000
0010
0000
1000
0010
,
0100
1000
0001
0000
0100
0000
0000
0000
0202
0000
0000
0000
0000
0000
0303
0000
,
0001
0100
0001
0100
0010
0000
0001
0010
0100
0000
0001
1000
0100
0000
0010
0000
,
0022
0000
0000
0000
0000
0000
0033
0000
0001
0010
0100
0000
0001
0100
0010
0000
,
0001
0010
0000
0100
1000
0000
0010
0000
2020
0000
0000
0000
0000
0000
3030
0000
,
1000
0000
0010
0100
0000
0001
0000
0010
0100
0001
0100
0010
0001
0000
0000
0000
,
1000
0000
1000
0000
0010
0000
0010
0000
0001
0000
0001
0000
0010
0000
0100
0001
,
0010
0000
0010
0000
1000
0000
1000
0000
0001
0000
0100
0000
1000
0000
0010
0100
,
0001
0100
0001
0010
0100
1000
0010
1000
0100
0010
0001
1000
0010
1000
0001
0100
,
0010
0000
1000
0100
0010
0000
0010
0000
0100
0000
0100
0000
1001
0000
0000
0000
,
0101
0000
0110
1000
0110
0001
0120
0000
,
1000
0000
1000
0000
1030
0000
0010
1000
0010
0000
0000
0000
1000
0001
1000
0001
,
0010
0000
0000
0000
0110
0000
0001
0000
0110
0000
1000
0000
0110
0000
0000
0020
,
0001
0000
0001
0000
0001
0000
0000
0000
0130
1000
0001
1000
0010
0000
1000
0000
,
1100
0000
0000
0000
0110
0000
1000
0000
0110
0000
0001
0000
0110
0000
0100
0010
,
0200
0000
1000
0000
1000
0000
0000
0000
0310
0001
0100
0000
0010
0000
1000
0100
,
0010
0000
0000
0011
0000
0000
0101
0000
0000
1100
0000
0000
1010
0000
0010
0100
,
0002
0000
0000
0000
0000
0000
0000
0000
0000
0000
0000
0000
1003
0001
1000
0000
,
1100
0000
0100
0000
0010
0000
0001
0000
0101
0000
1000
0000
0010
0000
0100
0010
,
0100
0000
0001
0000
0010
0000
0100
0000
1001
0000
1000
0000
0001
0010
0001
0000
,
0011
0000
0010
0000
0100
0000
1000
0000
1010
0000
0001
0000
0100
0000
0010
0100
,
0010
0000
1000
0000
0100
0000
0010
0000
1001
0000
0001
1000
0100
1000
0001
0000
,
0101
0000
1000
0010
0100
0000
0110
0000
0010
0100
0001
0000
0011
0000
1000
0000
,
1100
0000
0001
0010
0100
0000
0110
0000
0010
0100
1000
0000
1010
0000
0001
0000
,
1001
0000
0000
1100
0000
0000
0110
0000
0000
0011
0000
0000
1001
0000
1000
0001
,
0000
0000
0101
0000
0000
0110
0000
0000
1010
0000
0000
1001
0000
0000
1000
0001
,
0020
0000
0000
0000
0000
0000
0000
0000
1000
0000
0000
0000
0000
0000
0031
0100
,
0020
0000
0000
2030
0000
0000
3200
0000
0302
0000
0000
0203
0000
0000
0000
0000
,
2300
0000
0000
3020
0000
0000
0230
0000
2300
0000
0000
3200
0000
0000
0302
0000
,
0023
0000
0200
0000
,
0000
0000
0000
0330
,
1000
0100
1000
0010
0100
0001
0010
0001
0100
0010
1000
0100
1000
0010
0100
0001
,
0010
0000
0001
0010
0100
0000
1000
0010
0100
0001
1000
0001
0010
0100
1000
0001
,
1000
0010
0001
1000
0100
0001
0010
0000
0110
0000
1001
0000
,
0200
0000
0000
0000
0000
0000
0000
0300
0000
0000
0000
0000
;

//--------------- dance-single - tikal. in Giudecca (reduced but less so) ----------------
#NOTEDATA:;
#STEPSTYPE:dance-single;
#DESCRIPTION:tikal. in Giudecca (reduced but less so);
#DIFFICULTY:Edit;
#METER:11;
#RADARVALUES:0,0,0,0,0;
#OFFSET:0.597;
#BPMS:0.000=200.000
,360.000=100.000
,362.000=200.000
,366.000=100.000
,368.000=200.000
,372.000=100.000
,374.000=200.000
,378.000=100.000
,380.000=200.000
,464.000=100.000
,480.000=200.000
;
#STOPS:180.000=1.200;
#WARPS:23.500=8.000,
31.750=8.000,
40.000=8.000,
48.250=8.000,
56.500=8.000,
64.750=8.000,
73.000=8.000,
81.250=8.000,
89.500=8.000,
97.750=8.000,
106.000=8.000,
114.250=8.000,
122.500=8.000,
130.750=8.000,
139.000=8.000,
147.250=8.000,
155.500=8.000,
163.750=8.000,
172.000=8.000
;
#SPEEDS:0.000=1.000=0.000=0,
180.021=4.000=3.979=0,
480.000=8.000=4.000=0
;
#SCROLLS:0.000=1.000,
23.500=1.500,
176.000=4.000,
177.000=0.250,
480.000=0.125
;
#NOTES:
0000
0000
0000
0000
,
0000
0000
0000
0000
,
0000
0000
0000
0000
,
0000
0000
0000
0000
,
0000
0000
0000
0000
,
0000
0000
0000
0000
,
0000
0000
0000
0000
,
0000
0000
0000
0000
0000
0000
0000
0000
0000
0000
0000
0000
0000
0000
0000
0M00
,
0000
000M
0M00
00M0
0000
M000
0M00
00M0
000M
M000
000M
0M00
00M0
M000
000M
M000
,
0000
0000
0000
0000
,
M000
0M00
0000
M000
0M00
00M0
0000
000M
0M00
00M0
M000
000M
M000
0M00
00M0
000M
,
M000
000M
0000
0000
0000
0000
0000
0000
0000
0000
0000
0000
0000
0000
0000
0000
,
0000
00M0
000M
0M00
0000
000M
0M00
00M0
0000
M000
0M00
00M0
000M
M000
000M
0M00
,
00M0
M000
000M
M000
0000
0000
0000
0000
0000
0000
0000
0000
0000
0000
0000
0000
,
0000
0000
0M00
00M0
M000
0M00
0000
M000
0M00
00M0
0000
000M
0M00
00M0
M000
000M
,
M000
0M00
00M0
000M
M000
000M
0000
0000
0000
0000
0000
0000
0000
0000
0000
0000
,
0000
0000
0000
M000
0M00
00M0
000M
0M00
0000
000M
0M00
00M0
0000
M000
0M00
00M0
,
000M
M000
000M
0M00
0000
0000
0000
0000
0000
0000
0000
0000
0000
0000
0000
0000
,
0000
0000
0000
0000
00M0
000M
0M00
00M0
M000
0M00
0000
M000
0M00
00M0
0000
000M
,
0M00
00M0
M000
000M
M000
0000
0000
0000
0000
0000
0000
0000
0000
0000
0000
0000
,
0000
0000
0000
0000
0000
M000
00M0
M000
0M00
00M0
000M
0M00
0000
000M
0M00
00M0
,
0000
M000
0M00
00M0
000M
M000
0000
0000
0000
0000
0000
0000
0000
0000
0000
0000
,
0000
0000
0000
0000
0000
0000
0M00
000M
00M0
000M
0M00
00M0
M000
0M00
0000
M000
,
0M00
00M0
0000
000M
0M00
00M0
M000
0000
0000
0000
0000
0000
0000
0000
0000
0000
,
0000
0000
0000
0000
0000
0000
0000
00M0
0M00
M000
00M0
M000
0M00
00M0
000M
0M00
,
0000
000M
0M00
00M0
0000
M000
0M00
00M0
0000
0000
0000
0000
0000
0000
0000
0000
,
0000
0000
0000
0000
0000
0000
0000
0000
M000
00M0
0M00
000M
00M0
000M
0M00
00M0
,
M000
0M00
0000
M000
0M00
00M0
0000
000M
0M00
0000
0000
0000
0000
0000
0000
0000
,
0000
0000
0000
0000
0000
0000
0000
0000
0000
0M00
000M
00M0
0M00
M000
00M0
M000
,
0M00
00M0
000M
0M00
0000
000M
0M00
00M0
0000
M000
0000
0000
0000
0000
0000
0000
,
0000
0000
0000
0000
0000
0000
0000
0000
0000
0000
M000
0M00
M000
00M0
0M00
000M
,
00M0
000M
0M00
00M0
M000
0M00
0000
M000
0M00
00M0
0000
0000
0000
0000
0000
0000
,
0000
0000
0000
0000
0000
0000
0000
0000
0000
0000
0000
00M0
000M
0M00
000M
00M0
,
0M00
M000
00M0
M000
0M00
00M0
000M
0M00
0000
000M
0M00
00M0
0000
0000
0000
0000
,
0000
0000
0000
0000
0000
0000
0000
0000
0000
0000
0000
0000
0M00
00M0
M000
0M00
,
M000
00M0
0M00
000M
00M0
000M
0M00
00M0
M000
0M00
0000
0000
0000
0000
0000
0000
,
0000
0000
0000
0000
0000
0000
0000
0000
0000
0000
0000
0000
0000
M000
0M00
00M0
,
000M
0M00
000M
00M0
0M00
M000
00M0
M000
0M00
00M0
000M
0M00
0000
000M
0000
0000
,
0000
0000
0000
0000
0000
0000
0000
0000
0000
0000
0000
0000
0000
0000
00M0
000M
,
0M00
00M0
M000
0M00
M000
00M0
0M00
000M
00M0
000M
0M00
00M0
M000
0M00
0000
0000
,
0000
0000
0000
0000
0000
0000
0000
0000
0000
0000
0000
0000
0000
0000
0000
M000
,
00M0
M000
0M00
00M0
000M
0M00
000M
00M0
0M00
M000
00M0
M000
0M00
00M0
000M
0M00
,
0000
0000
0000
0000
,
0M00
000M
00M0
000M
0M00
00M0
M000
0M00
M000
00M0
0M00
000M
00M0
000M
0M00
00M0
,
M000
0000
0000
0000
,
0000
0000
0000
0000
,
0101
0000
0000
0000
1000
0000
0010
0000
0001
0000
0010
0000
1000
0000
0000
2000
,
0001
0000
0001
0000
0001
0000
0000
0000
0010
0000
0000
0000
3100
1000
0100
1000
,
0001
0000
0001
0000
0001
0000
0000
0000
0101
0000
0000
0000
0110
0000
0000
0010
,
1000
0000
1000
0000
1000
0000
0000
0000
0001
0010
0001
0010
0100
0000
0100
0000
,
1100
0000
0000
0000
0001
0000
0010
0000
1000
0000
0010
0000
0001
0000
0000
0002
,
1000
0000
1000
0000
1000
0000
0000
0000
0010
0000
0000
0000
0103
0001
0100
0001
,
1000
0000
1000
0000
1000
0000
0000
0000
1100
0000
0000
0000
0100
0010
0001
1000
,
0020
0000
0000
0000
,
0031
0000
0110
0000
1000
0000
0100
0000
0001
0000
0100
0000
1000
0000
0001
2000
,
0001
0000
0001
0000
0001
0000
0000
0000
3100
1000
0100
0000
1000
0010
1000
0010
,
0100
0000
0100
0000
0100
0000
0000
0000
0110
0000
0000
0000
0001
0010
0001
0010
,
0100
0000
1000
0001
1000
0000
0010
0000
0100
0001
0100
0001
0100
0000
0010
0000
,
1010
0000
0000
0000
0001
0000
0100
0000
1000
0000
0100
0000
0001
0000
1000
0002
,
1000
0000
1000
0000
1000
0000
0000
0000
0103
0001
0100
0001
0010
0000
0100
0000
,
1100
0000
0000
0101
0000
0000
1001
0000
1000
0000
0001
0000
0010
0100
1000
0001
,
0200
0000
0000
0310
,
1000
0000
0010
0000
0100
0000
0000
0000
1000
0000
0100
0000
0001
0000
1000
0001
,
0010
0100
1000
0000
0100
0001
0100
0010
,
0001
0010
0100
0000
1000
0000
0000
0000
0010
0000
0100
0001
0100
0000
0010
0000
,
1000
0000
0000
0000
0100
0000
0000
0000
0010
0000
0000
0000
0001
0000
0000
0000
0000
0000
0000
0000
0010
0000
0000
0000
0100
0000
0000
0000
0000
0000
1000
0000
0000
0001
0000
0000
0100
0000
0000
0000
0000
0000
0010
0000
0000
0000
0000
0000
,
1000
0000
0001
0000
0010
0000
0100
0000
0000
0000
0000
0000
0001
0000
0000
0100
0000
0000
1000
0000
0000
0001
0000
0000
,
0100
0000
0010
0000
1000
0000
0100
0000
0000
0000
0010
0000
0001
0000
0000
1000
0000
0000
0001
0000
0100
0000
0010
0000
,
1000
0000
0000
0000
0000
0000
0001
0000
0000
0000
0000
0000
0010
0000
0000
0000
0000
0000
0100
0000
0000
0000
0000
0000
1000
0000
0000
0000
0000
0000
0010
0000
0000
0100
0000
0000
0001
0000
0000
0000
1000
0000
0000
0000
0100
0000
0000
0000
,
0010
0000
0000
0000
0001
0000
0000
0000
0100
0000
0000
0000
0010
0000
0000
0000
1000
0000
0000
0000
0100
0000
0000
0000
0020
0000
0000
0000
0000
0000
0000
0000
0000
0000
0000
0000
0031
0000
0000
1000
0000
0000
0001
0000
0000
0000
0000
0000
,
2001
0000
0000
0000
3200
0000
0320
0000
0000
0000
0130
1000
0100
1000
0100
1000
,
0002
0000
0000
0000
0203
0000
0320
0000
0000
0000
0130
0001
0100
0001
0100
0001
,
2000
0000
0000
0000
3020
0000
0230
0000
0000
0000
0310
1000
0010
1000
0010
1000
,
0002
0000
0023
0230
0000
0320
0032
0000
,
1000
0100
1000
0023
,
1000
0000
0000
0000
0100
0000
0000
0000
0001
0000
0000
0130
1000
0000
2000
0000
,
0001
0100
0001
3020
,
0100
0000
0000
0001
0000
0000
0100
0000
0000
1000
0000
0000
0230
0000
0000
0000
,
0301
0000
0010
0000
1000
0000
0010
0000
0100
0000
0010
0000
0001
0000
0000
0001
,
1000
0000
1000
0000
1000
0000
0010
0000
0001
0000
0010
0000
0100
0001
0100
0001
,
1000
0000
1000
0000
0001
0000
0010
0000
1000
0000
0010
0000
0100
0000
0010
0001
,
0100
0000
0010
1000
0100
0000
0010
0000
0100
1000
0001
0000
0001
0000
1000
0001
,
1000
0000
1000
0000
0100
0000
0001
0000
0100
0000
0010
0000
0100
0000
1000
0010
,
0100
0000
0000
0000
0100
0000
0001
0010
0100
0000
0000
1000
0001
0000
1000
0010
,
0100
0000
0100
0000
0001
0000
0001
0000
0010
0100
1000
0000
1000
0000
0010
0000
,
0100
0001
0100
0001
1000
0100
1000
0100
0010
0001
1000
0001
0100
0010
1000
0001
,
0020
0000
0000
0000
,
0000
0000
0000
0000
,
0000
0000
0000
0000
,
0130
0000
0100
0000
1000
0001
0100
0010
0100
0010
1000
0000
1001
0000
0000
0000
,
2200
0000
0001
0010
0001
0010
0001
3300
1000
0000
0100
0000
0010
0000
1000
0010
,
0100
1000
0001
0000
0100
0000
0000
0000
0202
0000
1000
0010
1000
0010
1000
0303
,
0001
0100
0001
0100
0010
0000
0001
0010
0100
0000
0001
1000
0100
0000
0010
0000
,
0022
0000
0100
1000
0100
1000
0100
0033
0001
0010
0100
0000
0001
0100
0010
0000
,
0001
0010
0000
0100
1000
0000
0010
0000
2020
0000
0100
0001
0100
0001
0100
3030
,
1000
0000
0010
0100
0000
0001
0000
0010
0100
0001
0100
0010
0001
0000
0000
0000
,
1000
0000
1000
0000
0010
0000
0010
0000
0001
0000
0001
0000
0010
0000
0100
0001
,
0010
0000
0010
0000
1000
0000
1000
0000
0001
0000
0100
0000
1000
0000
0010
0100
,
0001
0100
0001
0010
0100
1000
0010
1000
0100
0010
0001
1000
0010
1000
0001
0100
,
0010
0000
1000
0100
0010
0000
0010
0000
0100
0000
0100
0000
1001
0000
0000
0000
,
0101
0000
0110
1000
0110
0001
0120
0000
,
1000
0000
1000
0000
1030
0000
0010
1000
0010
0000
0000
0000
1000
0001
1000
0001
,
0010
0000
0000
0000
0110
0000
0001
0000
0110
0000
1000
0000
0110
0000
0000
0020
,
0001
0000
0001
0000
0001
0000
0000
0000
0130
1000
0001
1000
0010
0000
1000
0000
,
1100
0000
0000
0000
0110
0000
1000
0000
0110
0000
0001
0000
0110
0000
0100
0010
,
0200
0000
1000
0000
1000
0000
0000
0000
0310
0001
0100
0000
0010
0000
1000
0100
,
0010
0000
0000
0011
0000
0000
0101
0000
0000
1100
0000
0000
1010
0000
0010
0100
,
0002
0000
0000
0000
0000
0000
0000
0000
0000
0000
0000
0000
1003
0001
1000
0000
,
1100
0000
0100
0000
0010
0000
0001
0000
0101
0000
1000
0000
0010
0000
0100
0010
,
0100
0000
0001
0000
0010
0000
0100
0000
1001
0000
1000
0000
0001
0010
0001
0000
,
0011
0000
0010
0000
0100
0000
1000
0000
1010
0000
0001
0000
0100
0000
0010
0100
,
0010
0000
1000
0000
0100
0000
0010
0000
1001
0000
0001
1000
0100
1000
0001
0000
,
0101
0000
1000
0010
0100
0000
0110
0000
0010
0100
0001
0000
0011
0000
1000
0000
,
1100
0000
0001
0010
0100
0000
0110
0000
0010
0100
1000
0000
1010
0000
0001
0000
,
1001
0000
0000
1100
0000
0000
0110
0000
0000
0011
0000
0000
1001
0000
1000
0001
,
0000
0000
0101
0000
0000
0110
0000
0000
1010
0000
0000
1001
0000
0000
1000
0001
,
0020
0000
0000
0000
0000
0000
0000
0000
1000
0000
0000
0000
0000
0000
0031
0100
,
0020
0000
0000
2030
0000
0000
3200
0000
0302
0000
0000
0203
0000
0000
0000
0000
,
2300
0000
0000
3020
0000
0000
0230
0000
2300
0000
0000
3200
0000
0000
0302
0000
,
0023
0000
0200
0000
,
0000
0000
0000
0330
,
1000
0100
1000
0010
0100
0001
0010
0001
0100
0010
1000
0100
1000
0010
0100
0001
,
0010
0000
0001
0010
0100
0000
1000
0010
0100
0001
1000
0001
0010
0100
1000
0001
,
1000
0010
0001
1000
0100
0001
0010
0000
0110
0000
1001
0000
,
0200
0000
0000
0000
0000
0000
0000
0300
0000
0000
0000
0000
;
