#TITLE:BALALAIKA,CARRIED WITH THE WIND;
#SUBTITLE:;
#ARTIST:Julie ann Frost;
#TITLETRANSLIT:;
#SUBTITLETRANSLIT:;
#ARTISTTRANSLIT:;
#GENRE:Russian pop;
#CREDIT:tikal.;
#MUSIC:BALALAIKA,CARRIED WITH THE WIND.ogg;
#BANNER:bn.png;
#BACKGROUND:bg.png;
#CDTITLE:;
#SAMPLESTART:18.280;
#SAMPLELENGTH:15.000;
#SELECTABLE:YES;
#OFFSET:-0.382;
#BPMS:0.000=134.000;
#STOPS:;
#DISPLAYBPM:134.000;
#BGCHANGES:;
#FGCHANGES:;

//--------------- dance-single - tikal. ----------------
#NOTES:
     dance-single:
     tikal.:
     Challenge:
     10:
     0,0,0,0,0:
0000
0000
0000
0000
,
0000
0000
0000
0000
,
0000
0000
0000
0000
,
0000
0000
0000
0000
,
0000
0000
0000
0000
,
0000
0000
0000
0000
,
1000
0000
0100
1000
0100
0000
1000
0100
1000
0000
0100
1000
0100
1000
0100
1000
,
0001
0000
0100
0001
0100
0000
0001
0100
0001
0000
0100
0001
0100
0001
0100
0001
,
1000
0000
0100
0010
1000
0000
0001
0100
1000
0000
0010
0100
1000
0000
0001
0010
,
1000
0000
0100
0010
0001
0000
0100
0010
1000
0000
0000
0000
0000
0000
0000
0000
,
0001
0000
0010
0001
0010
0000
0001
0010
0001
0000
0010
0001
0010
0001
0010
0001
,
1000
0000
0010
1000
0010
0000
1000
0010
1000
0000
0010
1000
0010
1000
0010
1000
,
0001
0000
0010
0100
0001
0000
1000
0010
0001
0000
0100
0010
0001
0000
1000
0100
,
0001
1000
0001
0000
,
1000
0100
0010
0002
0000
1003
0100
1000
,
0001
0010
0100
1000
0001
0100
0010
1000
,
0001
0100
0010
2000
0000
3010
0100
0001
,
0101
1100
1001
0000
,
0001
0010
0100
2000
0000
3001
0010
0001
,
1000
0100
0010
0001
1000
0010
0100
0001
,
1000
0010
0100
0002
0000
0103
0010
1000
,
1010
0011
1001
0000
,
1000
0000
0010
1000
0100
0000
0010
0001
0100
0000
0010
1000
0100
1000
0010
0100
,
0001
0000
0010
0001
0100
0000
0010
1000
0100
0000
0010
0001
0100
0001
0010
0100
,
1000
1100
0001
0101
,
1001
0110
1001
0000
,
0001
0010
0100
0010
0001
1000
0010
0100
0010
1000
0001
0010
0100
0010
0001
1000
,
0010
0100
0001
0100
0010
1000
0100
0010
0001
0010
0100
1000
0010
0100
0001
0100
,
0010
1000
0001
0010
0100
0010
0001
1000
0010
0100
0001
0010
0100
1000
0001
1000
,
0100
0010
0001
0010
0100
1000
0001
0100
0010
0100
0001
1000
0001
0100
0010
1000
,
0100
0010
1000
0010
0100
1000
0001
0100
0010
0100
0001
1000
0100
0010
0001
1000
,
0010
0100
1000
0100
0010
1000
0001
0010
0100
0010
0001
1000
0010
0100
0001
1000
,
0100
0010
0001
0010
0100
1000
0001
1000
0010
0100
0001
0100
0010
1000
0001
1000
,
0100
0010
0100
0010
0001
1000
0001
1000
0010
0000
0000
0000
0000
0000
0000
0000
,
1000
0000
0000
1000
0010
0000
0100
0000
0002
0000
1003
0001
1000
0001
1000
0000
,
0100
1000
0100
0010
0001
0000
1000
0000
0200
0000
1300
0001
1000
0001
1000
0001
,
2000
3200
0302
0023
,
0032
0203
2300
3000
,
0001
0000
0000
0001
0010
0000
0100
0000
2000
0000
3001
1000
0001
1000
0001
0000
,
0100
0001
0100
0010
1000
0000
0001
0000
0200
0000
0301
1000
0001
1000
0001
1000
,
0002
0203
2300
3020
,
2030
3200
0302
0003
;
