#TITLE:B4U (Rising Sun mix);
#ARTIST:NAOKI with J-RAVERS;
#BANNER:B4U (Rising Sun mix).png;
#BACKGROUND:B4U (Rising Sun mix)-bg.png;
#GENRE:Speed rave;
#CREDIT:tikal.;
#CDTITLE:./CDTITLES/DanceDanceRevolution HOTTEST PARTY.png;
#MUSIC:B4U (Rising Sun mix).ogg;
#SAMPLESTART:9.28;
#SAMPLELENGTH:15;
#OFFSET:-0.007;
#BPMS:0.000=155.09;

//--------------- dance-single - tikal. ----------------
#NOTES:
     dance-single:
     tikal.:
     Challenge:
     9:
     0,0,0,0,0:
0000
0000
0000
0000
,
0000
0000
0000
0000
,
0000
0000
0000
0000
,
0000
0000
0000
0000
,
0000
0000
0000
0000
,
0000
0000
0000
0000
,
1000
0000
0010
0100
0000
0000
0010
0000
0100
0001
0000
0000
0100
0000
0001
0010
,
0000
1000
0010
0001
1000
0010
0100
0010
,
0001
0000
0010
0100
0000
0000
0100
0000
0010
1000
0000
0000
0100
0000
1000
0000
,
2002
0000
0000
3003
,
1000
0000
0100
0000
1000
0000
0010
0000
1000
0000
1000
0100
0001
0000
0100
0000
,
0010
0001
0000
0100
0010
0000
0010
1000
0000
0100
1000
0000
1001
0000
0000
0000
,
0001
0000
0100
0000
0001
0000
0010
0000
0001
0000
0001
0100
1000
0000
0100
0000
,
0010
0000
0010
1000
0100
0000
0010
0000
0010
0001
0100
0000
0010
0000
0010
0000
,
1001
0000
0000
0000
1000
0000
0100
0000
0011
0000
0000
1001
0000
0000
1100
0000
,
1000
0000
0100
0000
0001
0100
1000
0001
,
1000
0000
0000
0000
0001
0000
0100
0000
1010
0000
0000
1001
0000
0000
0101
0000
,
0100
0001
0010
1000
0010
0010
0110
0000
,
0010
0000
0001
0010
0000
0000
0010
0000
0100
1000
0000
0000
1000
0000
0100
0010
,
0000
0010
0001
0010
0001
0100
0010
0100
,
1000
0000
0100
0010
0000
0000
0010
0000
0100
0001
0000
0000
0010
0000
0001
0000
,
1001
0000
0101
0000
1100
0000
1000
0100
,
0001
0000
0100
0010
0000
0000
0010
0000
0001
1000
0000
0000
0010
0000
0100
1000
,
0000
0001
0010
1000
0001
0010
0100
0010
,
1000
0000
0010
0100
0000
0000
0100
0000
0010
0001
0000
0000
0100
0000
0001
0000
,
1000
0000
0100
0000
0001
0000
0100
0000
0010
0000
0001
0000
0100
0010
0100
0010
,
2000
0000
0000
0000
0000
0000
0000
0100
,
3200
0000
0000
0000
0000
0000
0000
0010
,
0320
0000
0100
0031
,
1001
0000
0000
0000
0101
0000
0000
0000
1100
0000
0000
1000
0001
0000
0100
0000
,
1000
0100
0010
0100
1000
0100
0001
0100
,
1000
0001
0010
1000
0001
0010
1000
0010
,
0001
0010
0100
0010
0001
0010
1000
0010
,
0002
0000
2000
3003
,
1001
0000
0000
0000
1001
0000
0000
0000
0101
0000
0000
0001
1000
0000
0010
0000
,
0100
1000
0001
0000
0010
1000
0001
0010
,
1100
0000
0000
0000
1100
0000
0000
0000
1001
0000
0000
0001
1000
0000
0000
0000
,
0020
0000
0001
0000
0130
0010
1000
1000
,
1001
0000
0000
0000
1001
0000
0000
0000
1100
0000
0000
1000
0001
0000
0010
0000
,
0100
0001
1000
0000
0010
0001
1000
0010
,
0101
0000
0000
0000
0101
0000
0000
0000
1001
0000
0000
1000
0001
0000
0000
0000
,
1000
0100
1000
0010
0100
0000
0001
0010
0100
0000
0001
0000
0100
0000
1000
0000
,
0001
0100
0000
0010
0000
1000
0000
0100
0000
0100
0000
1000
0010
0000
0100
0000
,
0001
0000
0100
0010
0000
0100
0001
0000
0010
0000
1000
0000
0010
0000
0001
0000
,
1000
0100
0000
0010
0000
0001
0000
0100
0000
0100
0000
0001
0010
0000
0000
0000
,
1100
0000
1100
0000
0010
0001
1000
0010
,
1000
0010
0000
0100
0000
0001
0000
0010
0000
0010
0000
0001
0100
0000
0010
0000
,
1000
0000
0010
0100
0000
0010
1000
0000
0100
0000
0001
0000
0100
0000
1000
0000
,
0001
0010
0000
0100
0000
1000
0000
0010
0000
0010
0000
1000
0100
0000
0000
0000
,
0010
1000
0010
0001
0100
0000
0010
0001
0010
1000
0100
1000
0001
0100
0010
1000
,
0100
0000
0000
1100
0000
0000
0010
0000
0000
0011
0000
0000
0001
0000
1000
0000
,
0010
0000
0000
1010
0000
0000
0100
0000
0000
0101
0000
0000
0001
0000
1000
0000
,
0100
0000
0000
0110
0000
0000
0001
0000
0000
1001
0000
0000
1000
0000
0010
0000
,
0100
0000
0000
0110
0000
0000
1000
0000
0000
1001
0000
0000
0001
0000
0010
0000
,
0110
0000
0000
1000
0000
0000
1100
0000
0000
0010
0001
0000
1000
0000
0001
0000
,
0110
0000
0000
0001
0000
0000
0101
0000
0000
0010
1000
0000
0100
0000
1000
0000
,
0011
0000
0000
0010
0000
0000
0110
0000
0000
1000
0001
0000
0100
0000
0001
0000
,
1010
0000
0000
0010
0000
0000
0110
0000
0000
0001
0000
0000
1000
0000
0001
0000
,
0110
0000
0000
0000
;

//--------------- dance-double - tikal. ----------------
#NOTES:
     dance-double:
     tikal.:
     Challenge:
     9:
     0,0,0,0,0:
00000000
00000000
00000000
00000000
,
00000000
00000000
00000000
00000000
,
00000000
00000000
00000000
00000000
,
00000000
00000000
00000000
00000000
,
00000000
00000000
00000000
00000000
,
00000000
00000000
00000000
00000000
,
10000000
01000000
00010000
00000000
01000000
00010000
00001000
00000000
,
00001000
00000100
00000001
00010000
00001000
00000100
00000010
00001000
,
00000001
00000010
00001000
00000000
00000010
00001000
00010000
00000000
,
00022000
00000000
00000000
00033000
,
10000000
00000000
01000000
00000000
10000000
00000000
00100000
00000000
00010000
00000000
00010000
00001000
00000100
00000000
00000100
00000000
,
00000010
00001000
00000000
00000100
00010000
00000000
00010000
00000010
00000000
00000100
00000001
00000000
00000101
00000000
00000000
00000000
,
00000001
00000000
00000100
00000000
00000001
00000000
00000010
00000000
00001000
00000000
00001000
00010000
01000000
00000000
01000000
00000000
,
00100000
00000000
00001000
00010000
00100000
00000000
00010000
00000000
00000100
00001000
00010000
00000000
00100000
00000000
01000000
00000000
,
11000000
00000000
00000000
00000000
10000000
00000000
00100000
00000000
01010000
00000000
00000000
00011000
00000000
00000000
00001010
00000000
,
00000001
00000010
00001000
00000000
00000010
00000001
00001000
00000001
,
00000100
00000000
00000000
00000000
00000001
00000000
00000010
00000000
00001100
00000000
00000000
00011000
00000000
00000000
00110000
00000000
,
00100000
00010000
10000000
00100000
01000000
01000000
01100000
00000000
,
00100000
00000000
10000000
00100000
00000000
00000000
00100000
00000000
01000000
00010000
00000000
00000000
00010000
00000000
00100000
00001000
,
00000000
00000100
00001000
00010000
00001000
00000010
00000100
00001000
,
00000001
00000000
00000100
00000001
00000000
00000000
00000001
00000000
00000010
00000100
00000000
00000000
00000100
00000000
00001000
00000000
,
00001100
00000000
00011000
00000000
01010000
00000000
10000000
00100000
,
01000000
00000000
00010000
01000000
00000000
00000000
01000000
00000000
00100000
10000000
00000000
00000000
10000000
00000000
00010000
00100000
,
00000000
00001000
00000100
00001000
00010000
00001000
00000010
00000001
,
00000100
00000000
00000001
00000100
00000000
00000000
00000100
00000000
00000010
00001000
00000000
00000000
00001000
00000000
00000010
00000000
,
00010000
00000000
00001000
00000000
00100000
00000000
00010000
00000000
10000000
00000000
01000000
00000000
00010000
00001000
00000100
00000000
,
00000002
00000000
00000000
00000000
00000000
00000000
00000000
00000013
,
00000020
00000000
00000000
00000000
00000000
00000000
00000000
00001030
,
00002000
00000000
00023000
00001000
,
02030000
00000000
10000000
00000000
00100000
00000000
03010000
00001000
,
00000100
00001000
00010000
01000000
00010000
00001000
00000010
00001000
,
00010000
00100000
10000000
01000000
00010000
00001000
00000100
00000001
,
00000010
00001000
00010000
00100000
00010000
00001000
00000100
00001000
,
00020000
00000000
00002000
00033000
,
00001100
00000000
00000000
00000000
00001100
00000000
00000000
00010000
00000010
00000000
00000000
00000010
00000100
00000000
00000001
00000000
,
00000100
00001000
00000001
00000000
00000010
00001000
00000001
00000010
,
00010100
00000000
00000000
00000000
00010100
00000000
00000000
00010000
00000010
00000000
00000000
00000010
00001000
00000000
00000000
00000000
,
00200000
00000000
10000000
00000000
00310000
00100000
01000000
01000000
,
01010000
00000000
00000000
00000000
01010000
00000000
00000000
00001000
00100000
00000000
00000000
00100000
01000000
00000000
10000000
00000000
,
01000000
00010000
10000000
00000000
00100000
00010000
10000000
00100000
,
01001000
00000000
00000000
00000000
01001000
00000000
00000000
00001000
00100000
00000000
00000000
00100000
00010000
00000000
00000000
00000000
,
00100000
00001000
00010000
00001000
00000100
00000000
00000010
00010000
00001000
00010000
01000000
00000000
10000000
00000000
00010000
00000000
,
10000000
00100000
00000000
01000000
00000000
00010000
00000000
00100000
00000000
00100000
00000000
01000000
00010000
00000000
00001000
00000000
,
00000100
00000000
00000010
00001000
00000000
00000100
00001000
00000000
00000001
00000000
00000010
00000000
00001000
00000000
00000010
00000000
,
00000001
00000100
00000000
00000010
00000000
00001000
00000000
00000100
00000000
00000100
00000000
00010000
00001000
00000000
00000000
00000000
,
00011000
00000000
00011000
00000000
00001000
00000100
00000001
00001000
,
00000001
00000010
00000000
00000100
00000000
00001000
00000000
00000010
00000000
00000010
00000000
00000100
00001000
00000000
00010000
00000000
,
01000000
00000000
00100000
00010000
00000000
01000000
00010000
00000000
10000000
00000000
00100000
00000000
00010000
00000000
00100000
00000000
,
10000000
01000000
00000000
00100000
00000000
00010000
00000000
01000000
00000000
01000000
00000000
00001000
00010000
00000000
00000000
00000000
,
00100000
10000000
01000000
00010000
00001000
00000000
00000010
00000001
00000100
00001000
00010000
00000000
00000000
00000000
00000000
00000000
,
01020000
10000000
00100000
00031000
,
00002100
00000000
00000001
00000000
00000010
00000000
00013000
00001000
,
00002010
00000001
00000100
00013000
,
00120000
00000000
10000000
00000000
01000000
00000000
00031000
00010000
,
01000000
00000000
00000000
01010000
00000000
00000000
10000000
00000000
00000000
11000000
00000000
00000000
01000000
00000000
00010000
00000000
,
00001000
00000000
00000000
00010100
00000000
00000000
00000100
00000000
00000000
00001010
00000000
00000000
00000001
00000000
00001000
00000000
,
00001010
00000000
00000000
00000001
00000000
00000000
00001001
00000000
00000000
00001000
00000100
00000000
00010000
00000000
00001000
00000000
,
01010000
00000000
00000000
01000000
00000000
00000000
01100000
00000000
00000000
10000000
00000000
00000000
01000000
00000000
00010000
00000000
,
00011000
00000000
00000000
00000000
;
