#VERSION:0.83;
#TITLE:86;
#SUBTITLE:;
#ARTIST:Dasu ft. GUMI/Kagamine Len;
#TITLETRANSLIT:86;
#SUBTITLETRANSLIT:;
#ARTISTTRANSLIT:;
#GENRE:Electro tragedy;
#CREDIT:tikal.;
#MUSIC:86.ogg;
#BANNER:86.png;
#BACKGROUND:86-bg.png;
#CDTITLE:cdtitle.png;
#SAMPLESTART:40.965;
#SAMPLELENGTH:22.994;
#SELECTABLE:YES;
#OFFSET:-0.366;
#BPMS:0=167,238=83.5,240=167;
#SCROLLS:0=1,238=2,240=1;
#TIMESIGNATURES:0=4=4;
#DISPLAYBPM:167;
#ORIGIN:;
#PREVIEWVID:;
#JACKET:86-jacket.png;
#CDIMAGE:;
#DISCIMAGE:;
#BGCHANGES:;
#FGCHANGES:;

//--------------- dance-single - tikal. ----------------
#NOTEDATA:;
#STEPSTYPE:dance-single;
#DESCRIPTION:tikal.;
#DIFFICULTY:Medium;
#METER:7;
#RADARVALUES:0,0,0,0,0;
#NOTES:
0000
0000
0000
0000
,
0000
0000
0000
0000
,
0000
0000
0000
0000
,
2002
0000
0000
3003
,
2000
3100
0002
0103
,
2000
0010
0001
3100
,
0002
0103
2000
3100
,
0002
0010
1000
0103
,
0020
1030
0200
0301
,
0020
0001
0100
1030
,
0200
1300
0020
0031
,
0200
0000
0001
0000
1000
0300
1001
0000
,
1000
0000
1000
0010
0100
0000
0100
0001
,
0020
0000
0100
0000
0031
1000
0001
0100
,
0020
0000
0130
0001
0010
0100
1000
0000
,
0020
0000
0130
0100
0002
0000
2003
3000
,
0001
0000
0001
0010
0100
0000
0100
1000
,
0020
0000
0100
0000
1030
0001
1000
0100
,
0020
0000
0130
1000
0010
0100
0001
0000
,
0020
0000
0130
0000
1000
1000
0001
0001
,
1001
1001
1100
1100
,
1001
1100
0120
0130
,
0011
1001
0011
1001
,
0002
0000
2003
0000
3010
0100
0010
0000
,
1001
1001
0101
0101
,
1001
0101
0120
0130
,
1010
1001
1010
1001
,
2000
0000
0000
0001
0002
0000
3003
0000
,
0000
0000
0110
0000
1001
0000
1000
0100
,
0010
0100
2000
0000
3010
0100
0002
0000
,
0010
2003
0100
0001
,
0010
0000
0001
0000
0100
0000
3001
0010
,
0100
0001
1000
0MM0
1001
0000
0001
0100
,
0000
0010
1000
0001
0010
0001
0200
0000
,
0310
1000
0002
0000
0100
0000
1000
0000
,
0010
0000
1000
0000
0100
0000
1003
0100
,
0010
0100
0110
0000
1001
0000
0001
0100
,
0010
0100
0002
0000
0013
0100
2000
0000
,
0010
3002
0100
1000
,
0010
0000
1000
0000
0203
0000
0310
0100
,
1000
0000
0001
0MM0
1001
0000
1000
0100
,
0020
0000
0032
0000
0103
0010
2000
0000
,
3200
0320
1030
0020
,
0031
0200
0000
0020
0000
0000
0000
0000
,
0330
0000
1001
0000
0001
0010
0100
0000
,
0100
1000
0010
0000
0010
0001
0010
0100
,
0001
0000
0001
0001
2000
0000
3010
1000
,
0100
0010
0001
0000
0200
0000
0310
0010
,
2000
0000
3002
0000
1003
0100
0010
0000
,
0010
0001
0100
0000
0100
1000
0100
0010
,
1000
0000
1000
1000
0002
0000
0103
0001
,
0010
0100
1000
0000
0020
0000
0030
0100
,
0002
2003
3100
0100
,
0011
0000
0000
0001
0100
0000
0000
0100
,
0010
1000
0001
1000
0010
0000
0010
0000
,
0101
0000
0000
0001
0010
0000
0000
0010
,
0100
1000
0001
0000
0100
0000
0100
0000
,
1010
0000
0000
1000
0100
0000
0000
0100
,
0010
0001
1000
0001
0010
0000
0010
0000
,
1100
0000
0000
2000
0002
0000
3003
0000
,
0101
0011
0101
0011
,
1100
1010
1200
0310
,
0011
1010
1100
0101
,
2000
0000
3002
0000
0103
0010
0100
0010
,
1010
1100
1010
1100
,
0011
0101
0021
0130
,
1100
0101
0011
1010
,
0001
0000
0000
1000
0000
0000
0001
0000
1000
0000
0000
0000
0010
0000
0000
0000
,
0110
0000
1001
0000
1000
0010
0100
0010
,
2000
0000
3100
0010
0002
0000
0100
0000
,
2003
0010
0001
0100
,
0001
0000
0010
0000
3001
0100
0010
0001
,
1000
0MM0
1001
0000
0001
0010
0000
0100
,
1000
0000
0001
0000
0100
0000
0001
0000
0020
0000
0000
0230
0000
0000
1300
0000
,
0002
0010
1000
0100
,
1000
0000
0010
0000
1003
0010
0100
0010
,
0110
0000
1001
0000
0001
0010
0100
0010
,
0002
0000
0103
0010
2000
0000
0100
0000
,
3002
0010
1000
0100
,
1000
0000
0013
0100
0010
1000
0001
0MM0
,
1001
0000
1000
0000
0001
0100
0020
0000
,
2030
0000
3100
0010
0002
0000
0203
0000
,
0320
0000
0031
0000
0020
0000
1030
0200
,
0000
0020
0000
0000
0000
0000
0330
0000
,
2002
0000
0000
0000
,
3003
0000
0000
0000
;

//--------------- dance-single - tikal. ----------------
#NOTEDATA:;
#STEPSTYPE:dance-single;
#DESCRIPTION:tikal.;
#DIFFICULTY:Hard;
#METER:9;
#RADARVALUES:0,0,0,0,0;
#OFFSET:-0.366;
#BPMS:0=167,238=83.5,240=167;
#SCROLLS:0=1,12=0.2727,14.75=1,336=0,336.188=4,336.25=0,336.438=4,336.5=0,336.688=4,336.75=0,336.938=4,337=0,337.188=4,337.25=0,337.438=4,337.5=0,337.688=4,337.75=0,337.938=4,341=1;
#CREDIT:tikal.;
#NOTES:
0000
0000
0000
0000
,
0000
0000
0000
0000
,
0000
0000
0000
0000
,
2002
0000
0000
3003
,
1000
0010
0010
0000
0100
0001
0001
0010
,
0000
0001
0000
0001
0100
0010
0100
0001
,
0010
0100
0100
0000
1000
0100
0010
0100
,
1000
0010
0000
0010
0100
0001
2000
0000
,
3001
0010
0010
0000
0100
1000
1000
0010
,
0000
1000
0000
1000
0100
0010
0100
1000
,
0010
0100
0100
0000
0001
0100
0010
0100
,
0001
0000
0010
0010
0100
1000
1001
0000
,
1000
0000
0000
1000
0010
0000
0100
0000
0001
0000
0000
0010
0100
0000
1000
0000
,
0020
0000
0130
0001
0001
0100
0010
1000
,
0002
0000
0000
0000
0013
0000
0100
0000
1000
0000
1000
0000
0010
0000
0000
0100
,
0020
0000
1030
0001
0010
0010
0100
1000
,
0001
0000
0000
0001
0010
0000
0100
0000
1000
0000
0000
0010
0100
0000
0001
0000
,
0020
0000
0130
1000
1000
0100
0010
0001
,
2000
0000
0000
0000
3010
0000
0100
0000
0001
0000
0001
0000
0100
0000
0000
0010
,
0200
0000
0301
1000
0100
0100
0010
0001
,
1000
0100
0010
0100
1000
0100
0001
0100
,
0010
0100
0001
0100
2000
0000
0001
0000
,
3010
0001
0010
0100
0010
0001
0010
1000
,
0200
0000
0001
0000
1300
0010
0100
0001
,
2001
0000
3010
0100
0001
0100
1000
0100
,
0010
0100
1000
0100
0002
0000
1000
0000
,
0013
1000
0010
0100
0010
1000
0010
0001
,
0200
0000
0000
0000
0000
0000
0010
0000
0020
0000
0000
0000
0330
0000
0000
1000
,
0001
0000
0021
0000
0230
0000
1300
0001
,
0100
0010
0200
0000
0310
1000
0200
0000
,
0320
0000
0032
0000
0103
2000
0000
3200
,
0000
0020
0000
0300
1030
0001
0010
0100
,
0010
1000
0001
0MM0
1001
0000
1000
0010
,
0000
0100
0001
0010
0100
0010
0002
0000
,
0103
0010
2000
0000
3100
0010
2000
0000
,
3010
0002
0000
2000
0000
0003
3010
0001
,
0010
1000
1020
0000
0230
0000
0301
1000
,
0100
0010
0200
0000
0310
0001
0200
0000
,
0320
0000
2030
0000
3010
0200
0000
0310
,
2000
0002
0000
3000
0013
0100
1000
0010
,
0001
0000
1000
0MM0
1001
0000
0001
0010
,
0200
0000
2300
0000
3010
0100
0002
0000
,
0023
0000
0230
0000
1300
0001
0200
0000
,
0310
2000
0000
0002
0000
0000
0000
3003
,
1000
0000
0000
0000
0100
00M0
0100
0000
0001
0000
0010
0000
0010
0000
0000
0000
,
0100
1000
0010
1010
0000
0101
0000
0100
,
1000
0100
0001
0001
1000
0100
0100
0000
,
0010
0001
0100
0101
0000
1010
0000
0001
,
0010
1000
0010
0100
1000
0010
0010
0000
,
0100
0001
0010
0011
0000
1100
0000
0100
,
0001
0100
1000
1000
0001
0100
0100
0000
,
0010
1000
0100
1100
0000
0011
0000
1000
,
0010
0001
0010
0100
0001
0000
0001
1000
,
0020
0000
0000
2030
0000
0000
3002
0000
0023
0000
0000
0000
0030
0000
0100
0000
,
0100
0000
0010
0001
0010
0000
0100
0000
2000
0000
0000
0000
3001
0000
0100
0000
,
0010
0100
0001
1000
0200
0000
0300
0010
,
0001
0001
1000
0001
1000
0000
1000
0001
,
0020
0000
0000
0032
0000
0000
2003
0000
3020
0000
0000
0000
0030
0000
0100
0000
,
0100
0000
0010
1000
0010
0000
0100
0000
0002
0000
0000
0000
1003
0000
0001
0000
,
0010
0001
0100
0000
0220
0000
0330
0000
,
1000
0100
0001
0100
1000
0100
0001
0100
,
0010
1000
0010
0001
0200
0000
0010
0000
,
1300
0100
0001
0100
1000
0100
0001
0010
,
0200
0000
0001
0000
1300
0010
0100
0001
,
2001
0000
3010
0100
1000
0100
0001
0100
,
0010
0001
0010
1000
0200
0010
0010
0000
,
0301
0100
1000
0100
0001
0100
1000
0010
,
0100
0000
0000
0100
0000
0000
0100
0000
0110
0000
0000
0000
1001
0000
0000
0000
,
1200
0000
0320
0000
0031
1000
0010
0100
,
0020
0000
0130
0001
0020
0000
0230
0000
,
2300
0000
3010
0002
0000
0023
0000
0200
,
0000
0030
0301
1000
0100
0010
0100
0001
,
1000
0MM0
1001
0000
0001
0100
0000
0010
,
1000
0000
0100
0000
0010
0000
0100
0000
2000
0000
0000
3020
0000
0000
0130
0000
,
0002
0000
0013
0100
0002
0000
0103
2000
,
0000
0002
0000
3000
0103
1000
0100
0001
,
0201
0000
0320
0000
1030
0001
0010
0100
,
0020
0000
0130
1000
0020
0000
0230
0000
,
0302
0000
0103
0020
0000
0130
0002
2000
,
0003
3100
0010
0001
0100
1000
0001
0MM0
,
1001
0000
1000
0000
0001
0010
0200
0000
,
0302
0000
1003
0010
0200
0000
2300
0000
,
3020
0000
0130
0001
0020
0000
0130
2000
,
0000
0002
0000
0000
0000
0000
3003
0000
,
1000
0001
1000
0001
1000
0001
1000
0002
2000
0000
0000
0000
0000
0000
0000
0000
,
3003
0000
0000
0000
;

//--------------- dance-single - tikal. ----------------
#NOTEDATA:;
#STEPSTYPE:dance-single;
#DESCRIPTION:tikal.;
#DIFFICULTY:Challenge;
#METER:10;
#RADARVALUES:0,0,0,0,0;
#OFFSET:-0.366;
#BPMS:0=167,238=83.5,240=167;
#SCROLLS:0=1,12=0.6364,14.75=1,336=0,336.188=4,336.25=0,336.438=4,336.5=0,336.688=4,336.75=0,336.938=4,337=0,337.188=4,337.25=0,337.438=4,337.5=0,337.688=4,337.75=0,337.938=4,341=1;
#CHARTNAME:;
#CHARTSTYLE:;
#CREDIT:tikal.;
#NOTES:
0000
0000
0000
0000
,
0000
0000
0000
0000
,
0000
0000
0000
0000
,
2002
0000
0000
0000
0000
0000
0000
0000
3003
0000
0000
1000
0100
01M0
0001
0010
,
0200
0000
0000
0000
1300
0000
0001
0000
0020
0000
0000
0032
0000
0000
2003
0000
,
3020
0000
0000
0000
0130
0000
0001
0000
0001
0000
1000
0010
1000
0000
0100
0000
,
0010
0000
0000
0010
0001
0000
1000
0000
0020
0000
2030
0000
3002
0000
0023
0000
,
0230
0000
1300
0001
2000
3200
0340
0034
,
0203
0000
0000
0000
0301
0000
1000
0000
0020
0000
0000
2030
0000
0000
3002
0000
,
0023
0000
0000
0000
0130
0000
1000
0000
1000
0000
0001
0010
0001
0000
0100
0000
,
0010
0000
0000
0010
1000
0000
0001
0000
0020
0000
0032
0000
2003
0000
3020
0000
,
0200
0000
0330
0000
0001
0001
0001
0001
,
0010
0000
0001
1000
0010
0000
0100
0000
0001
0010
0000
0100
0010
0000
0001
0000
,
2000
0000
0000
0000
3010
0000
0100
0000
0100
0000
0010
1000
0001
0000
1000
0000
,
0100
0000
0000
0100
0010
0000
0001
0000
0100
0000
01M0
0000
1000
0000
0000
0010
,
2000
0000
3100
0010
0002
0203
0340
4030
,
3010
0000
1000
0001
0010
0000
0100
0000
1000
0010
0000
0100
0010
0000
1000
0000
,
0002
0000
0000
0000
0013
0000
0100
0000
0100
0000
0010
0001
1000
0000
0001
0000
,
0100
0000
0000
0000
0010
0000
1000
0000
0001
0000
1000
0000
0100
0000
0000
0010
,
0002
0000
0103
0010
1000
1000
1000
1000
,
0002
0000
0010
0000
0023
0000
0100
0000
0230
0000
1000
0000
2300
0000
3100
01M0
,
0002
0000
0100
0000
2003
0000
3100
0000
1001
0000
0000
0001
0010
0000
0010
0000
,
0200
1000
2300
0001
3002
0100
0203
0310
,
1020
0000
0001
0000
1030
0100
0001
0100
,
2001
0000
0000
0000
3020
0000
0100
0000
0230
0000
0001
0000
0302
0000
0103
01M0
,
2000
0000
0100
0000
3002
0000
0103
0000
1001
0000
0000
1000
0010
0000
0010
0000
,
0200
0001
0302
1000
2003
0100
3200
0310
,
0002
0000
0000
0000
0000
0000
1000
0000
2000
0000
0000
0000
3003
0000
0000
0001
,
1000
0010
1020
0000
0230
0000
0301
0100
,
1000
0100
0020
0000
1030
0100
0002
0000
,
0203
0000
2300
0000
3010
0200
0000
0302
,
0000
2000
0000
0003
3010
0100
0001
1000
,
0100
0001
1000
0MM0
1001
0000
0001
0100
,
0000
0010
1000
0100
0100
0010
0002
0000
,
0103
0010
2000
0000
3100
0010
2000
0000
,
3010
0002
0000
2000
0003
3010
0100
1000
,
0100
0001
0021
0000
0230
0000
1300
0100
,
0001
0100
0020
0000
0031
0100
2000
0000
,
3200
0000
0302
0000
1003
0200
0000
0310
,
0002
2000
0000
0003
3010
0100
0001
0100
,
1000
0000
0001
0MM0
1001
0000
1000
0100
,
0020
0000
2030
0000
3010
0001
0200
0000
,
0320
0000
0032
0000
0013
1000
0002
0000
,
1003
0200
0000
0020
0000
0300
0031
1000
,
0100
0000
1000
0000
0010
0M10
0001
1000
0010
0000
1000
0010
1000
0000
0100
0000
,
0010
0001
0000
0100
0001
0000
1000
0000
0200
0000
0320
0000
0230
0000
2300
0000
,
3002
0000
1003
0010
0100
0000
010M
0000
1000
0000
0010
0000
0100
0000
0100
0001
,
1000
0000
0100
0000
0010
0000
0100
0000
2000
0000
0000
0000
3001
0000
0010
0100
,
2000
0000
3020
0000
0430
0000
0304
0000
0013
0000
0001
0010
0001
0000
0100
0000
,
0010
1000
0000
0100
1000
0000
0001
0000
0200
0000
0320
0000
0230
0000
0302
0000
,
2003
0000
3001
0010
0100
0000
M100
0000
0001
0000
0010
0000
0100
0000
0100
1000
,
0001
0000
0100
0000
0010
0000
0100
0000
0002
0000
0003
0000
1000
0000
0010
0100
,
0002
0023
0430
4300
3010
0100
0000
0100
,
1001
0000
1000
0000
0100
0000
0010
0001
0100
0000
0010
0000
0000
0000
0010
0000
,
1001
0000
1000
0001
0100
00M0
0100
0000
1000
0000
0010
0000
0020
0000
0000
0030
,
1001
0000
0001
0000
1000
0000
0100
0010
0001
0000
0000
0000
0100
00M0
0100
0000
,
2000
3020
0430
0304
0013
0100
0000
0100
,
1001
0000
0001
0000
0100
0000
0010
1000
0100
0000
0010
0000
0000
0000
0010
0000
,
1001
0000
0001
1000
0100
00M0
0100
0000
0001
0000
0010
0000
0020
0000
0000
0030
,
1001
1000
0001
0100
0220
0000
0330
0000
,
0102
0000
0013
0000
0012
0000
0103
0000
0102
0000
1003
0000
1002
0000
0103
01M0
,
2000
0000
3010
0000
2010
0000
3001
0000
2001
0000
0000
3001
1000
0000
0100
01M0
,
0002
0013
0012
1003
2010
3100
2100
3001
,
0021
0000
1000
0000
0031
0100
1000
0100
,
1001
0000
0000
0000
2100
0000
3010
0000
2010
0000
3001
0000
2001
0000
3010
0M10
,
0002
0000
0103
0000
0102
0000
1003
0000
1001
0000
0001
1000
0001
0000
0010
0M10
,
2000
3100
0012
0103
0102
0013
2100
3010
,
0120
0000
0000
0100
0000
0000
0130
0000
1001
0000
0000
1000
0100
01M0
0001
0010
,
0200
0000
0320
0000
1030
0010
0001
0010
,
0200
0000
0301
0100
0020
0000
0032
0000
,
0203
0000
0310
2000
0000
3020
0000
0230
,
1000
0000
0301
0010
0100
1000
0010
0001
,
1000
0MM0
1001
0000
0001
0020
0000
0130
,
1000
0000
0010
0000
0001
0000
0010
0000
1000
0001
0000
0010
0001
0000
0100
0000
,
0020
0000
0130
0001
0020
0000
0130
2000
,
0000
0002
3000
1003
0001
0100
1000
0100
,
0201
0000
0320
0000
0031
0010
1000
0010
,
0200
0000
1300
0100
0020
0000
2030
0000
,
3200
0000
0310
0002
0000
1003
0020
0200
,
0030
1300
0100
0001
0010
1000
0001
0MM0
,
1001
0000
1000
0000
0001
0010
0200
0000
,
0302
0000
1003
0010
0200
0000
2300
0000
,
3020
0000
0130
0001
0020
0000
0130
2000
,
0000
0002
3000
0013
0100
1000
0001
0100
,
1000
0100
0010
1000
0100
0010
0001
0200
0020
0000
0000
0000
0000
0000
0000
0000
,
0330
0000
0000
0000
;
