#TITLE:The Wall;
#SUBTITLE:;
#ARTIST:Alok & Sevenn;
#TITLETRANSLIT:;
#SUBTITLETRANSLIT:;
#ARTISTTRANSLIT:;
#GENRE:Electro house;
#CREDIT:tikal. respect for C.B.;
#MUSIC:thewall.ogg;
#BANNER:;
#BACKGROUND:;
#CDTITLE:;
#SAMPLESTART:39.050;
#SAMPLELENGTH:19.513;
#SELECTABLE:YES;
#OFFSET:-0.026;
#BPMS:0.000=123.000
,52.000=138.375
,56.500=153.750
,61.500=169.125
,67.000=184.500
,73.000=205.000
,79.667=225.500
,87.000=246.000
,95.000=61.500
,99.000=184.500
,99.250=92.250
,99.500=184.500
,99.750=92.250
,100.000=123.000
,100.500=184.500
,100.750=92.250
,101.000=492.000
,101.417=123.000
,101.438=61.500
,101.750=123.000
,102.000=184.500
,103.250=92.250
,103.500=123.000
,105.000=492.000
,105.250=123.000
,105.313=61.500
,105.500=184.500
,106.000=123.000
,107.000=184.500
,107.250=92.250
,107.500=184.500
,107.750=92.250
,108.000=123.000
,108.500=184.500
,108.750=92.250
,109.000=492.000
,109.250=123.000
,109.313=61.500
,109.500=184.500
,110.000=123.000
,113.000=492.000
,113.250=123.000
,113.313=61.500
,113.500=184.500
,114.250=92.250
,114.500=184.500
,114.750=92.250
,115.000=184.500
,115.250=92.250
,115.500=184.500
,115.750=92.250
,116.000=492.000
,116.500=123.000
,116.625=61.500
,117.000=492.000
,117.250=123.000
,117.313=61.500
,117.500=123.000
,119.000=184.500
,119.250=92.250
,119.500=123.000
,121.000=492.000
,121.250=123.000
,121.313=61.500
,121.500=184.500
,122.000=492.000
,122.500=123.000
,122.625=61.500
,123.000=184.500
,123.250=92.250
,123.500=184.500
,123.750=92.250
,124.000=123.000
,124.500=184.500
,124.750=92.250
,125.000=492.000
,125.250=123.000
,125.313=61.500
,125.500=184.500
,126.000=123.000
,129.000=246.000
,129.750=123.000
,130.000=184.500
,130.250=92.250
,130.500=184.500
,130.750=92.250
,131.000=61.500
,135.000=184.500
,135.250=92.250
,135.500=184.500
,135.750=92.250
,136.000=123.000
,136.500=184.500
,136.750=92.250
,137.000=492.000
,137.250=123.000
,137.313=61.500
,137.500=184.500
,139.250=92.250
,139.500=184.500
,140.000=123.000
,141.000=492.000
,141.250=123.000
,141.313=61.500
,141.500=184.500
,142.000=123.000
,143.000=184.500
,143.250=92.250
,143.500=184.500
,143.750=92.250
,144.000=123.000
,144.500=184.500
,144.750=92.250
,145.000=492.000
,145.250=123.000
,145.313=61.500
,145.500=184.500
,147.000=123.000
,149.000=492.000
,149.250=123.000
,149.313=61.500
,149.500=184.500
,150.250=92.250
,150.500=184.500
,150.750=92.250
,151.000=184.500
,151.250=92.250
,151.500=184.500
,151.750=92.250
,152.000=492.000
,152.500=123.000
,152.625=61.500
,153.000=492.000
,153.250=123.000
,153.313=61.500
,153.500=184.500
,155.250=92.250
,155.500=184.500
,156.000=123.000
,157.000=492.000
,157.250=123.000
,157.313=61.500
,157.500=184.500
,158.000=123.000
,159.000=184.500
,159.250=92.250
,159.500=184.500
,159.750=92.250
,160.000=123.000
,160.500=184.500
,160.750=92.250
,161.000=492.000
,161.250=123.000
,161.313=61.500
,161.500=184.500
,163.250=92.250
,163.500=123.000
,165.000=246.000
,165.750=123.000
,166.000=184.500
,166.250=92.250
,166.500=184.500
,166.750=92.250
,167.000=123.000
,171.000=138.375
,175.500=153.750
,180.500=169.125
,186.000=184.500
,192.000=205.000
,198.667=225.500
,206.000=246.000
,214.000=61.500
,218.000=184.500
,218.250=92.250
,218.500=184.500
,218.750=92.250
,219.000=123.000
,219.500=184.500
,219.750=92.250
,220.000=492.000
,220.417=123.000
,220.438=61.500
,220.750=123.000
,221.000=184.500
,222.250=92.250
,222.500=123.000
,224.000=492.000
,224.250=123.000
,224.313=61.500
,224.500=184.500
,225.000=123.000
,226.000=184.500
,226.250=92.250
,226.500=184.500
,226.750=92.250
,227.000=123.000
,227.500=184.500
,227.750=92.250
,228.000=492.000
,228.250=123.000
,228.313=61.500
,228.500=184.500
,229.000=123.000
,232.000=492.000
,232.250=123.000
,232.313=61.500
,232.500=184.500
,233.250=92.250
,233.500=184.500
,233.750=92.250
,234.000=184.500
,234.250=92.250
,234.500=184.500
,234.750=92.250
,235.000=492.000
,235.500=123.000
,235.625=61.500
,236.000=492.000
,236.250=123.000
,236.313=61.500
,236.500=123.000
,238.000=184.500
,238.250=92.250
,238.500=123.000
,240.000=492.000
,240.250=123.000
,240.313=61.500
,240.500=184.500
,241.000=492.000
,241.500=123.000
,241.625=61.500
,242.000=184.500
,242.250=92.250
,242.500=184.500
,242.750=92.250
,243.000=123.000
,243.500=184.500
,243.750=92.250
,244.000=492.000
,244.250=123.000
,244.313=61.500
,244.500=184.500
,245.000=123.000
,248.000=246.000
,248.750=123.000
,249.000=184.500
,249.250=92.250
,249.500=184.500
,249.750=92.250
,250.000=61.500
,254.000=184.500
,254.250=92.250
,254.500=184.500
,254.750=92.250
,255.000=123.000
,256.000=492.000
,256.250=123.000
,256.313=61.500
,256.500=184.500
,258.250=92.250
,258.500=184.500
,259.000=123.000
,260.000=492.000
,260.250=123.000
,260.313=61.500
,260.500=184.500
,262.250=92.250
,262.500=184.500
,262.750=92.250
,263.000=123.000
,264.000=492.000
,264.250=123.000
,264.313=61.500
,264.500=184.500
,266.000=123.000
,268.000=492.000
,268.250=123.000
,268.313=61.500
,268.500=184.500
,269.250=92.250
,269.500=184.500
,269.750=92.250
,270.000=184.500
,270.250=92.250
,270.500=184.500
,270.750=92.250
,271.000=123.000
,272.000=492.000
,272.250=123.000
,272.313=61.500
,272.500=184.500
,274.250=92.250
,274.500=184.500
,275.000=123.000
,276.000=492.000
,276.250=123.000
,276.313=61.500
,276.500=184.500
,277.500=123.000
,278.000=184.500
,278.250=92.250
,278.500=184.500
,278.750=92.250
,279.000=123.000
,280.000=492.000
,280.250=123.000
,280.313=61.500
,280.500=184.500
,282.000=123.000
;
#STOPS:102.000=0.041
,102.250=0.041
,102.500=0.040
,102.750=0.041
,105.500=0.040
,105.750=0.041
,109.500=0.040
,109.750=0.041
,113.500=0.040
,113.750=0.041
,121.500=0.040
,121.750=0.041
,125.500=0.040
,125.750=0.041
,129.000=0.061
,129.250=0.061
,129.500=0.061
,137.500=0.041
,137.750=0.040
,138.000=0.041
,138.250=0.041
,138.500=0.039
,138.750=0.041
,139.500=0.041
,139.750=0.041
,141.500=0.041
,141.750=0.040
,145.500=0.040
,145.750=0.041
,146.000=0.041
,146.250=0.041
,146.500=0.040
,146.750=0.041
,149.500=0.041
,149.750=0.040
,153.500=0.041
,153.750=0.040
,154.000=0.041
,154.250=0.041
,154.500=0.040
,154.750=0.041
,155.500=0.041
,155.750=0.041
,157.500=0.040
,157.750=0.041
,161.500=0.041
,161.750=0.040
,162.000=0.041
,162.250=0.041
,162.500=0.040
,162.750=0.041
,165.000=0.061
,165.250=0.061
,165.500=0.061
,221.000=0.040
,221.250=0.041
,221.500=0.041
,221.750=0.041
,224.500=0.040
,224.750=0.041
,228.500=0.040
,228.750=0.041
,232.500=0.040
,232.750=0.041
,240.500=0.040
,240.750=0.041
,244.500=0.040
,244.750=0.041
,248.000=0.061
,248.250=0.061
,248.500=0.061
,256.500=0.041
,256.750=0.040
,257.000=0.041
,257.250=0.041
,257.500=0.040
,257.750=0.041
,258.500=0.041
,258.750=0.041
,260.500=0.040
,260.750=0.041
,261.000=0.041
,261.250=0.040
,261.500=0.041
,261.750=0.041
,264.500=0.041
,264.750=0.041
,265.000=0.039
,265.250=0.041
,265.500=0.041
,265.750=0.041
,268.500=0.041
,268.750=0.040
,272.500=0.041
,272.750=0.040
,273.000=0.041
,273.250=0.041
,273.500=0.040
,273.750=0.041
,274.500=0.040
,274.750=0.041
,276.500=0.040
,276.750=0.041
,277.000=0.041
,277.250=0.041
,280.500=0.041
,280.750=0.041
,281.000=0.040
,281.250=0.040
,281.500=0.041
,281.750=0.041
;
#DISPLAYBPM:123.000;
#BGCHANGES:;
#FGCHANGES:;

//--------------- dance-single - tikal. respect for C.B. ----------------
#NOTES:
     dance-single:
     tikal. respect for C.B.:
     Challenge:
     9:
     0,0,0,0,0:
0000
0000
0000
0000
,
0000
0000
0000
0000
,
0000
0000
0000
0000
,
0000
0000
0000
0000
,
2000
0000
0000
3100
0010
0000
0100
0000
1000
0100
0001
0000
0001
0100
1000
0001
,
0200
0000
0000
1300
0100
0000
0010
0000
1000
0100
0010
0000
1001
0000
0000
0000
,
0002
0000
0000
0103
0010
0000
0100
0000
0001
0100
1000
0000
1000
0100
0001
1000
,
0200
0000
0000
0301
0100
0000
0010
0000
0001
0100
0010
0000
1001
0000
0000
0000
,
2000
0000
0000
3010
0100
0001
1000
0000
0001
0010
1000
0000
1000
0010
0001
1000
,
0200
0000
0000
0301
0100
0010
0001
0000
1000
0010
0100
0000
1001
0000
0000
0000
,
0002
0000
0000
0013
0100
1000
0001
0000
1000
0010
0001
0000
0001
0010
1000
0001
,
0200
0000
0000
1300
0100
0010
1000
0000
0001
0010
0100
0000
1001
0000
0000
0000
,
2100
3001
2010
3001
,
0012
0000
0000
0000
0000
0000
0000
0000
0000
1003
0000
0000
0000
0000
0000
0000
0000
0000
0101
0000
0000
0000
0000
0000
0000
0000
0000
1100
0000
0000
0000
0000
,
0000
0000
0000
0000
0000
0000
0000
0000
1020
0000
0000
0000
0000
0000
0000
0000
0000
0000
0000
0000
0000
0000
0000
0130
0000
0000
0000
0000
0001
0000
0000
0000
0000
0000
0000
0000
0000
0000
0000
0000
0000
0000
0000
0000
0000
0000
0000
0000
1200
0000
0000
0000
0000
0000
0000
0000
0000
0000
0000
0000
0000
0000
0000
0310
,
0000
0000
0000
0000
0000
0000
0000
0000
0000
0000
0000
0000
0001
0000
0000
0000
0000
0000
0000
0000
0000
0000
0000
0000
0000
0000
0000
0000
0000
0000
0000
0000
0000
0000
0000
0000
0000
0000
0000
0000
0000
0000
0000
0000
0000
0000
0000
0000
0000
0000
0000
0000
0000
0000
0000
0000
0000
0000
0000
0000
0000
0000
0000
0000
0000
0000
0000
0000
0000
0000
0000
0000
0021
0000
0000
0000
0000
0000
0000
0000
0000
0000
0000
0000
0000
0000
0000
0000
0000
0000
0000
0000
0000
0000
0000
0000
0000
0000
0000
0000
0000
0000
0000
0000
0000
0000
0000
0000
0000
0000
0000
0000
0000
0000
0000
0000
0000
0000
0000
0000
0030
0100
0000
0000
0000
0000
0000
0000
0000
0000
0000
0000
0000
0000
0000
0000
0000
0000
1000
0000
0000
0000
0000
0000
0000
0000
0000
0000
0000
0000
0000
0000
0000
0000
0000
0000
0000
0000
0000
0000
0000
0000
0000
0000
0000
0000
0000
0000
0000
0000
0000
0001
0000
0000
0000
0000
0000
0000
0000
0000
0000
0000
0000
0000
0000
0000
0000
0000
0000
0000
0000
0000
,
0000
0000
0000
0000
0000
0000
0000
0000
0000
0000
0000
0000
1000
0000
0000
0000
0000
0000
0000
0000
0000
0000
0000
0000
0000
0000
0000
0000
0000
0010
0000
0000
0000
0000
0000
0000
0000
0000
0000
0000
0000
0000
0000
0000
0000
0100
0000
0000
0000
0000
0000
0000
0000
0000
0000
0000
0000
0000
0000
0000
0000
0000
0000
0000
0000
0000
0000
0000
0000
0000
0000
0000
0000
0000
0000
0000
0000
0000
0001
0000
0000
0000
0000
0000
0000
0000
0000
0000
0000
0000
0000
0000
0000
0000
0000
0000
0000
0000
0000
0000
0000
0000
0000
0000
0000
0000
0000
0000
0000
0000
0000
0000
0000
0000
0000
0000
0000
0000
0000
0000
0000
0000
0000
0000
0000
0000
0000
0000
0000
0000
0000
0000
0000
0000
0000
0000
0000
0000
0000
0000
0000
0000
0000
0000
1000
0000
0000
0000
0000
0000
0000
0000
0000
0000
0000
0000
0000
0000
0000
0000
0000
0000
0000
0000
0000
0000
0000
0000
0000
0000
0000
0000
0000
0000
0000
0000
0000
0000
0000
0000
0100
0000
0000
0000
0000
0000
0000
0000
0000
0000
0000
0000
,
0000
0000
1000
0000
0000
0100
0000
0000
0001
0000
0000
0100
0000
0000
0001
0000
,
0000
0000
0000
0100
0000
0000
0000
0000
0000
0000
0000
0000
1000
0000
0000
0000
0000
0000
0000
0000
0000
0000
0010
0000
0000
0000
0000
0000
0000
0000
0000
0000
1000
0000
0000
0000
0000
0000
0000
0000
0000
0000
0010
0000
0000
0000
0000
0000
,
0000
0000
0001
0000
0000
0000
0000
0010
0000
0000
0000
0000
0001
0000
0000
0000
0000
0010
0000
0000
0000
0000
0100
0000
,
0000
0000
0000
0010
0000
0000
0000
0000
0000
0000
0000
0000
0000
0000
0100
0000
0000
0000
0000
0000
0000
0000
0000
0000
0000
0010
0000
0000
0000
0000
0000
0000
0000
0000
0000
0000
0000
0000
0000
0000
0000
0000
0000
0000
0000
0000
0000
1000
0000
0000
0000
0000
0000
0000
0000
0000
0000
0000
0010
0000
0000
0000
0000
0000
0000
0000
0000
0000
0000
1000
0000
0000
0000
0000
0000
0000
0000
0000
0000
0000
0000
0000
0000
0000
0000
0000
0000
0000
0000
0000
0000
0001
0000
0000
0000
0000
,
0000
0000
0000
0000
0000
0000
0010
0000
0000
0000
0000
0000
0000
0000
0000
0000
0000
0001
0000
0000
0000
0000
0000
0000
0000
0000
0000
0000
0000
0000
0000
0000
0000
0000
0000
0000
0000
0000
0000
1000
0000
0000
0000
0000
0000
0000
0000
0000
0000
0000
0001
0000
0000
0000
0000
0000
0000
0000
0000
0000
0000
4000
0000
0000
0000
0000
0000
0000
0000
0000
0000
0000
0004
0000
0000
0000
0000
0000
0000
0000
0000
0000
0000
0000
0000
0000
0000
0000
0000
0000
0000
0000
0000
0000
0000
0000
,
0000
0000
0000
0000
,
0000
0000
0000
0000
0000
0000
0000
0000
3000
0000
0003
0000
1001
0M00
0000
00M0
,
0000
0M00
0000
0000
000M
0000
0M00
00M0
0000
0M00
0000
0000
2000
0000
3200
0000
,
0301
0000
0200
0000
0340
0000
0030
0001
1000
0100
0001
0100
1000
0000
0000
0001
,
0010
0000
0100
0000
0040
0000
0031
0100
0010
0000
1000
0000
0002
0000
0203
0000
,
1300
0000
0200
0000
0340
0000
0130
1000
0001
0000
0010
0000
100M
0000
000M
010M
,
0010
000M
100M
0000
M040
0000
M130
M010
0002
M000
M203
0000
0320
0000
2030
0000
,
3400
0000
0000
0000
0304
0000
0003
0100
1000
0000
0001
0000
1000
0000
0000
0001
,
0100
0000
0010
0000
0004
0000
0013
0100
0040
0000
0000
0030
2000
0000
3020
0000
,
0031
0000
0020
0000
0430
0000
0310
1000
0001
0000
0010
0000
M001
M000
M000
M100
,
M010
0000
M000
0000
M001
0000
M000
0000
001M
0000
100M
0000
001M
0000
000M
0000
200M
0000
000M
0000
320M
0000
000M
0300
1001
0000
0M00
0000
0000
0000
00M0
0000
,
0000
0000
0M00
0000
0000
0000
0000
0000
M001
0000
0100
0010
1M00
0001
10M0
0100
0010
0001
0100
0000
1001
0000
0110
0000
2000
0000
0000
0000
3200
0000
0000
0000
,
0301
0000
0200
0000
0340
0000
0031
0100
0010
0100
1000
0100
0001
0000
1000
0100
,
0001
0000
0100
0000
0040
0000
0031
1000
1001
0000
0000
0000
0002
0000
0203
0000
,
1300
0000
0200
0000
0340
0000
1030
0100
0010
0100
0001
0100
100M
0000
001M
010M
,
0010
100M
010M
0000
M040
0000
M130
M010
0002
M000
M203
0000
0320
0000
2030
0000
,
3400
0000
0000
0000
0304
0000
0103
1000
0001
1000
0010
0100
0001
0000
0100
1000
,
0100
0000
0010
0100
0004
0000
0013
0100
0110
0000
0000
0000
2000
0000
3020
0000
,
0031
0000
0020
0000
0430
0000
0310
1000
0001
1000
0100
0010
M001
M000
M000
M010
,
M100
0000
M000
0000
M001
0000
M000
0000
010M
0000
100M
0000
010M
0000
000M
0000
200M
0000
000M
0000
302M
0000
000M
0030
0102
0000
0000
0000
0000
0000
0000
0000
,
1003
0012
1003
2010
,
0000
3001
0000
0000
0000
0000
0000
0000
0000
0000
1100
0000
0000
0000
0000
0000
0000
0000
0000
0101
0000
0000
0000
0000
0000
0000
0000
0000
0021
0000
0000
0000
,
0000
0000
0000
0000
0000
0000
0000
0130
0000
0000
0000
0000
1000
0000
0000
0000
0000
0000
0000
0000
0000
0000
0001
0000
0000
0000
0000
0000
0000
0000
0000
0000
0201
0000
0000
0000
0000
0000
0000
0000
0000
0000
0000
0000
0000
0000
0000
0310
0000
0000
0000
0000
1000
0000
0000
0000
0000
0000
0000
0000
0000
0000
0001
0000
,
0000
0000
0000
0000
0000
0000
0000
0000
0000
1000
0000
0000
0000
0000
0000
0000
0000
0000
0000
0000
0000
0000
0000
0000
1020
0000
0000
0000
0000
0000
0000
0000
0000
0000
0000
0000
0000
0000
0000
0000
0000
0000
0000
0000
0000
0000
0000
0000
0000
0000
0000
0000
0000
0000
0000
0000
0000
0000
0000
0000
0000
0000
0000
0000
0000
0000
0000
0000
0000
0000
0000
0000
0030
0100
0000
0000
0000
0000
0000
0000
0000
0000
0000
0000
0000
0000
0000
0000
0000
0000
0001
0000
0000
0000
0000
0000
0000
0000
0000
0000
0000
0000
0000
0000
0000
0000
1000
0000
0000
0000
0000
0000
0000
0000
0000
0000
0000
0000
0000
0000
0000
0000
0000
0001
0000
0000
0000
0000
0000
0000
0000
0000
0000
0000
0000
0000
0000
0000
0000
0000
0000
0000
0000
0000
0000
0000
0000
0000
0000
0000
0000
0000
0000
0000
0000
0000
0010
0000
0000
0000
0000
0000
0000
0000
0000
0000
0000
0000
0000
0000
0000
0000
0000
0000
0000
0000
0000
0000
0000
0000
0000
0000
0000
0000
0000
0000
0000
0000
0000
0100
0000
0000
,
0000
0000
0000
0000
0000
0000
0000
0000
0000
0000
0000
0000
0000
0000
0000
0000
0000
0000
0000
0000
0000
0000
0000
0000
0000
0000
0000
0000
0000
0000
1000
0000
0000
0000
0000
0000
0000
0000
0000
0000
0000
0000
0000
0000
0000
0000
0000
0000
0000
0000
0000
0000
0000
0000
0000
0000
0000
0000
0000
0000
0000
0000
0000
0001
0000
0000
0000
0000
0000
0000
0000
0000
0000
0000
0000
0000
0000
0000
0000
1000
0000
0000
0000
0000
0000
0000
0000
0000
0000
0000
0000
0000
0000
0000
0000
0000
0001
0000
0000
0000
0000
0000
0000
0000
0000
0000
0000
0000
0000
0000
0000
0000
0000
0000
0000
0000
0000
0000
0000
0000
0000
0000
0000
0000
0000
0000
0000
0000
0000
0000
0000
0000
0100
0000
0000
0000
0000
0000
0000
0000
0000
0000
0000
0000
0000
0000
0000
0000
0000
0000
0000
0000
0000
0000
0000
0000
0000
0000
0000
0000
0000
0000
0000
0000
0000
0000
0000
0000
0001
0000
0000
0000
0000
0000
0000
0000
0000
0000
0000
0000
0000
0000
0000
0000
0000
0000
0000
0000
0000
0000
0000
0000
,
0000
0100
0000
0000
1000
0000
0000
0100
0000
0000
1000
0000
0000
0100
0000
0000
,
0001
0000
0000
0000
0000
0010
0000
0000
0000
0000
0001
0000
0000
0000
0000
0010
0000
0000
0000
0000
1000
0000
0000
0000
,
0000
0000
0000
0000
0010
0000
0000
0000
0000
0000
0000
0000
0000
0000
0000
0000
0000
0000
0000
0000
0000
0000
0000
0000
1000
0000
0000
0000
0000
0000
0000
0000
0000
0000
0000
0000
0000
0000
0000
0000
0000
0000
0000
0000
0010
0000
0000
0000
0000
0000
0000
0000
0000
0000
0000
0000
0000
0000
0000
0000
0000
0000
0000
0000
0100
0000
0000
0000
0000
0000
0000
0000
0000
0000
0000
0010
0000
0000
0000
0000
0000
0000
0000
0000
0000
0000
0100
0000
0000
0000
0000
0000
0000
0000
0000
0000
,
0000
0010
0000
0000
0000
0000
0000
0000
0000
0000
0000
0000
0001
0000
0000
0000
0000
0000
0000
0000
0000
0000
0000
0010
0000
0000
0000
0000
0000
0000
0000
0000
0000
0000
0001
0000
0000
0000
0000
0000
0000
0000
0000
0000
0000
0010
0000
0000
0000
0000
0000
0000
0000
0000
0000
0000
0001
0000
0000
0000
0000
0000
0000
0000
0000
0000
0000
1000
0000
0000
0000
0000
0000
0000
0000
0000
0000
0000
0001
0000
0000
0000
0000
0000
0000
0000
0000
0000
0000
1000
0000
0000
0000
0000
0000
0000
,
0000
0000
0000
0000
0010
0000
0000
0000
0000
0000
0000
0000
0000
0000
0000
1000
0000
0000
0000
0000
0000
0000
0000
0000
0000
0000
0010
0000
0000
0000
0000
0000
0000
0000
0000
0000
0000
0400
0000
0000
0000
0000
0000
0000
0000
0000
0000
0000
0040
0000
0000
0000
0000
0000
0000
0000
0000
0000
0000
0000
0000
0000
0000
0000
0000
0000
0000
0000
0000
0000
0000
0000
0000
0000
0000
0000
0000
0000
0000
0000
0000
0000
0000
0000
0000
0000
0000
0000
0000
0000
0000
0000
0000
0000
0000
0000
,
0000
0000
0000
0000
,
0000
0000
0000
0000
0300
0000
0030
0000
1001
0M00
0000
00M0
0000
0M00
0000
0000
,
M000
0000
0M00
00M0
0000
0M00
0000
0000
0002
0000
0023
0000
1030
0000
0020
0000
,
0430
0000
0300
1000
0001
0010
1000
0010
0001
0000
0000
1000
0100
0000
0010
0000
,
0400
0000
1300
0010
0100
0000
0001
0000
2000
0000
3020
0000
0031
0000
0020
0000
,
0430
0000
0310
0001
1000
0000
0100
0000
M001
0000
M000
M010
0100
M000
M001
0000
,
040M
0000
031M
010M
2000
000M
302M
0000
0230
0000
0302
0000
0043
0000
0000
0000
,
4030
0000
3000
0010
0001
0000
1000
0000
0001
0000
0000
1000
0010
0000
0100
0000
,
4000
0000
3100
0010
0400
0000
0000
0300
0002
0000
0203
0000
1300
0000
0200
0000
,
0340
0000
0130
0001
1000
0000
0100
0000
100M
000M
000M
001M
010M
000M
100M
000M
,
M100
0000
M001
0000
M100
0000
M000
0000
M002
0000
M000
0000
M023
0000
M000
0030
1001
0000
00M0
0000
0000
0000
0M00
0000
0000
0000
00M0
0000
0000
0000
0000
0000
,
100M
0000
0000
0000
0000
0000
0010
0000
0000
0100
0000
0000
00M1
0000
0000
1000
0000
0000
0M01
0000
0000
0010
0000
0000
0100
0000
0000
1000
0000
0000
0010
0000
0000
0000
0000
0000
1001
0000
0000
0000
0000
0000
0110
0000
0000
0000
0000
0000
0002
0000
0000
0000
0000
0000
0000
0000
0000
0000
0000
0000
0023
0000
0000
0000
0000
0000
0000
0000
0000
0000
0000
0000
1030
0000
0000
0000
0000
0000
0000
0000
0000
0000
0000
0000
0010
0000
0000
0000
0000
0000
0000
0001
0000
0000
0000
0000
,
0400
0000
0000
0000
0000
0000
0000
0000
0000
0000
0000
0000
1300
0000
0000
0000
0000
0000
0100
0000
0000
0000
0000
0000
0010
0000
0000
0000
0000
0000
0100
0000
0000
0000
0000
0000
0001
0000
0000
0000
0000
0000
0100
0000
0000
0000
0000
0000
1000
0000
0000
0000
0000
0000
0000
0000
0000
0000
0000
0000
0001
0000
0000
0000
0000
0000
0010
0000
0000
0000
0000
0000
1000
0000
0000
0000
0000
0000
0000
0000
0000
0000
0000
0000
0010
0000
0000
0000
0000
0000
0000
1000
0000
0000
0000
0000
,
0400
0000
0000
0000
0000
0000
0000
0000
0000
0000
0000
0000
1300
0000
0000
0000
0000
0000
0001
0000
0000
0000
0000
0000
1000
0000
0000
0000
0000
0000
0001
0000
0000
0000
0000
0000
0100
0000
0000
0000
0000
0000
0010
0000
0000
0000
0000
0000
2000
0000
0000
0000
0000
0000
0000
0000
0000
0000
0000
0000
3020
0000
0000
0000
0000
0000
0000
0000
0000
0000
0000
0000
0031
0000
0000
0000
0000
0000
0000
0000
0000
0000
0000
0000
0010
0000
0000
0000
0000
0000
0000
1000
0000
0000
0000
0000
,
0400
0000
0000
0000
0000
0000
0000
0000
0000
0000
0000
0000
0301
0000
0000
0000
0000
0000
0100
0000
0000
0000
0000
0000
0010
0000
0000
0000
0000
0000
0100
0000
0000
0000
0000
0000
1000
0000
0000
0000
0000
0000
0100
0000
0000
0000
0000
0000
M001
0000
0000
0000
0000
0000
0000
0000
0000
0000
0000
0000
M100
0000
0000
0000
0000
0000
M010
0000
0000
0000
0000
0000
0001
0000
0000
0000
0000
0000
M010
0000
0000
0000
0000
0000
M100
0000
0000
0000
0000
0000
0000
1000
0000
0000
0000
0000
,
040M
0000
0000
0000
0000
0000
0000
0000
0000
0000
0000
0000
031M
0000
0000
0000
0000
0000
010M
0000
0000
0000
0000
0000
2000
0000
0000
0000
0000
0000
000M
0000
0000
0000
0000
0000
302M
0000
0000
0000
0000
0000
0000
0000
0000
0000
0000
0000
0230
0000
0000
0000
0000
0000
0000
0000
0000
0000
0000
0000
0302
0000
0000
0000
0000
0000
0000
0000
0000
0000
0000
0000
0043
0000
0000
0000
0000
0000
0000
0000
0000
0000
0000
0000
0000
0000
0000
0000
0000
0000
0000
0130
0000
0000
0000
0000
,
4000
0000
0000
0000
0000
0000
0000
0000
0000
0000
0000
0000
3010
0000
0000
0000
0000
0000
1000
0000
0000
0000
0000
0000
0001
0000
0000
0000
0000
0000
1000
0000
0000
0000
0000
0000
0100
0000
0000
0000
0000
0000
0010
0000
0000
0000
0000
0000
0001
0000
0000
0000
0000
0000
0000
0000
0000
0000
0000
0000
0100
0000
0000
0000
0000
0000
0001
0000
0000
0000
0000
0000
0100
0000
0000
0000
0000
0000
0000
0000
0000
0000
0000
0000
0010
0000
0000
0000
0000
0000
0000
0100
0000
0000
0000
0000
,
4000
0000
0000
0000
0000
0000
0000
0000
0000
0000
0000
0000
3100
0000
0000
0000
0000
0000
0010
0000
0000
0000
0000
0000
0100
0000
0000
0000
0000
0000
0010
0000
0000
0000
0000
0000
0100
0000
0000
0000
0000
0000
0000
0000
0000
0000
0000
0000
0002
0000
0000
0000
0000
0000
0000
0000
0000
0000
0000
0000
0203
0000
0000
0000
0000
0000
0000
0000
0000
0000
0000
0000
1300
0000
0000
0000
0000
0000
0000
0000
0000
0000
0000
0000
0100
0000
0000
0000
0000
0000
0000
0001
0000
0000
0000
0000
,
0040
0000
0000
0000
0130
0000
1000
0000
0001
0000
1000
0000
0100
0000
0010
0000
0001
0000
0010
0000
0100
0000
1000
0000
0001
0000
0100
0000
0010
1000
0010
1000
,
0010
0100
0001
1000
1001
0000
0100
0000
0000
0000
0000
0000
0000
0000
0000
0000
;
