#TITLE:忍びアン子は恋の呪文;
#SUBTITLE:;
#ARTIST:新腹筋忍者台 feat.meli♥melo;
#TITLETRANSLIT:Shinobianko wa koi no jumon;
#SUBTITLETRANSLIT:;
#ARTISTTRANSLIT:SHIN FUKKIN NINJA-DAI feat. meli melo;
#GENRE:NINJA HEROINE;
#CREDIT:TiKAL;
#MUSIC:shinobiko.ogg;
#BANNER:bn.png;
#BACKGROUND:bg.png;
#CDTITLE:;
#SAMPLESTART:76.285;
#SAMPLELENGTH:22.588;
#SELECTABLE:YES;
#OFFSET:-0.050;
#BPMS:0.000=170.000
,168.000=85.000
,184.000=170.000
,271.000=340.000
,279.000=170.000
;
#STOPS:;
#DISPLAYBPM:170.000;
#BGCHANGES:;
#FGCHANGES:;

//--------------- dance-single - TiKAL ----------------
#NOTES:
     dance-single:
     TiKAL:
     Hard:
     8:
     0.565218,0.741028,0.205214,0.435054,0.077981,482,457,25,53,0,0,0.565218,0.741028,0.205214,0.435054,0.077981,482,457,25,53,0,0:
0000
0000
0000
0000
,
0000
0000
0000
0000
,
0000
0000
0000
0000
,
0000
0000
0000
0000
,
0001
0100
0001
0100
0010
0010
1000
0000
,
0100
0010
0001
1000
0010
0010
0100
0000
,
0010
1000
0010
0100
0100
0001
0001
0001
,
0000
1000
1000
1000
0010
0000
1001
0000
,
0002
0000
0010
0000
1003
0100
0010
0001
,
0100
0010
1000
0002
0000
0010
0013
0000
,
2000
0000
0100
0000
3001
0100
0010
1000
,
0100
0010
0001
2000
0000
0010
3010
0000
,
1001
0000
0001
0010
0200
0000
2300
0000
,
3002
0000
0103
0020
0000
1000
1030
0000
,
0001
0001
0100
0010
1000
0100
0010
0002
,
0000
0013
0100
1000
0001
0000
1001
0000
,
2000
0000
0010
0000
3001
0100
0010
1000
,
0100
0010
0001
2000
0000
0001
3001
0000
,
2000
0000
0010
0000
3001
0010
0100
1000
,
0010
0100
0001
0020
0000
0100
0130
0000
,
0110
0000
0100
1000
0002
0000
0203
0000
,
0320
0000
1030
0200
0000
1000
1300
0000
,
0010
0010
0100
0001
1000
0010
0100
0002
,
0000
0100
0103
0001
1000
0000
1001
0000
,
0001
0100
0000
0000
1000
0100
0000
0000
,
0010
1000
0010
2010
0000
0001
3001
0000
,
0020
0000
0000
0100
0130
0000
1000
0001
,
0000
0100
0010
0100
0001
0000
1000
0000
,
0200
0000
0000
0010
0310
0000
1000
0000
,
0001
0010
0100
0010
0001
0000
1000
0000
,
0020
0000
0000
0100
0130
0000
0001
0100
,
0000
0010
1000
0001
1000
0000
0100
0000
,
0001
0100
0000
0100
1000
0010
0100
0002
,
0000
0100
0103
0000
0001
1000
0001
0000
,
2000
0000
0000
0100
3100
0000
0010
0001
,
1000
1000
0100
0010
,
0002
0000
0010
0013
0100
1000
0010
0200
,
0000
0001
0301
1000
0010
0000
0100
0000
,
0002
0000
0000
0010
0013
0100
1000
0001
,
0000
1000
0001
1000
0010
0000
0100
0000
,
0002
0000
0000
0100
0103
0010
1000
1001
,
0000
0001
0001
1000
1000
0000
1000
2001
,
0000
0000
0010
0000
0001
0000
3100
0000
0100
0010
0000
0001
0010
0100
0000
1001
,
0000
1000
2000
0000
0100
0000
3001
0000
0010
0001
0100
0020
0000
1000
1030
0000
,
0100
0000
1000
0000
0010
0000
0100
0000
0002
0000
0000
1000
1003
0000
0100
0000
,
0020
0000
0001
0031
0010
0100
1000
0002
0000
0010
0010
0010
0013
0000
1001
0000
,
1000
1000
0100
0100
0010
0001
0100
0010
,
1000
0010
0000
2001
0000
0000
3010
0100
,
0000
0001
0001
0010
0010
0100
1000
0001
,
1000
0010
0000
1001
0000
0100
0010
0100
,
0002
0000
1003
0000
1000
0100
0010
0100
,
0010
0001
0100
0020
0000
1000
1030
0000
,
0020
0000
0100
0000
1030
0100
0010
0001
,
1000
1000
0010
0020
0000
1000
1030
0000
,
0110
0000
0100
0001
2000
0000
3020
0000
,
0230
0000
0301
0020
0000
0100
0130
0000
,
0010
0010
0100
0100
1000
0010
0100
0002
,
0000
1000
1003
0100
0100
0000
1001
0000
,
0200
0000
0010
0000
0301
0010
0100
1000
,
0010
0100
0001
0020
0000
0100
0130
0000
,
2000
0000
0010
0000
3100
0010
0001
0010
,
0100
1000
0010
0200
0000
0001
0301
0000
,
0110
0000
0100
0001
2000
0000
3200
0000
,
0320
0000
0130
2000
0000
3001
0001
0000
,
1000
1000
0001
0001
0100
0010
0100
0210
,
0000
0001
0301
0000
1000
1000
1000
0000
,
0000
0000
0220
0000
0330
0001
0100
0001
,
0000
0220
0000
0330
,
1001
0000
0001
0100
,
0010
1000
0001
1001
,
0001
0001
0010
0010
0100
1000
0010
0100
,
0001
0001
0010
0010
0100
1000
1001
0000
,
0001
0001
0010
0010
0100
1000
0001
0100
,
0001
0001
1000
1000
0100
0010
0110
0000
,
0001
0001
0011
0000
0100
0100
1100
0000
,
0001
1000
0001
0010
0000
0110
0110
0000
,
0001
0010
0100
1000
0001
0100
0010
1000
,
0001
1000
0100
0010
0000
1001
2002
0000
,
0000
0000
0000
0000
,
0000
0000
0000
3003
0000
0000
0000
0000
;
