#TITLE:Sakura Mankai;
#SUBTITLE:;
#ARTIST:HIROTO;
#TITLETRANSLIT:;
#SUBTITLETRANSLIT:;
#ARTISTTRANSLIT:;
#GENRE:;
#CREDIT:TiKAL;
#MUSIC:Sakura Mankai.ogg;
#BANNER:Sakura Mankai.png;
#BACKGROUND:Sakura Mankai-bg.png;
#CDTITLE:;
#SAMPLESTART:52.273;
#SAMPLELENGTH:14.935;
#SELECTABLE:YES;
#OFFSET:-0.001;
#BPMS:0.000=128.572;
#STOPS:;
#DISPLAYBPM:128.570;
#BGCHANGES:;
#FGCHANGES:;

//--------------- dance-single - TiKAL ----------------
#NOTES:
     dance-single:
     TiKAL:
     Challenge:
     10:
     0,0,0,0,0:
0000
0000
0000
0000
,
0000
0000
0000
0000
,
2100
3001
0012
1003
,
1000
0100
1000
0100
0010
0001
0010
0001
1000
0010
1000
0010
0100
0001
0100
0001
,
1000
0000
0010
1000
0002
0000
0010
0000
0000
0000
1000
0000
0003
1000
0100
1000
,
0002
0000
0000
0000
0000
0000
0000
0000
0000
0010
0000
0000
0000
0000
0000
0000
0000
0000
1003
0000
0000
0000
0000
0000
010M
0000
0000
0000
0000
0000
1000
0000
0100
0000
1000
0000
0100
0000
0000
0000
0000
0000
0010
0000
0000
0000
0000
0000
,
0002
0000
0103
1000
0200
0000
0301
0010
,
0200
0000
0000
0010
0000
0000
0010
0000
0300
0000
1100
0000
0000
0011
0000
0000
,
0101
0000
0100
0001
2000
0000
0100
0000
0000
0000
0010
0000
3000
0001
0010
0001
,
2000
0000
0000
0000
0000
0000
0000
0000
0000
0010
0000
0000
0000
0000
0000
0000
0000
0000
3001
0000
0000
0000
0000
0000
M010
0000
0000
0000
0000
0000
0001
0000
0010
0000
0001
0000
0010
0000
0000
0000
0000
0000
0100
0000
0000
0000
0000
0000
,
2000
0000
3100
0001
0200
0000
1300
0001
,
0010
0100
0010
0100
0010
0000
0100
1000
0001
0100
0010
1000
0001
0010
0100
1000
,
0001
0000
0001
0000
0010
0001
0001
0001
0100
0100
0000
0100
0000
0100
0010
0010
,
1000
0000
1000
0000
0100
1000
1000
1000
0010
0010
0000
0010
0000
0010
0100
0100
,
0001
0000
0001
0000
0100
0001
0001
0001
1000
1000
0000
1000
0000
1000
0010
0010
,
1000
0001
0001
0010
0100
0100
1000
0001
2000
0000
3001
0100
0001
0100
0010
1000
,
0001
0000
0010
0001
2000
0000
0010
0000
0000
0000
0100
0000
3000
0001
0100
0001
,
2000
0000
0000
0000
0000
0000
0000
0000
0000
0100
0000
0000
0000
0000
0000
0000
0000
0000
3001
0000
0000
0000
0000
0000
M100
0000
0000
0000
0000
0000
0010
0000
1000
0000
0010
0000
1000
0000
0000
0000
0000
0000
0100
0000
0000
0000
0000
0000
,
0020
0000
0031
0100
2000
0000
3100
0001
,
0020
0000
0000
0100
0000
0000
0100
0000
0030
0000
0011
0000
0000
1001
0000
0000
,
1010
0000
0100
0001
2000
0000
0010
0000
0000
0000
0100
0000
3000
0001
0100
0001
,
2000
0000
0000
0000
0000
0000
0000
0000
0000
0100
0000
0000
0000
0000
0000
0000
0000
0000
3001
0000
0000
0000
0000
0000
M100
0000
0000
0000
0000
0000
0001
0000
0100
0000
0001
0000
0100
0000
0000
0000
0000
0000
0001
0000
0000
0000
0000
0000
,
2000
0000
3100
0001
0200
0000
1300
0001
,
0100
0010
0100
0010
0100
0000
0010
1000
0001
0010
0100
1000
0001
0100
0010
1000
,
0001
0000
0001
0000
0100
0001
0001
0001
0010
0010
0000
0010
0000
0010
0100
0100
,
1000
0000
1000
0000
0010
1000
1000
1000
0100
0100
0000
0100
0000
0100
0010
0010
,
0001
0000
0001
0000
0010
0001
0001
0001
0100
0100
0000
0100
0000
0100
0010
2000
,
0002
0000
0000
0000
0000
0000
0000
3003
,
0101
0000
0000
0001
1000
0000
0010
1000
0020
0000
0000
0130
0001
0000
0010
0001
,
1000
0010
1000
0000
0010
0100
0001
1000
0010
0000
0000
0010
0100
0000
0001
0000
,
1001
0000
0000
1000
0100
0000
0010
0001
0100
0000
0100
0000
0010
1000
0001
0010
,
0001
1000
0000
0000
0100
0010
0001
1000
0001
0000
0100
0000
0010
1000
0010
1000
,
0001
0000
0001
0000
1000
0100
0010
0001
1000
0000
0010
1000
0010
0000
0100
0000
,
0001
1000
0001
0000
0010
0100
0010
0001
1000
0000
1000
0000
0100
0010
0001
0100
,
0020
0000
0000
1030
0001
0000
1000
0100
1000
0000
0010
0100
0010
0000
0100
0000
,
0001
0100
0010
1000
0010
0000
1000
0010
0100
0001
1000
0100
0010
0001
0100
0010
,
1000
0000
0001
0200
0000
0000
0310
0000
1000
0000
1000
0000
0100
0010
0000
0120
,
0000
0000
0031
1000
0000
0000
0001
0000
0100
0000
0100
0000
0010
0100
0000
0000
,
0010
0000
0010
2000
0000
0000
3001
0000
0100
0000
0010
0000
1000
0001
0000
1002
,
0000
0000
0103
0010
0000
0000
1000
0000
0100
0000
0100
0000
0010
0001
0000
0000
,
1000
0000
1000
0010
0000
0010
1000
0000
0001
0000
1000
0000
0001
0100
0000
0110
,
0000
0010
1000
0001
0000
1000
0100
0000
0010
0000
0010
0000
0001
0100
0000
0100
,
0001
0000
1000
0010
0000
0010
1000
0000
0001
0000
0100
0000
0001
0010
0000
0100
,
0010
0000
0000
0000
0000
0000
0000
0000
0110
0000
0000
0000
0000
0000
0000
0000
1001
0000
0000
0000
0000
0000
0000
0000
1000
0000
0000
0100
0000
0000
1000
0000
0000
0100
0000
0000
0010
0000
0000
0001
0000
0000
0010
0000
0000
0001
0000
0000
,
1000
0010
1000
0010
0100
0001
0100
0001
1000
0100
1000
0100
0010
0001
0000
1001
,
0000
1000
0010
1000
0001
0100
0001
0100
0010
0100
0010
0100
0010
1000
0000
0000
,
0001
0010
0001
0010
0100
0010
0100
0010
0100
1000
0100
1000
0001
1000
0000
1001
,
0000
0001
0100
0000
0010
0100
0000
0010
1000
0000
1000
0000
1000
0000
0000
0000
,
0000
1000
0010
0000
0100
0010
0000
0100
0001
0000
0001
0000
0001
0000
0000
0000
,
0000
0001
0010
0000
0100
0010
0000
0100
1000
0000
1000
0000
1000
0000
0000
0000
,
0000
1000
0100
0000
0010
0100
0000
0010
0001
1000
0001
0000
1001
0000
0000
0000
,
0000
0000
0220
0000
,
0000
0000
0000
0000
,
0000
0000
0000
0000
,
0330
0000
0000
0000
;
