#TITLE:SKYSCRAPER;
#SUBTITLE:;
#ARTIST:Dr. ARM (IOSYS);
#TITLETRANSLIT:;
#SUBTITLETRANSLIT:;
#ARTISTTRANSLIT:;
#GENRE:;
#CREDIT:;
#BANNER:bn.png;
#BACKGROUND:bg.png;
#LYRICSPATH:;
#CDTITLE:;
#MUSIC:skyscraper.ogg;
#OFFSET:-0.702000;
#SAMPLESTART:43.559143;
#SAMPLELENGTH:12.000000;
#SELECTABLE:YES;
#BPMS:0.000000=140.000000
;
#STOPS:
;
#BGCHANGES:;
#KEYSOUNDS:;
#ATTACKS:;

//---------------dance-single - TiKAL----------------
#NOTES:
     dance-single:
     TiKAL:
     Challenge:
     11:
     0.700224,0.774516,0.191905,0.943532,0.691657,613.000000,589.000000,24.000000,118.000000,0.000000,1.000000,0.700224,0.774516,0.191905,0.943532,0.691657,613.000000,589.000000,24.000000,118.000000,0.000000,1.000000:
// measure 0
0000
0000
0000
0000
,  // measure 1
0000
0000
0000
0000
,  // measure 2
0000
0000
0000
0000
,  // measure 3
0000
0000
0000
0000
,  // measure 4
0001
0000
0010
0000
0100
0000
1000
0001
1000
0000
0010
0000
0100
0000
0002
0000
,  // measure 5
1003
0100
1000
0100
0010
0001
0010
0001
1000
0001
1000
0001
0100
0010
0100
0010
,  // measure 6
1000
0000
1000
0000
1000
0000
1000
0000
1000
0000
0001
0000
0100
0000
0001
0100
,  // measure 7
0010
0100
0001
0010
0100
0000
1000
0000
0001
0100
0100
0100
0020
0000
0030
0000
,  // measure 8
2002
0000
0000
0000
0000
0000
0000
0000
0000
0000
0000
0000
0000
0000
0000
0000
0003
0000
0000
0000
0000
0000
0000
0000
0000
0000
0000
0000
3010
0000
0000
0000
0200
0000
0000
0000
0000
0000
0000
0000
0000
0000
0000
0000
0000
0000
0000
0000
0302
0000
0000
0000
0000
0000
0000
0003
0002
0000
0000
0000
0000
0000
0000
0000
,  // measure 9
0013
0100
0100
0100
1000
1000
1000
1000
0010
0100
0100
0100
0001
0001
0001
0001
,  // measure 10
2000
0000
0000
0020
0000
3000
0000
0130
0002
0000
0000
0003
0010
0010
0010
0010
,  // measure 11
0200
0000
0000
0000
0000
0000
0000
0000
0000
0000
0000
0000
0000
0000
0000
0000
0000
0000
0000
0000
0000
0000
0000
0000
0300
0000
0000
0000
0000
0000
0000
0000
0000
0000
0000
0000
0000
0000
0000
0000
0000
0000
0000
0000
0000
0000
0000
0000
2000
0000
3000
0000
0000
0000
0000
0000
0100
0000
0000
0000
0000
0000
0000
0000
1000
0000
0000
0000
0000
0000
0000
0000
0200
0000
0000
0000
0000
0000
0000
0000
0000
0000
0000
0000
0300
0000
0000
0000
0000
0000
0000
0000
0000
0000
0000
0000
0011
0000
0000
0000
0000
0000
0000
0000
0000
0000
0000
0000
0000
0000
0000
0000
0000
0000
0000
0000
0000
0000
0000
0000
0011
0000
0000
0000
0000
0000
0000
0000
0000
0000
0000
0000
0000
0000
0000
0000
0000
0000
0000
0000
0000
0000
0000
0000
0002
0000
0000
0000
0000
0000
0000
0000
0000
0000
0000
0000
0000
0000
0000
0000
0000
0000
0000
0000
0000
0000
0000
0000
0000
0000
0000
0000
0000
0000
0000
0000
0000
0000
0000
0000
0003
0000
0000
0000
0000
0000
0000
0000
0000
0000
0000
0000
,  // measure 12
2002
0000
0000
0000
0000
0000
0000
0000
0000
0000
0000
0000
0000
0000
0000
0000
0000
0000
0000
0000
0003
0000
0000
0000
0000
0000
0000
0000
3010
0000
0000
0000
0200
0000
0000
0000
0000
0000
0000
0000
0000
0000
0000
0000
0000
0000
0000
0000
0302
0000
0000
0000
0000
0000
0000
0003
0002
0000
0000
0000
0000
0000
0000
0000
,  // measure 13
0013
0001
0000
0010
0000
0100
1000
0000
0010
1000
0100
0010
0001
0000
1000
0000
,  // measure 14
0010
0000
0010
0100
0000
0100
0001
0000
2000
0000
0000
0000
3010
0000
0010
0000
,  // measure 15
0100
0000
0100
0010
0000
0010
1000
0000
0200
0000
0000
0310
0002
0000
0000
0003
,  // measure 16
2002
0000
0000
0000
0000
0000
0000
0000
0000
0000
0000
0000
0000
0000
0000
0000
0000
0000
0000
0000
0003
0000
0000
0000
0000
0000
0000
0000
3100
0000
0000
0000
0020
0000
0000
0000
0000
0000
0000
0000
0000
0000
0000
0000
0000
0000
0000
0000
0032
0000
0000
0000
0000
0000
0000
0003
0002
0000
0000
0000
0000
0000
0000
0000
,  // measure 17
2003
0000
0000
0000
0000
0000
0000
0000
0000
0000
0000
0000
0000
0000
0000
0000
0000
0000
0000
0000
0000
3000
0000
0000
2000
0000
0000
0000
0000
0000
0000
0000
0000
0000
0000
0000
0000
0000
0000
0000
0000
0000
0000
0000
0000
0000
0000
0000
3200
0000
0000
0000
0000
0000
0000
0000
0000
0000
0000
0000
0000
0000
0000
0000
0000
0000
0000
0000
0000
0300
0000
0000
0200
0000
0000
0000
0000
0000
0000
0000
0000
0000
0000
0000
0000
0000
0000
0000
0000
0000
0000
0000
0000
0300
0000
0000
0020
0000
0000
0000
0000
0000
0000
0000
0000
0000
0000
0000
0000
0000
0000
0000
0000
0000
0000
0000
0000
0000
0000
0000
0000
0000
0000
0000
0000
0000
0000
0000
0000
0000
0000
0000
0000
0000
0000
0000
0000
0000
0000
0000
0000
0000
0000
0000
0031
0000
0000
0000
0000
0000
0000
0000
0010
0000
0000
0000
0000
0000
0000
0000
0001
0000
0000
0000
0000
0000
0000
0000
0020
0000
0000
0000
0000
0000
0000
0000
0000
0000
0000
0000
0030
0000
0000
0000
0000
0000
0000
0000
0000
0000
0000
0000
,  // measure 18
0220
0000
0000
0000
0000
0030
0000
1300
0002
0000
0000
0000
1003
1000
1000
1000
,  // measure 19
0020
0000
0000
0000
0000
0000
0130
0000
0001
0000
0100
0000
0002
0000
0000
0000
0000
0000
1003
0000
0010
0000
1000
0000
0010
0000
0100
0000
0010
0000
0200
0000
0000
0000
0000
0000
0302
0000
0000
0000
0000
0000
0000
0000
0000
0003
0000
0000
,  // measure 20
1001
1000
0001
1000
0220
0000
0000
0330
,  // measure 21
0100
0000
0001
0000
1000
0001
1000
0001
1000
0000
0010
0100
0002
0000
0000
0000
,  // measure 22
1003
0000
1000
0100
0000
0100
0010
0000
0002
0000
0000
0000
1003
0000
1000
0000
,  // measure 23
0010
0000
0010
0100
0000
0100
0001
0000
0010
0100
0000
0100
2000
0000
0000
0000
,  // measure 24
3002
1000
0000
1000
,  // measure 25
0000
1000
0000
1000
,  // measure 26
0000
0100
0000
0100
,  // measure 27
0000
0010
0000
0013
,  // measure 28
0001
0010
0100
1000
0010
0100
0010
2000
,  // measure 29
3100
0010
0001
2000
3001
0010
0100
0000
,  // measure 30
1000
0000
0001
0000
0010
0000
0001
0000
0100
0000
0010
0000
1000
0000
0100
1000
,  // measure 31
0100
0010
0001
0100
0010
0100
0001
0000
1000
0010
0010
0010
0200
0000
0300
0000
,  // measure 32
0001
0000
0100
0000
0101
0000
0001
0010
0100
1000
0001
0000
1001
0000
2000
0000
,  // measure 33
3010
0000
0100
0000
0110
0000
0200
0301
0010
0100
1000
0000
0001
0000
2000
0000
,  // measure 34
3010
0000
0100
0000
0001
0000
0010
0100
1000
0001
0100
0000
0010
0000
2000
3001
,  // measure 35
0100
0001
0010
0100
1000
0010
0200
0000
0310
1000
1000
1000
0200
0000
0320
0000
,  // measure 36
0031
1000
0001
1000
0010
0100
0010
0200
,  // measure 37
0301
0100
0001
0100
0010
1000
0010
1000
0100
1000
0100
1000
0001
0010
0001
0010
,  // measure 38
0200
0000
0000
0000
0000
0000
0000
0000
0000
0000
0000
0000
0300
1000
0001
1000
,  // measure 39
0001
0100
0010
1000
0010
0100
0001
0000
1000
1000
1000
0000
2000
0000
0000
3000
,  // measure 40
2002
0000
0000
0000
0000
0000
0000
0000
0000
0000
0000
0000
0000
0000
0000
0000
3000
0000
0000
0000
0000
0000
0000
0000
0000
0000
0000
0000
0103
0000
0000
0000
0020
0000
0000
0000
0000
0000
0000
0000
0000
0000
0000
0000
0000
0000
0000
0000
2030
0000
0000
0000
0000
0000
0000
3000
2000
0000
0000
0000
0000
0000
0000
0000
,  // measure 41
3100
0010
0010
0010
0001
0001
0001
0001
0100
0010
0010
0010
1000
1000
1000
1000
,  // measure 42
0002
0000
0000
0200
0000
0003
0000
0310
2000
0000
0000
3000
0100
0100
0100
0100
,  // measure 43
0020
0000
0000
0000
0000
0000
0000
0000
0000
0000
0000
0000
0000
0000
0000
0000
0000
0000
0000
0000
0000
0000
0000
0000
0030
0000
0000
0000
0000
0000
0000
0000
0000
0000
0000
0000
0000
0000
0000
0000
0000
0000
0000
0000
0000
0000
0000
0000
0002
0000
0003
0000
0000
0000
0000
0000
0010
0000
0000
0000
0000
0000
0000
0000
0001
0000
0000
0000
0000
0000
0000
0000
0020
0000
0000
0000
0000
0000
0000
0000
0000
0000
0000
0000
0030
0000
0000
0000
0000
0000
0000
0000
0000
0000
0000
0000
1100
0000
0000
0000
0000
0000
0000
0000
0000
0000
0000
0000
0000
0000
0000
0000
0000
0000
0000
0000
0000
0000
0000
0000
0011
0000
0000
0000
0000
0000
0000
0000
0000
0000
0000
0000
0000
0000
0000
0000
0000
0000
0000
0000
0000
0000
0000
0000
2000
0000
0000
0000
0000
0000
0000
0000
0000
0000
0000
0000
0000
0000
0000
0000
0000
0000
0000
0000
0000
0000
0000
0000
0000
0000
0000
0000
0000
0000
0000
0000
0000
0000
0000
0000
3000
0000
0000
0000
0000
0000
0000
0000
0000
0000
0000
0000
,  // measure 44
2002
0000
0000
0000
0000
0000
0000
0000
0000
0000
0000
0000
0000
0000
0000
0000
0000
0000
0000
0000
3000
0000
0000
0000
0000
0000
0000
0000
0103
0000
0000
0000
0020
0000
0000
0000
0000
0000
0000
0000
0230
0000
0000
0000
0000
0000
0000
0000
0302
0000
0000
0000
0000
0000
0000
0003
0002
0000
0000
0000
0000
0000
0000
0000
,  // measure 45
0103
0010
0000
1000
0000
0010
0100
0000
0010
1000
0100
0010
0001
0000
1000
0000
,  // measure 46
0010
0000
0010
0100
0000
0100
0001
0000
2000
0000
0000
3001
0010
0000
0010
0000
,  // measure 47
0100
0000
0100
0010
0000
0010
0001
0000
0020
0000
0000
0130
2000
0000
0000
3000
,  // measure 48
4002
0000
0000
0000
0000
0000
0000
0000
0000
0000
0000
0000
0000
0000
0000
0000
3000
0000
0000
0000
0000
0000
0000
0000
0000
0000
0000
0000
0013
0000
0000
0000
0200
0000
0000
0000
0000
0000
0000
0000
0000
0000
0000
0000
0000
0000
0000
0000
2300
0000
0000
0000
0000
0000
0000
3000
2000
0000
0000
0000
0000
0000
0000
0000
,  // measure 49
3002
0000
0000
0000
0000
0000
0000
0000
0000
0000
0000
0000
0000
0000
0000
0000
0000
0000
0000
0000
0000
0003
0000
0000
0002
0000
0000
0000
0000
0000
0000
0000
0000
0000
0000
0000
0000
0000
0000
0000
0000
0000
0000
0000
0000
0000
0000
0000
0023
0000
0000
0000
0000
0000
0000
0000
0000
0000
0000
0000
0000
0000
0000
0000
0000
0000
0000
0000
0000
0030
0000
0000
0020
0000
0000
0000
0000
0000
0000
0000
0000
0000
0000
0000
0000
0000
0000
0000
0000
0000
0000
0000
0000
0030
0000
0000
0200
0000
0000
0000
0000
0000
0000
0000
0000
0000
0000
0000
0000
0000
0000
0000
0000
0000
0000
0000
0000
0000
0000
0000
0000
0000
0000
0000
0000
0000
0000
0000
0000
0000
0000
0000
0000
0000
0000
0000
0000
0000
0000
0000
0000
0000
0000
0000
1300
0000
0000
0000
0000
0000
0000
0000
0100
0000
0000
0000
0000
0000
0000
0000
1000
0000
0000
0000
0000
0000
0000
0000
0200
0000
0000
0000
0000
0000
0000
0000
0000
0000
0000
0000
0300
0000
0000
0000
0000
0000
0000
0000
0000
0000
0000
0000
,  // measure 50
0220
0000
0000
0000
0000
0300
0000
0031
2000
0000
0000
0000
3001
0001
0001
0001
,  // measure 51
0200
0000
0000
0000
0000
0000
0310
0000
1000
0000
0010
0000
2000
0000
0000
0000
0000
0000
3001
0000
0100
0000
0001
0000
0100
0000
0010
0000
0100
0000
0020
0000
0000
0000
0000
0000
2030
0000
0000
0000
0000
0000
0000
0000
0000
3000
0000
0000
,  // measure 52
1001
0001
1000
0001
0220
0000
0000
0330
,  // measure 53
0010
0000
1000
0000
0001
1000
0001
1000
0001
0000
0100
0010
2000
0000
0000
0000
,  // measure 54
3001
0000
0001
0010
0000
0010
0100
0000
2000
0000
0000
0000
3001
0000
0001
0000
,  // measure 55
0100
0000
0100
0010
0000
0010
1000
0000
0100
0010
0000
0010
0002
0000
0000
0000
,  // measure 56
0203
0010
0010
0310
0120
1000
1000
1030
,  // measure 57
1001
0000
0001
0000
0020
0000
0000
0030
0220
0000
0000
0000
2030
0000
0000
3300
,  // measure 58
1000
0000
1000
0000
0001
0000
0001
0000
0100
0000
0010
0000
1000
1000
0001
0000
,  // measure 59
0100
0000
0010
0000
2000
0000
0000
3001
0100
0010
1000
0000
0001
0000
0001
0000
,  // measure 60
0100
0100
0010
0010
1000
1000
0001
1000
,  // measure 61
0001
0000
0001
0000
0010
0000
0010
0000
0100
1000
0001
0100
0010
1000
0100
1000
,  // measure 62
0001
0000
0001
0100
0000
0100
0010
0000
2000
0000
0000
0000
3010
0000
0010
0000
,  // measure 63
0100
0000
0100
0001
0000
0001
0010
0000
0010
0100
0000
0100
1000
0000
0001
0000
,  // measure 64
2001
0010
0010
3010
0210
0001
0001
0301
,  // measure 65
0100
0000
0001
0000
0020
0000
0130
0000
1000
0100
1000
0000
0002
0000
0103
0000
,  // measure 66
0100
0000
0100
0000
0020
0000
1030
0000
0001
0000
0001
0000
0010
0010
0001
0001
,  // measure 67
0100
0010
0100
0010
1000
0001
1000
0001
1000
0100
1000
0100
0010
0001
0010
0001
,  // measure 68
1000
1000
0010
0010
0100
0100
0001
0001
,  // measure 69
0010
0000
0010
0000
0001
0000
0001
0000
1000
0100
0010
0001
1000
0010
0000
0010
,  // measure 70
0100
0000
0100
0001
0000
0001
0010
0000
0200
0000
0000
0000
1300
0000
1000
0000
,  // measure 71
0001
0000
0001
0100
0000
0200
0020
0000
0000
0000
0000
0000
0330
0000
0000
0000
;
