#TITLE:MIC Drop;
#SUBTITLE:(Steve Aoki Remix);
#ARTIST:BTS feat. Desiigner;
#TITLETRANSLIT:;
#SUBTITLETRANSLIT:;
#ARTISTTRANSLIT:;
#GENRE:Trap;
#CREDIT:TiKAL;
#MUSIC:micdrop.ogg;
#BANNER:bn.png;
#BACKGROUND:bg.png;
#CDTITLE:cdtitle.png;
#SAMPLESTART:95.484;
#SAMPLELENGTH:22.588;
#SELECTABLE:YES;
#OFFSET:-0.013;
#BPMS:0.000=170.000;
#STOPS:;
#BGCHANGES:;
#FGCHANGES:;

//--------------- dance-single - TiKAL ----------------
#NOTES:
     dance-single:
     TiKAL:
     Hard:
     8:
     0,0,0,0,0:
0000
0000
0000
0000
,
0000
0000
0000
0000
,
0000
0000
0000
0000
,
0000
0000
0000
0000
,
0000
0000
0000
0000
,
0000
0000
0000
0000
,
0000
0000
0000
0000
,
0000
0000
0000
0000
,
0001
0000
0001
0000
1000
0100
1000
0100
,
1000
0000
1000
0000
0001
1000
0100
0000
,
0010
0000
0010
0000
0100
1000
0100
1000
,
0100
0100
0040
0031
,
1000
0000
1000
0000
0001
0100
0001
0100
,
0001
0000
0001
0000
1000
0001
0100
0000
,
0010
0000
0010
0000
0100
0001
0100
0001
,
0100
0000
0100
0000
0040
0030
4000
3000
,
0002
0000
0000
0000
,
0000
0000
0000
0000
,
0000
0000
0000
0000
,
0000
0000
0000
0000
1003
0100
0010
0001
,
1000
0000
0000
0000
1000
0000
0000
0000
1000
0000
0000
0100
1000
0000
0000
0000
,
0001
0000
0000
0000
0001
0000
0000
0000
0001
0000
0000
0100
0001
0000
0000
0000
,
1000
0010
0100
0001
,
1000
0000
0000
0000
0100
0000
0000
0000
0010
0000
0000
0001
1000
0000
0000
0000
,
0001
0000
0000
0000
0001
0000
0000
0000
0001
0000
0000
0100
0001
0000
0000
0000
,
1000
0000
0000
0000
1000
0000
0000
0000
1000
0000
0000
0100
1000
0000
0000
0000
,
0001
0010
0100
1000
,
0001
0000
0100
0000
0010
1000
0001
1000
,
0100
0100
0110
0010
,
0000
0000
1001
0001
,
1000
0100
0010
0001
,
1001
0000
0000
0000
0000
0000
0000
0000
0000
0000
0000
0000
0000
1001
0000
0000
0000
0000
0000
0000
0000
0000
0000
0000
0110
0000
0000
0000
0000
0000
0000
0000
0000
0000
0000
0000
1000
0000
0000
0000
0000
0000
0000
0000
0000
0000
0000
0000
,
0001
0100
0010
1000
,
0001
0000
0000
0000
0010
0000
0000
0000
0100
0000
0000
1000
0001
0000
0000
0000
,
1000
0000
0000
0000
0010
0000
0000
0000
0100
0000
0000
0100
0001
0000
0000
0000
,
0001
0000
0010
0000
0400
0300
4000
3000
,
0001
0000
0001
0000
0100
0001
0100
0001
,
1000
0100
1000
0000
0010
0000
4000
0000
,
3001
0000
0001
0000
0010
0001
0010
0001
,
1000
0000
1000
0010
0100
0000
0004
0000
,
1003
0000
1000
0000
0010
1000
0010
1000
,
0001
0010
0001
0000
0100
0000
0004
0000
,
1003
0000
1000
0000
0100
1000
0100
1000
,
0001
0100
0010
1000
,
0001
0000
0001
0000
1000
0100
0001
0100
,
1000
0000
1000
0000
0001
0100
1000
0100
,
0001
0000
0001
0000
1000
0010
0001
0010
,
1000
0000
1000
0000
0001
0010
1000
0010
,
0001
0000
1000
0000
0010
0100
0010
1000
,
0001
0000
0100
0000
0010
1000
0100
0010
,
0001
1000
0001
1000
0010
0100
0010
0100
,
0002
0000
0000
0003
,
1000
0100
1000
0010
1000
0000
1001
0000
,
0001
0100
0001
0010
0001
0000
1001
0000
,
1000
0010
0100
0001
0100
0010
1000
0000
,
0100
0000
0010
0001
1000
0000
0100
1000
,
0001
0010
0001
0100
0001
0000
1001
0000
,
1000
0010
1000
0100
1000
0000
1001
0000
,
0001
0100
0010
1000
0010
0100
0001
0000
,
0010
0000
0100
1000
0001
0000
0010
0001
,
1000
1000
0100
0001
0001
0100
1000
0001
,
0100
0000
0010
0000
1001
0000
0001
1000
,
0001
0001
0100
1000
1000
0100
0001
1000
,
0100
0000
0010
0000
1001
0000
1000
0001
,
1000
0100
1000
0001
0010
0001
1000
0000
,
0001
0100
0001
1000
0010
1000
0001
0000
,
1000
0100
0010
0001
1000
0010
0100
0001
,
2000
0000
0000
0000
3001
0100
0010
1000
,
1001
0000
0002
0000
0103
0010
1000
0000
,
0001
0010
0100
0000
0110
0000
1000
0000
,
0001
0000
1000
0010
0000
0100
0001
1000
,
0001
0000
0010
0000
0110
0000
1000
0001
,
2000
0000
0000
0000
3010
0000
0000
0100
,
0002
0000
0013
0000
,
0110
0000
0110
0000
1000
0001
1000
0000
,
0110
0000
0110
0000
0001
1000
0001
0000
,
1001
0000
2000
0000
3010
0100
0001
1000
,
0100
0010
0110
0001
,
1000
0000
0001
0100
0010
1000
0001
1000
,
0100
0000
0010
0000
0110
0000
0001
1000
,
0002
0000
0000
0000
0103
0000
0000
0010
,
2000
0000
3100
0000
,
0110
0000
0110
0000
0001
1000
0001
0000
,
0110
0000
0110
0000
1000
0001
1000
0000
,
0001
0000
0001
0000
0010
0100
1000
0000
,
1000
0001
1000
0000
0010
0100
0001
0000
,
1000
0000
1000
0000
0100
0010
0001
0000
,
0001
1000
0001
0000
0100
0010
1000
0000
,
0001
0000
0001
0000
0010
0100
1000
0000
,
1000
0001
1000
0000
0010
0100
0001
0000
,
1000
0000
1000
0000
0100
0010
0001
0000
,
0001
0001
0200
0000
0310
1000
0200
0000
,
0300
0000
0000
0000
;

//--------------- dance-single - TiKAL ----------------
#NOTES:
     dance-single:
     TiKAL:
     Challenge:
     11:
     0,0,0,0,0:
0000
0000
0000
0000
,
0000
0000
0000
0000
,
0000
0000
0000
0000
,
0000
0000
0000
0000
,
0000
0000
0000
0000
,
0000
0000
0000
0000
,
0000
0000
0000
0000
,
0000
0000
0000
0000
,
1001
0000
0000
0000
1100
0000
0000
0000
0100
1000
0001
0010
0001
0010
0001
1000
,
0100
1000
1001
0000
0101
0001
0101
0000
,
0110
0000
0000
0000
1010
0000
0000
0000
0001
1000
0100
0010
0100
0010
0100
1000
,
0001
1000
1100
0000
0410
0000
0310
0000
,
1001
0000
0000
0000
0101
0000
0000
0000
0100
0001
1000
0010
1000
0010
1000
0001
,
0100
0001
1001
0000
1100
1000
0000
0000
,
0110
0000
0000
0000
0011
0000
0000
0000
1000
0000
0100
0010
0100
0010
0100
1000
,
0001
0100
0101
0000
0400
0300
0040
0030
,
20M1
0000
00M0
0000
00M0
000M
00M0
0M00
,
00M0
0000
00M0
0000
00M0
000M
00M0
0M00
,
00M0
0000
00M0
0000
00M0
000M
00M0
0M00
,
00M0
0000
0000
0000
00M0
0000
0000
0000
3001
0010
0001
0010
0100
1000
0100
1000
,
0001
0000
0000
0000
0000
0000
0000
0000
0000
0000
0000
0000
0100
0000
0000
0000
0001
0000
0000
0000
0100
0000
0000
0000
0001
0000
0000
0000
0000
0000
0000
0000
0000
1000
0000
0000
0010
0000
0000
0000
0000
0000
0000
0000
0000
0000
0000
0000
,
0100
0000
0000
0000
0000
0000
0000
0000
0000
0000
0000
0000
0001
0000
0000
0000
0010
0000
0000
0000
0001
0000
0000
0000
0010
0000
0000
0000
0000
0000
0000
0000
0000
0100
0000
0000
1000
0000
0000
0000
0000
0000
0000
0000
0000
0000
0000
0000
,
0001
0000
0000
1000
0010
1000
0001
0010
0001
1000
0100
1000
,
0001
0000
0000
0000
0100
0000
0000
0000
0001
0000
0000
0000
1000
0000
0000
0000
0100
0000
0000
0000
0010
0000
0000
0000
0001
0000
0000
0000
0000
0000
0000
0000
0000
0001
0000
0000
4000
0000
0000
0000
0000
0000
0000
0000
0000
3000
0000
0000
,
1001
0000
0000
0001
0100
0001
1000
0010
1000
0001
0010
0000
,
0000
0000
0000
0000
0000
0000
0000
0000
0001
0000
0000
0000
0100
0000
0000
0010
0000
0000
1000
0000
0000
0001
0000
0000
1000
0000
0000
0000
0000
0000
0000
0000
0000
0001
0000
0000
1000
0000
0000
0000
0000
0000
0000
0000
0000
0000
0000
0000
,
0110
0000
0000
0000
0000
0000
0000
0000
0000
0000
0000
0000
0001
0000
0000
0000
0010
0000
0000
0000
0100
0000
0000
0000
1000
0000
0000
0000
0000
0000
0000
0000
0000
1000
0000
0000
0001
0000
0000
0000
0000
0000
0000
0000
0000
0000
0000
0000
,
1000
0000
0000
0000
0000
0000
0001
0000
0100
0000
0010
0000
1000
0000
0000
1000
0000
0000
0001
0000
0000
0001
0000
0000
,
1001
0000
0000
0000
1001
0000
0000
0000
0110
0000
0000
0001
1000
0000
0000
0000
,
000M
0000
0000
0000
M000
0000
0000
0000
0110
0000
0000
1000
0001
0000
0000
0000
,
4000
3000
0001
0000
0011
0000
0110
0000
,
1100
0000
0000
0000
0000
0000
0000
0000
0000
0000
0000
0000
0000
0000
0000
0000
0000
0000
0000
0000
0000
0000
0000
0000
0000
0000
0100
0001
0000
0000
0000
0000
0000
0000
0000
0000
0000
0000
0000
0000
0000
0000
0000
0000
0000
0000
0000
0000
1010
0000
0000
0000
0000
0000
0000
0000
0000
0000
0000
0000
0000
0000
0000
0000
0000
0000
1000
0000
0000
0000
0000
0000
0001
0000
0000
0000
0000
0000
0000
0000
0000
0000
0000
0000
0000
0000
0000
0000
0000
0000
0000
0000
0000
0000
0000
0000
,
0100
0000
0000
0001
0010
0100
1000
0001
0010
0100
0010
0001
,
1000
0000
0000
0000
0010
0000
0000
0000
0100
0000
0000
0000
0010
0000
0000
0000
1000
0000
0000
0000
0001
0000
0000
0000
0010
0000
0000
0000
0000
0000
0000
0000
0000
0001
0000
0000
1000
0000
0000
0000
0000
0000
0000
0000
0000
0000
0000
0000
,
0010
0000
0000
0100
0010
0000
0110
0000
0001
1000
0000
0000
,
0001
0000
0000
0000
0000
0000
1000
0000
0100
0000
0000
0000
0140
0000
0000
0030
0000
0000
0004
0000
0000
0003
0000
0000
,
1001
0000
0000
0000
1001
0000
0000
0000
1000
0000
0010
1000
0001
0010
0001
1000
,
0010
0100
0110
0000
1004
0003
4000
3000
,
0011
0000
0010
0000
0100
0000
0000
0000
1100
0000
1000
0100
1000
0001
0100
0001
,
1000
0001
0010
0000
0100
0000
1000
0000
1001
0000
0000
0000
0004
0000
0000
0003
,
1001
0000
1000
0000
1000
0000
0000
0000
0010
0000
0100
0001
1000
0100
1000
0001
,
0010
0100
0110
0000
1100
0000
0001
0000
,
1001
0000
0001
0000
0001
0000
0000
0000
1000
0000
0100
0010
0001
0100
0010
1000
,
0001
0010
0100
0000
1000
0000
0001
0000
1001
0000
0000
0000
0010
0000
0000
0000
,
0110
0000
0000
0000
0100
0000
0000
0000
1001
0000
1000
0100
0010
0100
1000
0001
,
0010
0010
0110
0000
1001
0000
0001
0000
,
1100
0000
1000
0000
1000
0000
0000
0000
0001
0000
0010
0100
1000
0100
0010
0001
,
1000
1000
1001
0000
0110
0000
0001
0000
,
0001
0000
0000
0000
0101
0000
0000
0000
0101
0000
0000
0100
0001
1000
0010
1000
,
0001
0000
0011
0001
1001
0000
1010
0000
,
1000
0100
1000
0100
0010
0001
0010
0001
,
1000
0000
0010
0000
0100
0000
0001
0000
0100
0000
0010
0000
,
1001
0000
1000
0100
0001
0000
0110
0000
,
0001
0100
1000
0100
0001
0000
0110
0000
,
1000
0100
0010
0001
1000
0010
0100
0001
,
1000
0000
0001
0001
0001
0000
1000
1000
,
0001
0010
1000
0010
0001
0000
0110
0000
,
1000
0010
0001
0010
1000
0000
0110
0000
,
0001
0100
0010
1000
0001
0010
0100
1000
,
0010
0000
0100
0100
0100
0000
0010
0010
,
0110
0100
0001
1004
1003
0100
0110
0010
,
0001
0001
0011
0000
0110
0000
1100
0000
,
1001
0001
0100
0410
0310
1000
1001
1000
,
0100
0000
0000
1000
0000
0000
1010
0000
0000
0010
0000
0000
0110
0000
0000
0000
0000
0000
0100
0000
0001
0000
0100
0000
,
0001
1000
0100
1000
0001
1000
0010
0100
,
0001
0010
0001
1000
0001
0100
0010
1000
,
0001
0010
0100
0010
0001
1000
0010
1000
0001
1000
0100
0010
0100
1000
0001
0100
,
0010
0000
0100
0000
0001
0000
1000
0000
0100
0000
0010
0000
0001
0000
0000
0010
0000
0000
0100
0000
0000
1000
0000
0000
,
1001
0000
0000
0001
0000
0000
0100
0000
0000
0000
0000
0000
0110
0000
0000
0000
0010
0000
1000
0000
0000
0000
0000
0000
,
0001
0001
1001
0000
0101
0000
0100
0000
,
0020
0000
1030
0200
0000
0301
0100
1000
,
0001
0110
1001
2000
,
3002
0000
0000
0003
0101
0000
0100
0010
,
0200
0310
1010
1000
,
0101
0000
0101
0000
0100
0001
0010
0001
,
1000
1000
1100
0000
0100
0010
0001
1000
,
1001
1000
0010
0000
0110
0100
0001
1000
,
0100
0100
0110
0000
1001
0000
0001
0000
,
0020
0000
0031
0100
1000
0100
0001
1000
,
0010
0110
1001
0002
,
1003
1000
0200
0300
1100
0000
0100
0010
,
0100
0000
0100
0000
0020
0000
0030
0000
0011
0000
0000
0000
0004
0000
0000
0003
,
1100
0000
0000
0000
1100
0000
0000
0000
0100
0000
1000
0010
1000
0000
0010
1000
,
0001
0000
0001
0100
0040
0000
0000
0000
0130
0000
0010
1000
0004
0000
0000
0003
,
2001
0000
0000
3000
2000
0000
0000
3000
0100
0000
1000
0000
0010
0000
0100
0000
,
0001
0001
0002
0000
0103
0010
1000
0100
,
0020
0000
0000
0030
0020
0000
0000
0000
0031
0000
0100
0000
0010
0000
1000
0000
,
0100
0100
0200
0000
1300
0010
0100
0001
,
2000
0000
0000
3000
2000
0000
0000
3000
0100
0000
1000
0000
0010
0000
0100
0000
,
0001
0001
0002
0000
0103
0010
1000
0100
,
0020
0000
0000
0030
0020
0000
0000
0000
0031
0000
0100
0000
0010
0000
1000
0000
,
0100
0100
0020
0000
0031
0100
2000
0000
,
3000
0000
0000
0000
;
