#TITLE:Love Love Love;
#SUBTITLE:;
#ARTIST:에픽하이;
#TITLETRANSLIT:;
#SUBTITLETRANSLIT:;
#ARTISTTRANSLIT:Epik High;
#GENRE:K-hip hop;
#CREDIT:tikal.;
#MUSIC:[Be Mine] - Love Love Love.ogg;
#BANNER:;
#BACKGROUND:;
#CDTITLE:;
#SAMPLESTART:63.760;
#SAMPLELENGTH:15.000;
#SELECTABLE:YES;
#OFFSET:-0.010;
#BPMS:0.000=128.000;
#STOPS:;
#BGCHANGES:;
#FGCHANGES:;

//--------------- dance-single - tikal. ----------------
#NOTES:
     dance-single:
     tikal.:
     Challenge:
     10:
     0,0,0,0,0:
0000
0000
0000
0000
,
0000
0000
0000
0000
,
1000
0000
0000
0000
1100
0000
0100
0000
1000
0000
0001
1000
0100
0000
1000
0000
,
0001
0000
0100
0000
0010
0100
0001
0000
1000
0000
0100
0010
0100
0010
0100
0010
,
0001
0000
0010
0000
0011
0000
0010
0000
0001
0000
1000
0001
0010
0000
0001
0000
,
1000
0000
0010
0000
0100
0010
1000
0000
0001
0010
0100
1000
0001
0100
0010
1000
,
0001
0000
0000
0000
0101
0000
0100
0000
0001
0000
1000
0001
0100
0000
0001
0000
,
1000
0000
0100
0000
0010
0100
1000
0000
0001
0000
0100
0010
0100
0010
0100
0010
,
1000
0000
0010
0000
1010
0000
0010
0000
1000
0000
0001
1000
0010
0000
1000
0000
,
0001
0000
0010
0001
1000
0000
0010
1000
0001
0100
0010
1000
0001
0010
0100
1000
,
0001
0000
0001
0000
0000
0000
1000
0001
1000
0001
0000
0100
0000
0000
0001
0010
,
0001
1000
0010
0000
1000
0001
0010
0000
0001
1000
0000
0100
0000
0000
0100
1000
,
0001
0010
0001
0000
1000
0010
1000
0000
0001
0010
0000
0100
0000
0000
1000
0000
,
0001
1000
0001
1000
0001
0010
0000
0100
0000
0000
0000
0000
1000
0001
1000
0010
,
1000
0000
0001
0010
0000
0001
1000
0000
0010
1000
0010
0100
0000
0000
0001
0010
,
0001
1000
0010
1000
0001
0000
1000
0000
0001
0010
0001
0100
0000
0000
0010
1000
,
0001
1000
0010
0100
0000
0000
0000
0000
0001
1000
0001
0100
0000
0000
0000
0000
,
0010
1000
0001
0010
0001
1000
0000
0100
1000
0100
0010
0001
1000
0010
0100
0001
,
1000
0000
0000
0000
0000
0000
0000
0000
1000
0000
0000
0000
0001
0000
0000
0000
0000
0000
0000
0000
0001
0000
0000
0000
0100
0000
0000
0000
0001
0000
0000
0000
1000
0000
0000
0000
0100
0000
0000
0000
0000
0000
0000
0000
0010
0000
0000
0000
0000
0000
0000
0000
0000
0000
0000
0000
0100
0000
0000
0000
0000
1000
0000
0000
,
0001
0000
0000
0000
0000
0000
0100
0000
0000
0000
0000
0000
0001
0000
0000
1000
0000
0000
0001
0000
0000
0100
0000
0000
0001
0000
0000
1000
0000
0000
0000
0000
0000
0010
0000
0000
0000
0000
0000
0000
0000
0000
1000
0000
0000
0000
0001
0000
,
0100
0000
0000
0001
0000
0000
1000
0000
0000
0100
0000
0000
1000
0000
0000
0000
0000
0000
0001
0000
0000
0000
0000
0000
1000
0000
0000
0100
0000
0000
0000
0000
0000
0010
0000
0000
0000
0000
0000
0000
0000
0000
0000
0000
0001
0000
0000
0000
,
0000
0100
0000
0000
0000
0000
1000
0000
0000
0000
0000
0000
0100
0000
0000
0001
0000
0000
1000
0000
0000
0100
0000
0000
1000
0000
0000
0001
0000
0000
0000
0000
0000
0010
0000
0000
0000
0000
0000
0000
0000
0000
0000
0000
0000
0000
0000
0000
,
0100
1000
0001
0000
0100
0000
0001
0100
0001
1000
0100
0010
0000
0000
0100
0000
,
1000
0001
0100
0001
1000
0000
0100
0000
1000
0001
0100
0010
0000
0000
0100
0001
,
1000
0001
0100
0010
0000
0000
0000
0000
1000
0001
1000
0010
0000
0000
1000
0001
,
0100
0000
0001
1000
0100
1000
0001
0010
0001
0010
0100
1000
0001
0100
0010
1000
,
0001
0000
0100
0000
0001
0000
1000
0000
0001
0010
0100
1000
0000
0100
0010
0000
,
0001
0000
1000
0000
0010
0000
0100
0000
0001
0100
0010
1000
0000
0010
0100
0000
,
0001
0000
1000
0000
0001
1000
0100
0000
1000
0000
0001
0100
0000
0010
0100
0000
,
0001
0001
0010
0100
2000
0000
0002
3003
,
1000
0000
0100
0000
1000
0000
0001
0000
1000
0010
0100
0001
0000
0100
0010
0000
,
1000
0000
0001
0000
0010
0000
0100
0000
1000
0100
0010
0001
0000
0010
0100
0000
,
1000
0000
0001
0000
0100
0000
0010
0000
1000
0001
0010
0100
0000
0000
0010
0000
,
0011
0000
0000
1010
0000
0000
1001
0000
1000
0010
0100
0001
1000
0100
0010
0001
,
1000
0000
0000
0000
1010
0000
0010
0000
1000
0000
0001
1000
0010
0000
1000
0000
,
0001
0000
0010
0000
0100
0010
0001
0000
1000
0000
0010
0100
0010
0100
0010
0100
,
0001
0000
0100
0000
0101
0000
0100
0000
0001
0000
1000
0001
0100
0000
0001
0000
,
1000
0000
0100
0000
0010
0100
1000
0000
0001
0100
0010
1000
0001
0010
0100
1000
,
0001
0000
0000
0000
0011
0000
0010
0000
0001
0000
1000
0001
0010
0000
0001
0000
,
1000
0000
0010
0000
0100
0010
1000
0000
0001
0000
0010
0100
0010
0100
0010
0100
,
1000
0000
0100
0000
1100
0000
0100
0000
1000
0000
0001
1000
0100
0000
1000
0000
,
0001
1000
0020
0230
,
0300
0000
0000
0000
,
0001
0000
1000
0010
1000
0000
0001
0010
0000
0100
1000
0001
0100
0000
0010
0000
,
1000
0000
0000
0000
0000
0000
0001
0000
0000
0000
0000
0000
0020
0000
0000
0000
0000
0000
0000
0000
0000
0000
0000
0000
0230
0000
0000
0000
0000
0000
0000
0000
0000
0000
0000
0000
1300
0000
0000
0000
0000
0000
0000
0001
0000
0000
0000
0000
1000
0000
0000
0000
0000
0000
0001
0000
0000
0000
0000
0000
0400
0000
0000
0000
0000
0000
0000
0000
0000
0000
0000
0000
0310
0000
0000
0000
0000
0000
0100
0000
0000
0000
0000
0000
0001
0000
0000
0000
0000
0000
1000
0000
0000
0000
0000
0000
,
0200
0000
1300
0100
0000
1000
0100
0001
0000
0100
0020
0000
0032
0000
2003
0000
,
3001
0000
0000
0000
0000
0000
1000
0000
0000
0000
0000
0000
0001
0000
0000
0000
0100
0000
0000
0000
0000
000M
0100
0000
1000
0000
0000
0001
0000
0000
0100
0000
0000
0010
0000
0000
1000
0000
0000
0001
0000
0000
1000
0000
0000
0100
0000
0000
,
0010
0000
0000
0001
0000
0000
0010
0000
0000
0000
0000
0000
0001
0000
0000
0000
0000
0000
0010
0000
0000
0000
0000
0000
0000
0000
0000
0000
0000
0000
0100
0000
0000
0000
0000
0000
1000
0000
0000
0000
0000
0000
0001
0000
0000
0000
0000
0000
0100
0000
0000
0000
0000
0000
0010
0000
0000
0000
0000
0000
0100
0000
0000
0000
0000
0000
0001
0000
0000
0000
0000
0000
1000
0000
0000
0000
0000
0000
0000
0000
0000
0000
0000
0000
0100
0000
0000
0000
1000
0000
0000
0000
0001
0000
0000
0000
,
1000
0000
0000
1000
0000
0000
0010
0000
0000
0001
0000
0000
0001
0000
0000
0010
0000
0000
0100
0000
0000
0001
1000
0001
,
1000
0000
0001
0010
0000
0004
0000
0000
0013
0100
2000
0000
3002
0000
0403
0000
,
0000
0000
0301
0000
1000
0001
0000
1000
0100
1000
0004
0000
1003
0010
0000
1000
,
0001
0000
4000
0000
3001
0010
0000
0001
1000
0001
0100
0010
2000
0000
3000
0000
,
1001
0001
0010
1000
0001
0100
2000
0000
,
3001
1000
0010
0001
1000
0100
0002
0000
,
1003
0001
0100
1000
0001
0010
1000
0001
,
0010
0010
0100
1000
0001
0000
2001
0000
,
3001
1000
0100
0001
1000
0010
0002
0000
,
1003
0001
0100
1000
0001
0010
2000
0000
,
3001
1000
0010
0001
1000
0100
0001
1000
,
2002
3000
0203
0320
,
2030
0000
0000
0000
0000
0000
0000
0000
3001
0010
0100
1000
0001
0100
0010
1000
,
0001
0000
0000
0000
0101
0000
0100
0000
0001
0000
1000
0001
0100
0000
0001
0000
,
1000
0000
0100
0000
0010
0100
1000
0000
0001
0000
0100
0010
0100
0010
0100
0010
,
1000
0000
0010
0000
1010
0000
0010
0000
1000
0000
0001
1000
0010
0000
1000
0000
,
0001
0000
0010
0000
0100
0010
0001
0000
1000
0010
0100
0001
1000
0001
1000
0001
,
1000
0000
0000
0000
1100
0000
0100
0000
1000
0000
0001
1000
0100
0000
1000
0000
,
0001
0000
0100
0000
0010
0100
0001
0000
1000
0000
0100
0010
0100
0010
0100
0010
,
0001
0000
0010
0000
0011
0000
0010
0000
0001
0000
1000
0001
0010
0000
0001
0000
,
1000
0000
0000
0000
0001
0000
1000
0000
0001
0100
0010
1000
0001
1000
0001
1000
,
0001
0000
0000
0000
;
