#TITLE:恋はみずいろ;
#SUBTITLE:;
#ARTIST:蟹プリンス;
#TITLETRANSLIT:Koi wa mizuiro;
#SUBTITLETRANSLIT:;
#ARTISTTRANSLIT:Kani Prince;
#GENRE:Techno kayo;
#CREDIT:tikal.;
#MUSIC:mizuiroblood.ogg;
#BANNER:mizuiroblood-bn.png;
#BACKGROUND:mizuiroblood-bg.png;
#CDTITLE:cdtitle.png;
#SAMPLESTART:37.986;
#SAMPLELENGTH:24.935;
#SELECTABLE:YES;
#OFFSET:-0.194;
#BPMS:0.000=154.000;
#STOPS:;
#BGCHANGES:;
#FGCHANGES:;

//--------------- dance-single - tikal. ----------------
#NOTES:
     dance-single:
     tikal.:
     Hard:
     6:
     0,0,0,0,0:
0000
0000
0000
0000
,
0000
0000
0000
0000
,
0000
0000
0000
0000
,
0000
0000
0000
0000
,
0000
0000
0000
0000
,
0000
0000
0000
0000
,
0000
0000
0000
0000
,
0000
0000
0000
0000
,
2001
0000
0000
0200
3000
0000
0020
0000
,
0000
0300
0000
0002
0000
0000
0033
0000
,
0002
0000
0000
0000
,
2000
0000
0000
3003
,
0001
0000
0002
0000
0000
0000
0000
0003
,
0000
0100
0010
0000
0100
0000
1000
0000
,
0100
0000
0010
0000
0100
0000
0001
1000
,
0000
0000
0000
1000
,
1000
0000
2000
0000
0000
0000
0000
3000
,
0000
0100
0010
0000
0100
0000
0001
0000
,
0100
0000
0010
0000
0100
0000
1000
0001
,
0000
0000
0000
0000
,
0100
0200
0000
0000
,
0300
0010
0000
0100
0001
0000
1000
0200
,
0000
0020
0000
0000
,
0330
0000
0001
0000
0000
1000
0000
0000
,
0000
0001
0100
0010
,
1010
0001
0101
1000
,
2020
3000
0100
0230
,
0001
0010
1000
0010
,
0301
1000
0100
0010
,
0011
1000
1100
0001
,
0022
0003
0100
0230
,
1000
0010
0001
0010
,
1300
0001
0100
0010
,
1010
0101
2020
0000
,
3030
1000
0100
0010
,
0011
1100
0022
0000
,
0033
0001
0010
0100
,
1100
0011
0101
1010
,
2002
3003
0110
2002
,
0000
0000
0000
3003
,
1000
0010
0100
0001
,
0011
0101
1001
0000
,
0001
0100
0010
1000
,
1100
1010
1001
0000
,
1000
0100
0010
0001
,
0101
0011
1100
1010
,
2002
0000
0000
0000
,
0000
0000
0000
0000
,
3003
0000
0001
1000
,
0001
0100
0000
1000
0100
0000
0001
0100
,
0000
1000
0100
0000
0000
0000
0100
0000
,
0001
0010
0000
1000
0010
0000
0001
0010
,
0000
1000
0010
0000
0100
0000
1000
0000
,
0010
0001
0000
0010
1000
0000
0100
0001
,
0000
0100
1000
0000
0001
0010
0000
0000
,
0100
0001
0000
0100
1000
0000
0010
0001
,
0000
0010
1000
0000
0001
0100
0010
0000
,
1000
0100
0100
0010
0001
0000
1000
0010
,
0010
0100
0001
0000
1000
0001
1000
0000
,
0001
0100
0100
0010
1000
0000
0001
0010
,
0010
0100
1000
0000
0001
1000
0001
0000
,
1000
0100
0001
0000
1000
0010
0001
0000
,
1000
0000
0010
0000
0100
0001
1000
0000
,
1002
0000
0000
0200
0003
0000
0020
0000
,
0000
0300
0000
2000
0000
0000
3030
0000
,
2000
0000
0000
0000
,
0002
0000
0000
3003
,
1000
0000
0100
0010
,
0000
0011
0000
0000
1010
0000
0000
2002
,
0000
0000
0000
0000
,
3003
0000
0000
0000
;

//--------------- dance-single - tikal. ----------------
#NOTES:
     dance-single:
     tikal.:
     Challenge:
     7:
     0,0,0,0,0:
0000
0000
0000
0000
,
0000
0000
0000
0000
,
0000
0000
0000
0000
,
0000
0000
0000
0000
,
0000
0000
0000
0000
,
0000
0000
0000
0000
,
0000
0000
0000
0000
,
0000
0000
0000
0000
,
1001
0000
1000
0000
0000
1000
0000
0000
,
0000
1100
0000
0000
0110
0000
0000
0011
,
0000
0000
0001
0000
0000
0001
0000
0000
,
0000
0101
0000
0000
0110
0000
0000
1010
,
1000
0100
2000
0000
0000
0000
0000
3000
,
0000
0001
1000
0100
1000
0000
0001
0010
,
0001
0000
1000
0100
1000
0001
0010
0100
,
0000
0000
1000
0000
0000
1000
0001
0100
,
0001
0100
0002
0000
0000
0000
0000
0003
,
0000
1000
0001
0100
0001
0000
1000
0010
,
1000
0000
0001
0100
0001
1000
0010
0100
,
0000
0000
0001
0000
0000
0001
1000
0000
,
0100
0010
0200
0000
0000
0000
0000
0000
,
0300
1000
0000
0001
0100
0000
1000
0200
,
0000
0020
0000
0000
,
0330
0000
1000
0000
0000
1000
0000
0000
,
0000
0000
0000
0000
0001
0000
0000
0000
0010
0000
0000
0100
1000
0000
0001
0000
,
1000
0000
0000
0010
1000
0000
0000
0000
0001
0000
0000
0010
0001
0000
0000
0000
,
1000
0000
0000
0100
1000
0000
0000
0000
0001
0000
0000
0100
0001
0000
0000
0000
,
1000
0000
0100
0001
0100
0000
1000
0000
,
0001
0100
0010
1000
,
0001
0000
0000
0010
0001
0000
0000
0000
1000
0000
0000
0010
1000
0000
0000
0000
,
0001
0000
0000
0100
0001
0000
0000
0000
1000
0000
0000
0100
1000
0000
0000
0000
,
0001
0000
0100
1000
0100
0000
0001
0000
,
1000
0100
0010
0001
,
0100
0000
0000
0100
0001
0000
0000
0001
0100
0000
0000
0000
0000
0000
0000
0000
,
0001
0100
0010
1000
,
0100
0000
0000
0100
1000
0000
0000
1000
0100
0000
0000
0000
0000
0000
0000
0000
,
1000
0010
0100
0001
,
1000
0000
0000
1000
0100
0000
0000
0100
0001
0000
0000
0001
0100
0000
0000
0100
,
1000
0000
0000
1000
0010
0000
0000
0010
0001
0000
0000
0001
0010
0000
0000
0010
,
1000
0000
0100
0001
0100
0000
1000
0000
,
0001
0010
0100
1000
,
1100
1010
1001
0000
,
1000
0100
0010
0001
,
0011
0101
1001
0000
,
0001
0100
0010
1000
,
1010
1100
0011
0101
,
2002
0000
0000
0000
,
0000
0100
0000
0000
0100
0000
0000
0100
,
3003
0000
0001
1000
,
0001
0010
0100
0001
0100
0010
0001
0100
,
0010
0001
0010
0100
0001
1000
0000
0000
,
1000
0100
0010
1000
0010
0100
1000
0010
,
0100
1000
0100
0010
1000
0000
0001
0000
,
1000
0010
0100
1000
0100
0010
1000
0100
,
0010
1000
0010
0100
1000
0001
0000
0000
,
0001
0100
0010
0001
0010
0100
0001
0010
,
0100
0000
0001
0000
0100
0000
0010
0000
0001
0000
1000
0001
1000
0001
1000
0000
,
0001
0100
1000
0001
0010
1000
0001
0010
,
1000
0001
0100
1000
0001
1000
0000
0000
,
1000
0100
0001
1000
0010
0001
1000
0010
,
0001
1000
0100
0001
1000
0001
1000
0000
,
0001
0010
1000
0000
0001
0100
1000
0010
,
0001
0000
0000
0000
1000
0000
0100
0000
0001
0000
0010
0001
1000
0010
0000
0000
,
1001
0000
1000
0000
0000
1000
0000
0000
,
0000
1100
0000
0000
1001
0000
0000
0101
,
0000
0000
0001
0000
1000
0001
0000
0000
,
0000
0011
0000
0000
1001
1000
0010
1010
,
0000
0000
0000
0000
,
0000
1000
0000
0000
0001
0000
0000
2002
,
0000
0000
0000
0000
,
3003
0000
0000
0000
;

//--------------- dance-double - tikal. ----------------
#NOTES:
     dance-double:
     tikal.:
     Challenge:
     8:
     0,0,0,0,0:
00000000
00000000
00000000
00000000
,
00000000
00000000
00000000
00000000
,
00000000
00000000
00000000
00000000
,
00000000
00000000
00000000
00000000
,
00000000
00000000
00000000
00000000
,
00000000
00000000
00000000
00000000
,
00000000
00000000
00000000
00000000
,
00000000
00000000
00000000
00000000
,
10010000
00000000
00000000
00000000
,
00000000
10000000
00000000
00000000
01000000
00000000
00000000
00010000
,
00000000
00000000
00000000
00000000
,
00000000
00001000
00000000
00000000
00000100
00000000
00000000
00000001
,
00001000
00000100
00002000
00000000
00000000
00000000
00000000
00003000
,
00000000
00000001
00000001
00000100
00000100
00000010
00000010
00000100
,
00000100
00001000
00001000
00000100
00000100
00000010
00010000
00001000
,
00000000
00000000
00001000
00000000
00100000
00010000
00010000
01000000
,
00010000
01000000
00020000
00000000
00000000
00000000
00000000
00030000
,
00000000
10000000
10000000
01000000
01000000
00100000
00100000
01000000
,
01000000
00010000
00010000
01000000
01000000
00100000
00001000
00010000
,
00000000
00000000
00000010
00000000
00000000
00001000
00001000
00000000
,
00000001
00001000
00000002
00000000
00000000
00000000
00000000
00000000
,
00000003
00000010
00000000
00000100
00010000
00000000
00001000
02000000
,
00000000
00200000
00000000
00000000
,
03300000
00000000
00010000
00000000
00000000
00010000
00000000
00000000
,
00000000
00000000
00000000
00000000
10000000
00000000
00000000
00000000
01000000
00000000
00000000
00100000
01000000
00000000
10000000
00000000
,
00010000
00000000
00000000
00010000
00100000
00000000
00000000
00100000
01000000
00000000
00000000
01000000
00010000
00000000
00000000
00010000
,
01000000
00000000
00000000
01000000
00100000
00000000
00000000
00100000
00001000
00000000
00000000
00001000
00010000
00000000
00000000
00010000
,
00000010
00000000
00000000
00000010
00000100
00000000
00000000
00000100
00000010
00000000
00000000
00000010
00000100
00000000
00000000
00000100
,
00000001
00000000
00000000
00000001
00000100
00000000
00000000
00000100
00000010
00000000
00000000
00000010
00001000
00000000
00000001
00000000
,
00001000
00000000
00000000
00001000
00000010
00000000
00000000
00000010
00000100
00000000
00000000
00000100
00001000
00000000
00000000
00001000
,
00000100
00000000
00000000
00000100
00000010
00000000
00000000
00000010
00010000
00000000
00000000
00010000
00001000
00000000
00000000
00001000
,
00100000
00000000
00000000
00100000
01000000
00000000
00000000
01000000
00100000
00000000
00000000
00100000
01000000
00000000
00000000
01000000
,
10000000
00000000
00000000
10000000
01000000
00000000
00000000
01000000
00100000
00000000
00000000
00100000
00010000
00000000
10000000
00000000
,
00001000
00000000
00000000
00001000
01000000
00000000
00000000
01000000
00001000
00000000
00000000
00000000
00000000
00000000
00000000
00000000
,
01000000
00000000
00000000
01000000
00100000
00000000
00000000
00100000
00010000
00000000
00000000
00010000
00001000
00000000
00000000
00001000
,
00010000
00000000
00000000
00010000
00000100
00000000
00000000
00000100
00010000
00000000
00000000
00000000
00000000
00000000
00000000
00000000
,
00000100
00000000
00000000
00000100
00000010
00000000
00000000
00000010
00001000
00000000
00000000
00001000
00010000
00000000
00000000
00010000
,
00001000
00000000
00000000
00001000
00100000
00000000
00000000
00100000
00001000
00000000
00000000
00001000
00010000
00000000
00000000
00010000
,
00000010
00000000
00000000
00000010
00000100
00000000
00000000
00000100
00001000
00000000
00000000
00001000
00000100
00000000
00000000
00000100
,
00000001
00000000
00000000
00000001
00001000
00000000
00000000
00001000
00000100
00000000
00000000
00000100
00010000
00000000
00000000
00010000
,
01000000
00000000
00000000
01000000
10000000
00000000
00000000
10000000
01000000
00000000
00000000
01000000
00100000
00000000
00000000
00100000
,
00001000
00000000
00000000
00001000
00000010
00000000
00000000
00000010
00001000
00000000
00000000
00000000
00000000
00000000
00000000
00000000
,
00000010
00000100
00001000
00000100
,
00010000
00000000
00000000
00010000
00100000
00000000
00000000
00100000
00010000
00000000
00000000
00000000
00000000
00000000
00000000
00000000
,
00100000
01000000
00010000
01000000
,
00001000
00000000
00000000
00001000
00100000
00000000
00000000
00001000
00010000
00000000
00000000
00010000
00000010
00000000
00000000
00010000
,
00002000
00000000
00000000
00000000
,
00000000
00000010
00000000
00000000
00100000
00000000
00000000
01000000
,
00003000
00000000
00000100
00001000
,
00000001
00000010
00001000
00000010
00000001
00000000
00001000
00000100
,
00000001
00000100
00010000
00000000
00001000
01000000
00100000
00000000
,
10000000
00100000
00010000
00100000
10000000
00000000
00010000
01000000
,
10000000
01000000
00001000
00000000
00010000
00000100
00000010
00000100
,
00001000
00000010
00000001
00001000
00000100
00000000
00000001
00000100
,
00001000
00010000
00100000
00000000
00010000
00100000
01000000
00000000
,
00010000
00100000
10000000
00010000
01000000
00000000
10000000
01000000
,
00010000
00000000
00001000
00000000
00000010
00000000
00000000
00000000
00001000
00000000
00000010
00000100
00000010
00000001
00001000
00000000
,
00000001
00000100
00010000
00000100
00001000
00010000
01000000
10000000
,
01000000
00100000
10000000
00000000
00100000
00010000
01000000
00010000
,
10000000
01000000
00001000
01000000
00010000
00001000
00000100
00000001
,
00000100
00000010
00000001
00000000
00000010
00001000
00000100
00001000
,
00000001
00000100
00001000
00000000
00010000
00100000
10000000
01000000
,
00010000
00000000
00000000
00000000
00001000
00000000
00000000
00000000
00000010
00000000
00000100
00001000
00000001
00000100
00000000
00000000
,
00001001
00000000
00001000
00000000
00000000
00001000
00000000
00000000
,
00000000
00001100
00000000
00000000
00011000
00000000
00000000
01010000
,
00000000
00000000
00010000
00000000
10000000
00010000
00000000
00000000
,
00000000
00110000
00000000
00000000
00011000
00000010
00001000
00001010
,
00000000
00000000
00000000
00000000
,
00000000
00000010
00000000
00000000
00100000
00000000
00000000
00022000
,
00000000
00000000
00000000
00000000
,
00033000
00000000
00000000
00000000
;
