#TITLE:FIGHT!;
#SUBTITLE:;
#ARTIST:Aests;
#TITLETRANSLIT:;
#SUBTITLETRANSLIT:;
#ARTISTTRANSLIT:;
#GENRE:Future funk;
#CREDIT:TiKAL;
#MUSIC:FIGHT!.ogg;
#BANNER:FIGHT!.png;
#BACKGROUND:FIGHT!-bg.png;
#CDTITLE:cdtitle.png;
#SAMPLESTART:34.000;
#SAMPLELENGTH:16.000;
#SELECTABLE:YES;
#OFFSET:0.750;
#BPMS:0.000=120.000;
#STOPS:5.500=0.250
,6.750=0.125
,12.750=0.250
,14.000=0.125
,130.000=1.500
;
#DISPLAYBPM:120.000;
#BGCHANGES:;
#FGCHANGES:;

//--------------- dance-single - TiKAL ----------------
#NOTES:
     dance-single:
     TiKAL:
     Hard:
     7:
     0,0,0,0,0:
0000
0000
0000
0000
,
0000
0000
0000
0000
,
0000
0000
0000
0000
,
0000
0000
0000
0000
,
0000
0000
0000
0000
,
0001
1000
0010
1000
0200
0000
1300
0000
,
0001
0010
0001
0100
0002
0000
1003
0001
,
1000
0001
0100
0001
0020
0000
0031
0000
,
1000
0100
1000
0010
2000
0000
3001
0000
,
0100
0010
0100
0001
0200
0000
0310
0000
,
0100
1000
0100
0010
0200
0000
0301
0100
,
0010
0100
0010
1000
0020
0000
0130
0000
,
0010
0001
0010
0100
0020
0000
1030
0010
,
2000
0000
0000
0001
3002
0000
0103
0000
,
0010
0100
0001
1000
0001
0000
1001
0000
,
1000
0100
0010
0000
0100
0010
0001
0000
,
2002
0000
0000
3003
,
0001
0100
1000
0100
0001
0001
2000
0000
,
3001
0010
0100
0010
0100
0010
0001
1000
,
0001
0100
1000
0100
0001
0001
2000
0000
,
3001
0010
0100
0010
0100
0010
0001
1000
,
0001
0010
1000
0010
0001
0001
2000
0000
,
3001
0100
0010
0100
0010
0100
0001
1000
,
0001
0010
1000
0010
0001
0001
2000
0000
,
3001
0100
0010
0100
0010
0100
0002
0000
,
1003
1000
1000
0110
,
0001
0010
0001
0110
,
0001
0001
0001
0110
,
1000
0000
0010
0000
0010
1000
0001
0001
,
1000
0010
0001
0010
1000
1000
0002
0000
,
1003
0100
0010
0100
0010
0100
1000
0001
,
1000
0100
0001
0100
1000
1000
0002
0000
,
1003
0010
0100
0001
1001
0000
0000
0000
,
0002
0000
0020
0000
,
0003
0200
0000
0030
2000
0000
0000
0300
,
0002
3000
0200
0000
,
0003
0020
0000
0300
2000
0000
0000
0030
,
3001
0100
0010
0010
1000
0001
0100
0001
,
0010
0000
0000
0000
0100
0000
0100
0000
1000
0000
0001
0000
0000
0100
0000
0000
,
0001
0010
0100
0100
1000
0001
0010
0001
,
0200
0000
0000
0000
0310
0000
0010
0000
1000
0000
0001
0000
0000
1000
0000
0001
,
1000
0010
0100
0100
0001
1000
0010
1000
,
0100
0000
0000
0000
0010
0000
0010
0000
0001
0000
1000
0000
0000
0010
0000
0000
,
1000
0100
0010
0010
0001
1000
0100
1000
,
0020
0000
0000
0000
0130
0000
0100
0000
0001
0000
1000
0000
0000
0001
0000
1000
,
0001
0000
0100
0000
,
1000
0000
0010
0011
,
2000
0000
0000
0001
3002
0000
0103
0000
,
0010
0100
0001
1000
0001
0000
1001
0000
,
1000
0100
0010
0000
0100
0010
0001
0000
,
2002
0000
0000
3003
,
0001
0100
1000
0100
0001
0001
2000
0000
,
3001
0010
0100
0010
0100
0010
0001
1000
,
0001
0100
1000
0100
0001
0001
2000
0000
,
3001
0010
0100
0010
0100
0010
0001
1000
,
0001
0010
1000
0010
0001
0001
2000
0000
,
3001
0100
0010
0100
0010
0100
0001
1000
,
0001
0010
1000
0010
0001
0001
2000
0000
,
3001
0100
0010
0100
0010
0100
0002
0000
,
0003
0000
0000
0000
;

//--------------- dance-single - TiKAL ----------------
#NOTES:
     dance-single:
     TiKAL:
     Challenge:
     10:
     0.547004,0.604051,0.081992,1.541451,0.442757,467,457,10,188,37,0,0.547004,0.604051,0.081992,1.541451,0.442757,467,457,10,188,37,0:
0000
0000
0000
0000
,
0000
0000
0000
0000
,
0000
0000
0000
0000
,
0000
0000
0000
0000
,
0000
0000
0000
0000
,
2000
0000
3001
0001
0100
0020
0130
0020
2030
0000
3002
0000
0013
0000
0001
0010
,
0200
0000
1300
1000
0100
0020
0130
0020
0032
0000
2003
0000
3100
0000
1000
1000
,
0020
0000
0130
0100
0001
2000
3001
2000
3020
0000
0230
0000
0301
0000
1000
0001
,
2000
0000
3010
0010
0100
0002
0103
0002
2003
0000
3200
0000
0310
0000
0001
1000
,
0002
0000
1003
1000
0010
0200
0310
0200
0302
0000
2003
0000
3100
0000
1000
0100
,
0020
0000
0031
0001
0010
0200
0310
0200
2300
0000
3002
0000
0013
0010
0001
0001
,
0200
0000
0310
0010
1000
0002
1003
0002
0203
0000
0320
0000
1030
0000
0001
1000
,
0001
0000
0100
0100
0010
1000
0010
1000
0002
0000
0023
0000
0130
0000
1000
0001
,
2000
0000
0000
0000
0000
0000
3010
0000
0001
0000
0010
0000
1000
0000
0000
1000
,
0001
0000
0010
0000
0100
0000
1000
0002
0000
0000
0000
0000
1003
0000
0000
0000
,
0001
0000
0100
0000
1000
0000
0100
0002
0000
0000
1003
0000
0010
0000
0100
0000
,
0002
0000
0000
2000
0000
0000
0000
0000
3003
0000
0000
0000
0000
0000
0000
0000
,
0002
0000
1003
0010
0002
0000
0023
0000
2030
0000
3200
0000
0302
0000
0103
1000
,
0001
0000
0100
0000
0020
0000
2030
0000
3100
0000
1000
0010
0002
0000
0023
0000
,
2030
0000
3001
0100
2000
0000
3200
0000
0302
0000
0023
0000
2030
0000
3010
0001
,
1000
0000
0010
0000
0200
0000
0302
0000
0013
0000
0001
0100
2000
0000
3200
0000
,
0302
0000
1003
0100
0002
0000
0203
0000
2300
0000
3020
0000
0032
0000
0013
1000
,
0001
0000
0010
0000
0200
0000
2300
0000
3010
0000
1000
0100
0002
0000
0203
0000
,
2300
0000
3001
0010
2000
0000
3020
0000
0032
0000
0203
0000
2300
0000
3100
0001
,
1000
0000
0100
0000
0020
0000
0032
0000
0103
0000
0001
0010
0100
0100
0100
0100
,
2000
0000
3000
0000
M020
0000
0030
0000
00M2
0000
0003
0000
0200
0000
1300
0001
,
1000
0000
0001
0000
0020
0000
0030
0000
20M0
0000
3000
0000
M200
0000
0301
0010
,
0002
0000
0003
0000
020M
0000
0300
0000
2M00
0000
3000
0000
0020
0000
0031
1000
,
0001
0000
1000
0000
0020
0000
0030
0000
00M1
0000
010M
0000
0M10
1000
1000
0001
,
2000
0000
3001
0100
2000
0000
3200
0000
0302
0000
0023
0000
2030
0000
3010
0001
,
1000
0000
0010
0000
0200
0000
0302
0000
0013
0000
0001
0100
2000
0000
3200
0000
,
0302
0000
1003
0010
0002
0000
0023
0000
2030
0000
3200
0000
0302
0000
0103
1000
,
0001
0100
0020
1030
1001
0000
0000
0000
,
0022
0000
0000
0033
2200
0000
0000
3300
,
MMMM
0000
2020
0000
0000
3030
0000
MMMM
2002
0000
0000
0000
0000
0000
3003
0000
,
0202
0000
0000
0303
0022
0000
0000
0033
,
MMMM
0000
2002
0000
0000
3003
0000
MMMM
2200
0000
0000
0000
0000
0000
3300
0000
,
2000
0000
3002
0000
0103
0010
0010
0010
0100
0000
0002
0000
1003
0000
0100
0100
,
1000
0000
0001
0000
0100
0100
0100
0100
0010
0000
2000
0000
3001
0010
MM0M
0010
,
2000
0000
3002
0000
0013
0100
0100
0100
0010
0000
0002
0000
1003
0000
0010
0010
,
2000
0000
0000
0000
3010
0010
0010
0010
0100
0000
0001
0000
1000
0100
M0MM
0100
,
0002
0000
2003
0000
3010
0100
0100
0100
0010
0000
2000
0000
3001
0000
0010
0010
,
0001
0000
1000
0000
0010
0010
0010
0010
0100
0000
0002
0000
1003
0010
MM0M
0010
,
0002
0000
2003
0000
3100
0010
0010
0010
0100
0000
2000
0000
3001
0000
0100
0100
,
0002
0000
0000
0000
0103
0100
0100
0100
0010
0000
1000
0000
0001
0010
MM0M
0010
,
2000
0000
3200
0000
,
0302
0000
0000
0000
0023
0030
1010
1000
,
0002
0000
0000
0000
0000
0000
0103
0000
1000
0000
0100
0000
0001
0000
0000
0001
,
1000
0000
0100
0000
0010
0000
0001
2000
0000
0000
0000
0000
3001
0000
0000
0000
,
1000
0000
0010
0000
0001
0000
0010
2000
0000
0000
3001
0000
0100
0000
0010
0000
,
2000
0000
0000
0002
0000
0000
0000
0000
3003
0000
0000
0000
0000
0000
0000
0000
,
2000
0000
3001
0100
2000
0000
3200
0000
0302
0000
0023
0000
2030
0000
3010
0001
,
1000
0000
0010
0000
0200
0000
0302
0000
0013
0000
0001
0100
2000
0000
3200
0000
,
0302
0000
1003
0010
0002
0000
0023
0000
2030
0000
3200
0000
0302
0000
0103
1000
,
0001
0000
0100
0000
0020
0000
2030
0000
3100
0000
1000
0010
0002
0000
0023
0000
,
2030
0000
3001
0010
2000
0000
3020
0000
0032
0000
0203
0000
2300
0000
3100
0001
,
1000
0000
0100
0000
0020
0000
0032
0000
0103
0000
0001
0010
2000
0000
3020
0000
,
0032
0000
1003
0100
0002
0000
0203
0000
2300
0000
3020
0000
0032
0000
0013
1000
,
0001
0000
0010
0000
0200
0000
2300
0000
3010
0000
1000
0100
0010
0010
0010
0010
;
