#VERSION:0.83;
#TITLE:Toxic;
#SUBTITLE:;
#ARTIST:BoyWithUke;
#TITLETRANSLIT:;
#SUBTITLETRANSLIT:;
#ARTISTTRANSLIT:;
#GENRE:Pop;
#ORIGIN:;
#CREDIT:thomas20080k;
#BANNER:bn.png;
#BACKGROUND:bg.png;
#PREVIEWVID:;
#JACKET:jacket.png;
#CDIMAGE:;
#DISCIMAGE:;
#LYRICSPATH:;
#CDTITLE:cdtitle.png;
#MUSIC:Toxic.mp3;
#OFFSET:-0.125000;
#SAMPLESTART:0.000000;
#SAMPLELENGTH:12.000000;
#SELECTABLE:YES;
#BPMS:0.000=180.037;
#STOPS:;
#DELAYS:;
#WARPS:;
#TIMESIGNATURES:0.000=4=4;
#TICKCOUNTS:0.000=4;
#COMBOS:0.000=1;
#SPEEDS:0.000=1.000=0.000=0;
#SCROLLS:0.000=1.000;
#FAKES:;
#LABELS:0.000=Song Start;
#BGCHANGES:0.000=Toxic.avi=1.000=0=0=0=StretchNoLoop====,
99999=-nosongbg-=1.000=0=0=0 // don't automatically add -songbackground-
;
#KEYSOUNDS:;
#ATTACKS:
;

//---------------dance-single - thomas20080k----------------
#NOTEDATA:;
#CHARTNAME:thomas20080k;
#STEPSTYPE:dance-single;
#DESCRIPTION:thomas20080k;
#CHARTSTYLE:;
#DIFFICULTY:Medium;
#METER:5;
#RADARVALUES:0.325430,0.370995,0.023791,0.005948,0.000000,383.000000,379.000000,4.000000,1.000000,0.000000,0.000000,0.000000,0.000000,0.000000,0.325430,0.370995,0.023791,0.005948,0.000000,383.000000,379.000000,4.000000,1.000000,0.000000,0.000000,0.000000,0.000000,0.000000;
#CREDIT:thomas20080k;
#NOTES:
// measure 0
0000
0000
0000
1000
,  // measure 1
0100
0010
0000
1000
,  // measure 2
0100
0010
0000
1000
,  // measure 3
0100
0010
0000
1000
,  // measure 4
0100
0010
1000
0001
,  // measure 5
1000
0100
0000
1000
,  // measure 6
0100
0001
0000
1000
,  // measure 7
0100
0001
0000
1000
,  // measure 8
0010
0100
0010
1000
,  // measure 9
0001
0100
0010
1000
,  // measure 10
0001
0110
1000
0001
,  // measure 11
0100
0010
1000
0001
,  // measure 12
0100
0010
1000
0001
,  // measure 13
0100
0010
1000
0001
,  // measure 14
0100
0010
0001
1000
,  // measure 15
0010
0100
0001
1000
,  // measure 16
0100
0010
0010
1000
,  // measure 17
0001
1000
0010
1000
,  // measure 18
0001
1000
0010
1000
,  // measure 19
0100
0001
1000
0010
,  // measure 20
0100
0001
1000
0010
,  // measure 21
0100
0001
1000
0010
,  // measure 22
0100
0001
1000
0010
,  // measure 23
0100
0001
1000
0010
,  // measure 24
0100
0001
1000
1000
,  // measure 25
0100
0001
0000
0000
,  // measure 26
0000
0000
0000
1000
,  // measure 27
0100
0010
0000
0000
,  // measure 28
0000
0000
0000
1000
,  // measure 29
0100
0001
0000
0000
,  // measure 30
0000
0000
0000
1000
,  // measure 31
0100
0001
0000
1000
,  // measure 32
0100
0001
1000
0001
,  // measure 33
1000
0100
0000
0000
,  // measure 34
0000
0000
0000
1000
,  // measure 35
0100
0001
0000
0000
,  // measure 36
0000
0000
0000
1000
,  // measure 37
0100
0001
0000
0000
,  // measure 38
0000
0000
0000
1000
,  // measure 39
0100
0001
0000
1000
,  // measure 40
0100
0010
0001
1000
,  // measure 41
0100
0001
0000
0000
,  // measure 42
0000
0000
0000
1000
,  // measure 43
0100
0001
0000
0000
,  // measure 44
0000
0000
0000
1000
,  // measure 45
0100
0010
0000
0000
,  // measure 46
0000
0000
0000
1000
,  // measure 47
0100
0001
0000
1000
,  // measure 48
0100
0001
1000
0001
,  // measure 49
1000
0100
0000
0000
,  // measure 50
0000
0000
0000
1000
,  // measure 51
0100
0010
0000
0000
,  // measure 52
0000
0000
0000
1000
,  // measure 53
0100
0001
0000
0000
,  // measure 54
0000
0000
0000
1000
,  // measure 55
0100
0010
0000
1000
,  // measure 56
0001
0100
0010
1000
,  // measure 57
0001
0100
0010
1001
,  // measure 58
0100
0010
1000
0001
,  // measure 59
0100
0010
0001
1000
,  // measure 60
0010
0100
0001
1000
,  // measure 61
0010
0100
0001
1000
,  // measure 62
0010
0100
0001
1000
,  // measure 63
0010
0100
0001
1000
,  // measure 64
0100
0010
0001
1000
,  // measure 65
0010
0100
0001
1000
,  // measure 66
0010
0100
0001
1000
,  // measure 67
1001
0001
0001
1000
,  // measure 68
0010
0100
0001
1000
,  // measure 69
0010
0100
0001
1000
,  // measure 70
0010
0100
0001
1000
,  // measure 71
0010
0100
0001
1000
,  // measure 72
0100
0010
0001
1000
,  // measure 73
0100
0010
0000
0000
,  // measure 74
0000
0000
0000
1000
,  // measure 75
0100
0010
0000
0000
,  // measure 76
0000
0000
0000
1000
,  // measure 77
0100
0001
0000
0000
,  // measure 78
0000
0000
0000
1000
,  // measure 79
0100
0010
0000
1000
,  // measure 80
0100
0001
1000
0100
,  // measure 81
0010
0001
0000
0000
,  // measure 82
0000
0000
0000
1000
,  // measure 83
0100
0011
0000
0000
,  // measure 84
0000
0000
0000
1000
,  // measure 85
0100
0001
0000
0000
,  // measure 86
0000
0000
0000
1000
,  // measure 87
0100
0010
0000
0001
,  // measure 88
1000
0100
0010
0000
,  // measure 89
0000
0000
0000
0000
,  // measure 90
0000
0000
0000
1000
,  // measure 91
0100
0010
0001
1000
,  // measure 92
0100
0010
0001
1000
,  // measure 93
0100
0010
0001
1000
,  // measure 94
0100
0010
0001
1000
,  // measure 95
0100
0010
0001
1000
,  // measure 96
0100
0010
0001
1000
,  // measure 97
0100
0010
0001
1000
,  // measure 98
0100
0010
0001
1000
,  // measure 99
0010
0100
0001
1000
,  // measure 100
0010
0100
0001
1000
,  // measure 101
0010
0100
0001
1000
,  // measure 102
0010
0100
0001
1000
,  // measure 103
0010
0100
0001
1000
,  // measure 104
0010
0100
0001
1000
,  // measure 105
0100
0010
0001
1000
,  // measure 106
0100
0010
0001
1000
,  // measure 107
0100
0010
0001
1000
,  // measure 108
0100
0010
0001
1000
,  // measure 109
0100
0010
0001
1000
,  // measure 110
0100
0010
0001
0100
,  // measure 111
1000
0010
0100
0001
,  // measure 112
1000
0100
0010
0001
,  // measure 113
1000
0100
0010
0001
,  // measure 114
1000
0100
0010
0001
,  // measure 115
1000
0100
0010
0001
,  // measure 116
1000
0100
0010
0001
,  // measure 117
1000
0100
0010
0001
,  // measure 118
1000
0100
0010
0001
,  // measure 119
1000
0100
0010
0001
,  // measure 120
1000
0100
0010
0001
,  // measure 121
1000
0100
0010
0001
,  // measure 122
1000
0100
0010
2000
,  // measure 123
0000
0000
0000
0000
,  // measure 124
0000
0000
0000
3000
;
