#TITLE:Sugar Rush;
#SUBTITLE:;
#ARTIST:Akb48;
#TITLETRANSLIT:;
#SUBTITLETRANSLIT:;
#ARTISTTRANSLIT:;
#GENRE:J-pop;
#CREDIT:thomas20080k;
#BANNER:banner.png;
#BACKGROUND:background.png;
#LYRICSPATH:;
#CDTITLE:cdtitle.png;
#MUSIC:Akb48 - Sugar Rush.mp3;
#OFFSET:-0.236000;
#SAMPLESTART:27.299999;
#SAMPLELENGTH:16.000000;
#SELECTABLE:YES;
#BPMS:0.000000=175.000000
;
#STOPS:
;
#BGCHANGES:0.000=Akb48 - Sugar Rush.avi=1.000=0=0=0=StretchNoLoop====,
99999=-nosongbg-=1.000=0=0=0 // don't automatically add -songbackground-
;
#KEYSOUNDS:;
#ATTACKS:;

//---------------dance-single - ----------------
#NOTES:
     dance-single:
     :
     Medium:
     1:
     0.229579,0.481496,0.413124,0.218956,0.000000,389.000000,287.000000,100.000000,53.000000,0.000000,4.000000,0.229579,0.481496,0.413124,0.218956,0.000000,389.000000,287.000000,100.000000,53.000000,0.000000,4.000000:
// measure 0
0000
0000
0000
0000
,  // measure 1
0000
0000
0000
0000
,  // measure 2
0000
0000
0000
0000
,  // measure 3
0000
0000
0000
0000
,  // measure 4
0000
0000
0000
0000
,  // measure 5
0000
0000
0000
0000
,  // measure 6
0000
0000
0000
0000
,  // measure 7
0000
0000
0000
0000
,  // measure 8
0000
0000
0000
0000
,  // measure 9
0000
0000
0000
0000
,  // measure 10
0000
0000
0000
0000
,  // measure 11
0000
0000
0000
0000
,  // measure 12
0000
0000
0000
0000
,  // measure 13
0000
0000
0000
0000
,  // measure 14
0000
0000
0000
0000
,  // measure 15
0000
0000
0000
0000
,  // measure 16
0000
0000
0000
0000
,  // measure 17
0000
0000
0000
0000
,  // measure 18
0000
0000
0000
0000
,  // measure 19
0000
0000
0000
0000
,  // measure 20
0000
0000
0000
0000
,  // measure 21
0000
0000
0000
0000
,  // measure 22
0000
0000
0000
0000
,  // measure 23
0000
0000
0000
0000
,  // measure 24
0000
0000
0000
0000
,  // measure 25
0000
1100
0010
0101
,  // measure 26
1000
0012
0000
0000
,  // measure 27
0000
0000
0003
1000
,  // measure 28
0100
0011
1100
0010
,  // measure 29
0001
1000
0000
0110
,  // measure 30
0002
0000
1003
0100
,  // measure 31
0011
0100
1012
0000
,  // measure 32
0000
0000
0003
0000
,  // measure 33
1000
0100
0011
0100
,  // measure 34
1010
0001
1000
0000
,  // measure 35
0110
0002
0000
1003
,  // measure 36
0100
0010
0101
1000
,  // measure 37
0010
0001
1100
0010
,  // measure 38
0001
0000
1000
0110
,  // measure 39
0101
1000
0010
0101
,  // measure 40
0000
1000
0010
0002
,  // measure 41
0003
1000
0100
0010
,  // measure 42
0101
1010
0002
0000
,  // measure 43
0000
0003
1000
0000
,  // measure 44
0100
0020
0000
0000
,  // measure 45
0000
0030
0000
0000
,  // measure 46
0000
0000
1100
0010
,  // measure 47
0101
1010
0001
1000
,  // measure 48
0100
0000
0010
1001
,  // measure 49
0100
0011
0100
1000
,  // measure 50
0011
0100
1011
0000
,  // measure 51
0000
1000
0100
0010
,  // measure 52
0001
0000
0000
1000
,  // measure 53
0100
0000
0010
0001
,  // measure 54
1000
0110
0001
1100
,  // measure 55
0011
0100
1000
0010
,  // measure 56
0001
0000
1000
0000
,  // measure 57
0100
0011
0000
0000
,  // measure 58
1000
0000
0100
1000
,  // measure 59
0010
0101
0000
1000
,  // measure 60
0000
0010
0100
0001
,  // measure 61
0100
0000
1000
0100
,  // measure 62
0011
1000
0000
0001
,  // measure 63
0000
0000
0000
1000
,  // measure 64
0110
0001
1100
0012
,  // measure 65
0000
0000
0000
0003
,  // measure 66
0000
1000
0100
0011
,  // measure 67
0100
1000
0000
0012
,  // measure 68
0000
0000
0000
0003
,  // measure 69
1100
0010
0101
1010
,  // measure 70
0002
0000
0000
0000
,  // measure 71
0003
0000
1000
0100
,  // measure 72
0011
0100
1010
0002
,  // measure 73
0000
0000
0000
0000
,  // measure 74
0003
1100
0010
0101
,  // measure 75
1000
0100
0012
0000
,  // measure 76
0000
0000
0003
0000
,  // measure 77
1100
0010
0101
1000
,  // measure 78
0010
0101
1000
0012
,  // measure 79
0000
0000
1003
0100
,  // measure 80
0011
0100
1010
0002
,  // measure 81
0000
0000
0003
0000
,  // measure 82
1000
0100
0000
0020
,  // measure 83
0000
0000
0000
0030
,  // measure 84
0000
0000
0000
0000
,  // measure 85
0000
0000
0000
0000
,  // measure 86
1000
0100
0011
0100
,  // measure 87
1000
0100
0011
0100
,  // measure 88
1010
0002
0000
0000
,  // measure 89
0000
0003
0000
2002
,  // measure 90
0000
0000
0000
0000
,  // measure 91
3003
0220
0000
0000
,  // measure 92
0000
0330
2002
0000
,  // measure 93
0000
0000
0000
0000
,  // measure 94
0000
0000
3000
0003
,  // measure 95
0220
0000
0000
0000
,  // measure 96
0000
0330
1000
0100
,  // measure 97
0000
0010
0101
1010
,  // measure 98
0001
0000
1000
0100
,  // measure 99
0010
0001
1100
0010
,  // measure 100
0001
1000
0110
0101
,  // measure 101
1000
0011
0000
0000
,  // measure 102
1000
0100
0011
0100
,  // measure 103
1010
0001
0000
0000
,  // measure 104
0000
0000
0000
1000
,  // measure 105
0110
0001
1000
0100
,  // measure 106
0010
0101
1000
0010
,  // measure 107
0002
0000
0000
0000
,  // measure 108
0000
0000
0000
0000
,  // measure 109
0000
0000
0000
0000
,  // measure 110
0000
0000
0000
0000
,  // measure 111
0000
0003
0000
0000
,  // measure 112
0000
0000
0000
0000
,  // measure 113
0000
0000
0000
0000
,  // measure 114
0000
0000
0000
0000
,  // measure 115
0000
0000
0000
0000
,  // measure 116
0000
0000
0000
0000
,  // measure 117
0000
0000
0000
0000
,  // measure 118
0000
0000
0000
0000
,  // measure 119
0000
0000
0000
0000
,  // measure 120
0000
0000
0000
0000
,  // measure 121
0000
0000
0000
0000
,  // measure 122
0000
0000
0000
0000
,  // measure 123
1000
1000
0100
0010
,  // measure 124
0001
1000
0110
0001
,  // measure 125
1100
0011
0100
1000
,  // measure 126
0010
0001
0000
2002
,  // measure 127
0000
0000
0000
0000
,  // measure 128
3003
1000
0000
0100
,  // measure 129
0010
0001
1000
0100
,  // measure 130
0011
0100
1010
0002
,  // measure 131
0000
0000
0000
0000
,  // measure 132
0003
2200
0000
0000
,  // measure 133
0000
0000
3301
0000
,  // measure 134
1000
0110
0001
0000
,  // measure 135
1100
0011
0100
1010
,  // measure 136
0002
0000
0000
0000
,  // measure 137
0000
0003
1000
0120
,  // measure 138
0000
0000
0030
0000
,  // measure 139
1000
0100
0010
0000
,  // measure 140
0001
1000
0110
0001
,  // measure 141
1100
0012
0000
0000
,  // measure 142
0000
0000
0003
0220
,  // measure 143
0000
0000
0000
0000
,  // measure 144
0330
1000
0100
0010
,  // measure 145
0000
0001
1000
0110
,  // measure 146
0001
1100
0010
0002
,  // measure 147
0000
0000
0000
0003
,  // measure 148
2002
0000
0000
0000
,  // measure 149
0000
3003
0220
0000
,  // measure 150
0000
0000
0000
0330
,  // measure 151
2002
0000
0000
0000
,  // measure 152
3003
0220
0000
0000
,  // measure 153
0000
0330
2002
0000
,  // measure 154
0000
0000
0000
3003
,  // measure 155
1100
0010
0001
0000
,  // measure 156
0000
0100
1000
0100
,  // measure 157
0010
0001
1100
0010
,  // measure 158
0101
1000
0012
0000
,  // measure 159
0000
0000
0000
0003
,  // measure 160
2002
0000
0000
0000
,  // measure 161
0000
3003
0100
0010
,  // measure 162
0100
0000
0010
1000
,  // measure 163
0110
0001
1100
0011
,  // measure 164
2002
0000
0000
0000
,  // measure 165
0000
3223
0000
0000
,  // measure 166
0000
0000
0330
0000
;
