#VERSION:0.83;
#TITLE:桜;
#SUBTITLE:;
#ARTIST:ODD MAMI;
#TITLETRANSLIT:SAKURA;
#SUBTITLETRANSLIT:;
#ARTISTTRANSLIT:;
#GENRE:HIP-HOP/RAP;
#ORIGIN:;
#CREDIT:thomas20080k;
#BANNER:banner.png;
#BACKGROUND:background.png;
#PREVIEWVID:;
#JACKET:;
#CDIMAGE:;
#DISCIMAGE:;
#LYRICSPATH:;
#CDTITLE:cdtitle.png;
#MUSIC:ODD MAMI SAKURA.mp3;
#OFFSET:-0.236000;
#SAMPLESTART:27.299999;
#SAMPLELENGTH:16.000000;
#SELECTABLE:YES;
#BPMS:0.000=175.000;
#STOPS:;
#DELAYS:;
#WARPS:;
#TIMESIGNATURES:0.000=4=4;
#TICKCOUNTS:0.000=4;
#COMBOS:0.000=1;
#SPEEDS:0.000=1.000=0.000=0;
#SCROLLS:0.000=1.000;
#FAKES:;
#LABELS:0.000=Song Start;
#BGCHANGES:0.000=ODD MAMI SAKURA.avi=1.000=0=0=0=StretchNoLoop====,
99999=-nosongbg-=1.000=0=0=0 // don't automatically add -songbackground-
;
#KEYSOUNDS:;
#ATTACKS:
;

//---------------dance-single - thomas20080k----------------
#NOTEDATA:;
#CHARTNAME:sakura;
#STEPSTYPE:dance-single;
#DESCRIPTION:thomas20080k;
#CHARTSTYLE:;
#DIFFICULTY:Medium;
#METER:1;
#RADARVALUES:0.533881,0.607289,1.233902,0.007091,0.000000,527.000000,345.000000,174.000000,1.000000,0.000000,8.000000,0.000000,0.000000,0.000000,0.533881,0.607289,1.233902,0.007091,0.000000,527.000000,345.000000,174.000000,1.000000,0.000000,8.000000,0.000000,0.000000,0.000000;
#CREDIT:thomas20080k;
#NOTES:
// measure 0
0000
0000
0000
0000
,  // measure 1
0000
1000
0100
0011
,  // measure 2
1100
0011
0100
1010
,  // measure 3
0001
0000
1000
0110
,  // measure 4
0101
1010
0001
1100
,  // measure 5
0011
0000
0000
1000
,  // measure 6
0110
0101
1010
0001
,  // measure 7
1100
0010
0001
0000
,  // measure 8
1000
0100
0011
1100
,  // measure 9
0011
0100
1010
0001
,  // measure 10
0000
1000
0100
0011
,  // measure 11
1100
0010
0101
1000
,  // measure 12
0011
0000
0000
1100
,  // measure 13
0010
0101
1010
0101
,  // measure 14
1010
0001
0000
0000
,  // measure 15
1100
0011
1100
0010
,  // measure 16
0101
1010
0001
0000
,  // measure 17
0000
1100
0010
0101
,  // measure 18
1010
0001
1100
0011
,  // measure 19
0000
0000
0000
0000
,  // measure 20
1000
0100
0010
0001
,  // measure 21
1000
0110
0001
1100
,  // measure 22
0011
0000
1100
0011
,  // measure 23
0000
1100
0010
0101
,  // measure 24
1010
0001
1000
0100
,  // measure 25
0011
1100
0000
0011
,  // measure 26
1000
0110
0001
1000
,  // measure 27
0110
0101
1010
0101
,  // measure 28
1000
0011
1110
1001
,  // measure 29
0100
0011
1100
0010
,  // measure 30
0101
1010
0002
0000
,  // measure 31
0003
1100
0010
0101
,  // measure 32
1010
0101
1010
0001
,  // measure 33
0000
1000
0110
0101
,  // measure 34
1000
0011
1100
0011
,  // measure 35
1110
0001
1000
0100
,  // measure 36
0011
1110
0001
1100
,  // measure 37
0010
0101
1010
0000
,  // measure 38
0001
1000
0100
0010
,  // measure 39
0001
1000
0100
0010
,  // measure 40
0000
0001
1000
0100
,  // measure 41
0010
0001
1000
0100
,  // measure 42
0010
0001
0000
1000
,  // measure 43
0100
0010
0001
1000
,  // measure 44
0100
0000
0010
0001
,  // measure 45
1000
0110
0001
1000
,  // measure 46
0100
0011
1100
0011
,  // measure 47
1000
0110
0001
1100
,  // measure 48
0011
1100
0011
0000
,  // measure 49
1100
0010
0101
1010
,  // measure 50
0001
1100
0011
0000
,  // measure 51
0000
1100
0011
1100
,  // measure 52
0011
1000
0100
0011
,  // measure 53
0000
0000
1100
0011
,  // measure 54
0100
1010
0101
1010
,  // measure 55
0101
1011
0000
1000
,  // measure 56
0100
0011
1100
0011
,  // measure 57
1100
0010
0001
0000
,  // measure 58
1100
0011
1100
0011
,  // measure 59
1100
0011
1100
0011
,  // measure 60
0000
1000
0100
0011
,  // measure 61
1110
0001
1110
0001
,  // measure 62
1110
0001
0000
1100
,  // measure 63
0010
1001
0110
0101
,  // measure 64
1000
0011
0000
0000
,  // measure 65
0000
1000
0100
0010
,  // measure 66
0001
1000
0100
0010
,  // measure 67
0001
0000
1000
0100
,  // measure 68
0010
0001
1000
0100
,  // measure 69
0010
0100
1000
0001
,  // measure 70
1000
0100
0010
0001
,  // measure 71
1000
0110
0001
0000
,  // measure 72
1000
0100
0011
1000
,  // measure 73
0100
0010
0101
1010
,  // measure 74
0001
1000
0100
0010
,  // measure 75
0001
1100
0011
0100
,  // measure 76
0000
0000
1100
0010
,  // measure 77
0001
1100
0010
0001
,  // measure 78
0000
0000
1000
0100
,  // measure 79
0011
1100
0011
1100
,  // measure 80
0011
0100
1000
0001
,  // measure 81
1100
0010
0101
1010
,  // measure 82
0101
1000
0011
0000
,  // measure 83
1000
0100
0011
1100
,  // measure 84
0010
0101
1010
0001
,  // measure 85
0000
1000
0100
0011
,  // measure 86
1100
0011
0100
1010
,  // measure 87
0001
0000
1000
0110
,  // measure 88
0101
1000
0011
0100
,  // measure 89
1010
0001
0000
1000
,  // measure 90
0100
0011
0100
1010
,  // measure 91
0101
1000
0011
0000
,  // measure 92
0000
1100
0011
0100
,  // measure 93
1011
1000
0110
0001
,  // measure 94
0000
0000
1100
1000
,  // measure 95
0011
0100
1010
0101
,  // measure 96
1010
0001
0000
1100
,  // measure 97
0010
0101
1010
0001
,  // measure 98
1100
0011
0000
0000
,  // measure 99
1000
0110
0001
1100
,  // measure 100
0011
1100
0010
0001
;
