#TITLE:PEPSI BLACK;
#SUBTITLE:;
#ARTIST:GameSquare;
#TITLETRANSLIT:;
#SUBTITLETRANSLIT:;
#ARTISTTRANSLIT:;
#GENRE:PEPSI;
#CREDIT:thomas20080k;
#BANNER:banner.png;
#BACKGROUND:backgroundpng.png;
#LYRICSPATH:;
#CDTITLE:cdtitle.png;
#MUSIC:PEPSI BLACK.mp3;
#OFFSET:-0.236000;
#SAMPLESTART:27.299999;
#SAMPLELENGTH:16.000000;
#SELECTABLE:YES;
#BPMS:0.000000=175.000000
;
#STOPS:
;
#BGCHANGES:0.000=PEPSI BLACK.avi=1.000=0=0=0=StretchNoLoop====,
99999=-nosongbg-=1.000=0=0=0 // don't automatically add -songbackground-
;
#KEYSOUNDS:;
#ATTACKS:;

//---------------dance-single - ----------------
#NOTES:
     dance-single:
     :
     Medium:
     1:
     0.330230,0.307339,0.000000,0.000000,0.000000,132.000000,132.000000,0.000000,0.000000,0.000000,0.000000,0.330230,0.307339,0.000000,0.000000,0.000000,132.000000,132.000000,0.000000,0.000000,0.000000,0.000000:
// measure 0
1000
0100
0000
0010
,  // measure 1
0001
0100
0010
0000
,  // measure 2
0001
0100
0010
0001
,  // measure 3
1000
0100
0000
0010
,  // measure 4
0001
0100
1000
0000
,  // measure 5
0010
0001
1000
0100
,  // measure 6
0000
0010
0001
0100
,  // measure 7
0010
0001
0000
1000
,  // measure 8
0100
0010
0001
0100
,  // measure 9
0000
1000
0010
0001
,  // measure 10
0100
0000
1000
0010
,  // measure 11
0100
0010
0001
0100
,  // measure 12
0000
1000
0100
0010
,  // measure 13
0001
0000
0100
1000
,  // measure 14
0010
0001
0000
0100
,  // measure 15
0010
0001
0100
0000
,  // measure 16
0010
0001
0100
0010
,  // measure 17
0001
0000
0100
0010
,  // measure 18
0001
1000
0100
0010
,  // measure 19
0000
0001
0100
1000
,  // measure 20
0100
0000
0010
0001
,  // measure 21
0100
0010
0001
1000
,  // measure 22
0000
0100
0010
0001
,  // measure 23
0100
1000
0000
0010
,  // measure 24
0001
0100
0010
0000
,  // measure 25
0100
0010
0001
1000
,  // measure 26
0100
0010
0001
0100
,  // measure 27
0010
0001
0000
0100
,  // measure 28
1000
0010
0001
0100
,  // measure 29
0010
0000
0001
1000
,  // measure 30
0100
0010
0001
0100
,  // measure 31
1000
0000
0010
0001
,  // measure 32
0100
1000
0100
0010
,  // measure 33
0001
0000
0100
1000
,  // measure 34
0010
0000
0001
0100
,  // measure 35
1000
0100
0010
0001
,  // measure 36
0000
0100
1000
0010
,  // measure 37
0001
0100
1000
0010
,  // measure 38
0001
0100
0000
1000
,  // measure 39
0010
0000
0000
0000
;
