#VERSION:0.83;
#TITLE:Infectados;
#SUBTITLE:;
#ARTIST:Elbra93;
#TITLETRANSLIT:;
#SUBTITLETRANSLIT:;
#ARTISTTRANSLIT:;
#GENRE:Rap Play;
#ORIGIN:;
#CREDIT:thomas20080k;
#BANNER:banner.png;
#BACKGROUND:background.png;
#PREVIEWVID:;
#JACKET:jacket.png;
#CDIMAGE:;
#DISCIMAGE:;
#LYRICSPATH:;
#CDTITLE:cdtitle.png;
#MUSIC:Left 4 Dead 2 Rap - Infectados.mp3;
#OFFSET:-0.236000;
#SAMPLESTART:27.299999;
#SAMPLELENGTH:16.000000;
#SELECTABLE:YES;
#BPMS:0.000=175.000;
#STOPS:;
#DELAYS:;
#WARPS:;
#TIMESIGNATURES:0.000=4=4;
#TICKCOUNTS:0.000=4;
#COMBOS:0.000=1;
#SPEEDS:0.000=1.000=0.000=0;
#SCROLLS:0.000=1.000;
#FAKES:;
#LABELS:0.000=Song Start;
#BGCHANGES:0.000=Left 4 Dead 2 Rap - Infectados.avi=1.000=0=0=0=StretchNoLoop====,
99999=-nosongbg-=1.000=0=0=0 // don't automatically add -songbackground-
;
#KEYSOUNDS:;
#ATTACKS:
;

//---------------dance-single - ----------------
#NOTEDATA:;
#CHARTNAME:;
#STEPSTYPE:dance-single;
#DESCRIPTION:;
#CHARTSTYLE:;
#DIFFICULTY:Medium;
#METER:1;
#RADARVALUES:0.689811,0.816010,1.972527,0.044627,0.000000,541.000000,248.000000,221.000000,5.000000,0.000000,71.000000,0.000000,0.000000,0.000000,0.689811,0.816010,1.972527,0.044627,0.000000,541.000000,248.000000,221.000000,5.000000,0.000000,71.000000,0.000000,0.000000,0.000000;
#CREDIT:thomas20080k;
#NOTES:
// measure 0
0000
0000
0000
0000
,  // measure 1
0000
0000
0000
0000
,  // measure 2
0000
0000
0000
0000
,  // measure 3
0000
0000
0000
0000
,  // measure 4
0000
0000
0000
0000
,  // measure 5
0000
0000
0000
0000
,  // measure 6
0000
0000
0000
0000
,  // measure 7
0000
0000
0000
0000
,  // measure 8
0000
1000
0110
0101
,  // measure 9
1010
0101
1010
0101
,  // measure 10
1011
1110
0101
1010
,  // measure 11
1101
0011
1100
0111
,  // measure 12
1011
1110
1001
0011
,  // measure 13
1100
0111
1010
0101
,  // measure 14
1010
1101
0011
1010
,  // measure 15
0101
1011
1100
0111
,  // measure 16
1010
1101
0011
1110
,  // measure 17
1101
0011
1100
0111
,  // measure 18
1010
1101
0012
0000
,  // measure 19
0000
1003
0110
0101
,  // measure 20
1011
1100
0111
1010
,  // measure 21
2001
0000
3100
0010
,  // measure 22
0101
1011
1100
0111
,  // measure 23
1010
0002
0003
1011
,  // measure 24
1100
0011
1110
0101
,  // measure 25
1011
1100
0011
1000
,  // measure 26
0000
1100
0011
1100
,  // measure 27
0111
1010
0101
1011
,  // measure 28
1110
0001
1100
0111
,  // measure 29
1010
0101
1011
1100
,  // measure 30
0011
1000
0000
1110
,  // measure 31
0101
1011
1110
1101
,  // measure 32
0111
1010
1001
0000
,  // measure 33
1110
0101
1010
0101
,  // measure 34
1010
0101
1010
0001
,  // measure 35
1000
0110
1101
0011
,  // measure 36
1100
0111
1010
1101
,  // measure 37
0000
0111
1010
0101
,  // measure 38
1010
1101
0111
1010
,  // measure 39
1001
0010
0101
1010
,  // measure 40
0101
1011
1100
0111
,  // measure 41
1010
0001
1100
0011
,  // measure 42
1110
0101
1010
0101
,  // measure 43
1011
1110
1001
0010
,  // measure 44
0101
1010
1101
0011
,  // measure 45
1100
0011
1110
0001
,  // measure 46
1100
0111
1010
0101
,  // measure 47
1011
1100
0011
0000
,  // measure 48
0000
1100
0111
1010
,  // measure 49
0101
1011
1100
1111
,  // measure 50
0011
1000
0111
1010
,  // measure 51
0101
1011
1100
0011
,  // measure 52
1100
0000
0101
1010
,  // measure 53
0101
1010
1101
0011
,  // measure 54
1100
0011
1000
0111
,  // measure 55
1010
0101
1011
1100
,  // measure 56
0011
1100
0011
1100
,  // measure 57
0111
1000
0111
1010
,  // measure 58
0101
1011
1100
0011
,  // measure 59
0000
1100
0011
1100
,  // measure 60
0111
1010
0101
1010
,  // measure 61
0001
1100
0101
1010
,  // measure 62
1101
0011
1110
0101
,  // measure 63
1011
1100
0010
1101
,  // measure 64
0011
1100
0111
1010
,  // measure 65
1101
0011
0010
1010
,  // measure 66
0101
1011
1100
0011
,  // measure 67
1110
0101
1011
0100
,  // measure 68
1010
0101
1011
1100
,  // measure 69
0011
1100
0012
0000
,  // measure 70
0003
0000
0000
0000
,  // measure 71
0000
1100
0010
1101
,  // measure 72
0011
0000
0000
0000
,  // measure 73
1100
0011
0100
1010
,  // measure 74
0001
0000
0000
0000
,  // measure 75
0000
0000
1000
0110
,  // measure 76
0101
1000
0000
0000
,  // measure 77
0000
0000
0000
0002
,  // measure 78
0000
0000
0000
0000
,  // measure 79
0000
0000
0003
0000
;
