#TITLE:A Casa Pete;
#SUBTITLE:;
#ARTIST:Spreen;
#TITLETRANSLIT:;
#SUBTITLETRANSLIT:;
#ARTISTTRANSLIT:;
#GENRE:Hip-hop/rap;
#CREDIT:thomas20080k;
#MUSIC:A Casa Pete.mp3;
#BANNER:bn.png;
#BACKGROUND:bg.jpg;
#CDTITLE:cdtitle.png;
#SAMPLESTART:0.000;
#SAMPLELENGTH:0.000;
#SELECTABLE:YES;
#OFFSET:-0.057;
#BPMS:0.000=140.000;
#STOPS:;
#BGCHANGES:A Casa Pete.avi;
#FGCHANGES:;

//--------------- dance-single - ----------------
#NOTES:
     dance-single:
     :
     Hard:
     6:
     0,0,0,0,0:
1000
0100
0000
0000
,
1000
0100
0000
0000
,
1000
0100
0000
0000
,
1000
0001
1000
0001
,
1000
0001
0000
0000
,
1000
0010
0000
0000
,
1000
0100
0000
0000
,
1000
0001
1000
0001
,
1000
0100
0000
0000
,
1000
0100
0000
0000
,
1000
0100
0000
0000
,
1000
0001
1000
0001
,
1000
0001
0000
0000
,
1000
0001
0000
0000
,
1000
0001
0000
0000
,
0000
0000
0000
0000
,
1000
0100
0000
0000
,
1000
0100
0000
0000
,
1000
0100
0000
0000
,
1000
0001
1000
0001
,
1000
0100
0000
0000
,
1000
0010
0000
0000
,
0000
0000
0000
0000
,
0000
0000
0000
0000
,
1000
0100
0000
0000
,
1000
0100
0000
0000
,
1000
0001
0000
0000
,
1000
0100
0010
0001
,
1000
0100
0000
0000
,
1000
0001
0000
0000
,
1000
0010
0000
0000
,
0000
0000
0000
0000
,
1000
0001
0000
0000
,
1000
0001
0000
0000
,
1000
0001
0000
0000
,
1000
0010
0100
0001
,
1000
0100
0000
0000
,
1000
0001
0000
0000
,
1000
0010
0000
0000
,
1000
0100
0001
1000
;
