#TITLE:Prisencolinensinainciusol;
#SUBTITLE:;
#ARTIST:Adriano Celentano;
#TITLETRANSLIT:;
#SUBTITLETRANSLIT:;
#ARTISTTRANSLIT:;
#GENRE:Funk;
#CREDIT:;
#BANNER:Prisencolinensinainciusol.png;
#BACKGROUND:Prisencolinensinainciusol.png;
#LYRICSPATH:;
#CDTITLE:;
#MUSIC:Prisencolinensinainciusol.ogg;
#OFFSET:0.120000;
#SAMPLESTART:100.179230;
#SAMPLELENGTH:12.000000;
#SELECTABLE:YES;
#BPMS:0.000000=106.779999
;
#STOPS:
;
#BGCHANGES:;
#KEYSOUNDS:;
#ATTACKS:;

//---------------dance-single - ----------------
#NOTES:
     dance-single:
     :
     Easy:
     3:
     0.159687,0.221466,0.167672,0.072658,0.000000,200.000000,170.000000,30.000000,13.000000,0.000000,0.000000,0.159687,0.221466,0.167672,0.072658,0.000000,200.000000,170.000000,30.000000,13.000000,0.000000,0.000000:
// measure 0
0000
0000
0000
0000
,  // measure 1
0000
0000
1000
0000
,  // measure 2
0000
0000
1000
1000
,  // measure 3
0000
0000
0001
0001
,  // measure 4
0000
0000
0010
0010
,  // measure 5
0000
0000
0100
0100
,  // measure 6
0000
0000
0010
0010
,  // measure 7
0000
0000
1000
1000
,  // measure 8
0000
0000
0010
0010
,  // measure 9
0000
0000
1001
0100
,  // measure 10
0000
0000
0100
0100
,  // measure 11
0000
0000
1000
1000
,  // measure 12
0000
0000
0001
0001
,  // measure 13
0000
0000
0110
0100
,  // measure 14
0000
0000
1001
1000
,  // measure 15
0000
0000
1001
0001
,  // measure 16
0000
0000
0100
1100
,  // measure 17
0000
0000
0011
0010
,  // measure 18
0000
0000
0100
1000
,  // measure 19
0100
0000
0100
1000
,  // measure 20
0100
0000
0010
0100
,  // measure 21
0010
0000
0010
0100
,  // measure 22
0010
0000
0001
0010
,  // measure 23
0001
0000
0001
0010
,  // measure 24
0001
0000
0100
0010
,  // measure 25
0001
0010
0100
1000
,  // measure 26
0100
0010
0001
0000
,  // measure 27
0000
0000
1000
0100
,  // measure 28
0010
0001
0001
0010
,  // measure 29
0100
1000
1000
0000
,  // measure 30
0000
0000
0001
0001
,  // measure 31
0000
0000
1000
1000
,  // measure 32
0000
0000
1001
0000
,  // measure 33
0110
0000
1001
0000
,  // measure 34
0110
0000
1001
0000
,  // measure 35
0110
0000
1001
0000
,  // measure 36
0110
0000
1001
0000
,  // measure 37
0000
0100
0100
0010
,  // measure 38
0010
0100
0100
0010
,  // measure 39
0010
0000
0100
0000
,  // measure 40
0000
0200
1300
0000
,  // measure 41
0000
0200
0301
0000
,  // measure 42
0000
0200
1300
0000
,  // measure 43
0000
0200
0301
0000
,  // measure 44
0110
0110
0000
1000
,  // measure 45
0100
0001
0100
0000
,  // measure 46
0000
0010
0110
0000
,  // measure 47
0000
0100
0110
0000
,  // measure 48
0000
1000
1001
0000
,  // measure 49
0000
0001
1001
0000
,  // measure 50
0000
1000
0100
0000
,  // measure 51
0000
0001
0010
0000
,  // measure 52
0000
0100
0010
0000
,  // measure 53
0000
0000
2002
0000
,  // measure 54
3003
0000
0100
0100
,  // measure 55
0000
0000
0010
0010
,  // measure 56
0000
0000
0001
0001
,  // measure 57
0000
1000
1000
0000
,  // measure 58
0000
0001
0001
0000
,  // measure 59
0000
0000
0110
0000
,  // measure 60
0100
0000
0110
0000
,  // measure 61
0010
0000
1001
0000
,  // measure 62
0000
1000
1000
0000
,  // measure 63
0000
0010
0010
0000
,  // measure 64
0000
0100
0100
0000
,  // measure 65
0000
0110
0110
0000
,  // measure 66
0000
2000
0000
3001
,  // measure 67
0000
0200
0000
0310
,  // measure 68
0000
0200
0000
0310
,  // measure 69
0000
0000
0000
0000
,  // measure 70
0000
1000
1000
0001
,  // measure 71
0000
0010
0010
0100
,  // measure 72
0000
0100
0100
0001
,  // measure 73
0000
0001
0001
0010
,  // measure 74
0000
1000
1000
0100
,  // measure 75
0000
0010
0010
1000
,  // measure 76
0000
0220
0330
0000
,  // measure 77
0000
0110
0000
0000
,  // measure 78
0000
2002
0000
0000
,  // measure 79
0000
3003
0000
0000
;

//---------------dance-single - ----------------
#NOTES:
     dance-single:
     :
     Medium:
     6:
     0.257097,0.309727,0.178850,0.072658,0.324165,322.000000,290.000000,32.000000,13.000000,0.000000,0.000000,0.257097,0.309727,0.178850,0.072658,0.324165,322.000000,290.000000,32.000000,13.000000,0.000000,0.000000:
// measure 0
0000
0000
0000
0000
,  // measure 1
0000
0000
1000
0000
,  // measure 2
0000
1000
0000
0000
0000
0000
1000
0000
0000
0000
0001
0000
,  // measure 3
0000
0000
0000
0000
0000
0001
0001
0000
0000
0000
0010
0000
,  // measure 4
0000
0010
0000
0000
0000
0000
0010
0000
0000
0000
0100
0000
,  // measure 5
0000
0100
0000
0000
0100
0000
0100
0000
0000
0100
0000
0000
,  // measure 6
0000
0010
0000
0000
0010
0000
0010
0000
0000
0010
0000
0000
,  // measure 7
0000
1000
0000
0000
1000
0000
1000
0000
0000
1000
0000
0000
,  // measure 8
0000
0010
0000
0000
0010
0000
0010
0000
0000
0010
0000
0000
,  // measure 9
0000
0100
0000
0000
0100
0000
1001
0000
0000
0100
0000
0000
,  // measure 10
0000
0100
0000
0000
0100
0000
0100
0000
0000
0100
0000
0000
,  // measure 11
0000
1000
0000
0000
1000
0000
1000
0000
0000
1000
0000
0000
,  // measure 12
0000
0001
0000
0000
0001
0000
0001
0000
0000
0001
0000
0000
,  // measure 13
0000
0100
0000
0000
0100
0000
0110
0000
0000
0100
0000
0000
,  // measure 14
0000
0100
0000
0000
0100
0000
1001
0000
0000
1000
0000
0000
,  // measure 15
0000
0100
0000
0000
0100
0000
1001
0000
0000
0001
0000
0000
,  // measure 16
0000
0100
0000
0000
0100
0000
0100
0000
0000
1100
0000
0000
,  // measure 17
0000
0010
0000
0000
0010
0000
0011
0000
0000
0010
0000
0000
,  // measure 18
0000
0000
0000
0000
0000
0000
0100
0001
0000
1000
0000
0000
,  // measure 19
0100
0000
0000
0000
0000
0000
0100
0001
0000
1000
0000
0000
,  // measure 20
0100
0000
0000
0000
0000
0000
0010
1000
0000
0100
0000
0000
,  // measure 21
0010
0000
0000
0000
0000
0000
0010
0001
0000
0100
0000
0000
,  // measure 22
0010
0000
0000
0000
0000
0000
0001
1000
0000
0010
0000
0000
,  // measure 23
0001
0000
0000
0000
0000
0000
0001
1000
0000
0010
0000
0000
,  // measure 24
0001
0000
0000
0000
0000
0000
0100
1000
0000
0010
0000
0000
,  // measure 25
0001
0000
0000
0010
0000
0000
0100
0001
0000
1000
0000
0000
,  // measure 26
0100
0000
0000
0010
0000
0000
0001
0001
0000
0000
0000
0000
,  // measure 27
0000
0000
0000
0000
0000
0000
1000
0001
0000
0100
0000
0000
,  // measure 28
0010
0000
0000
0001
0000
0000
0001
0000
0000
0010
1000
0000
,  // measure 29
0100
0000
0000
1000
0001
0000
1000
0000
0000
0000
0000
0000
,  // measure 30
0000
0000
0000
0000
0000
0000
0001
1000
0000
0001
0000
0000
,  // measure 31
0000
0000
0000
0000
0000
0000
1000
0001
0000
1000
0000
0000
,  // measure 32
0000
0100
0100
0000
0000
0100
0000
0000
1000
0000
1000
0000
,  // measure 33
0110
0000
0010
0000
0000
0010
0000
0000
0000
0001
0000
0001
,  // measure 34
0000
0000
0110
0000
0000
0100
0000
0000
0000
0100
0000
0000
,  // measure 35
0100
0000
1000
0000
0000
0000
1001
0000
0000
0000
0000
0000
,  // measure 36
0110
0000
0000
0000
0000
0100
1001
0000
0000
0000
0000
0000
,  // measure 37
0000
0000
0000
0100
0010
0000
0100
0000
0000
0010
0100
0000
,  // measure 38
0010
0000
0000
0100
0010
0000
0100
0000
0000
0010
0100
0000
,  // measure 39
0010
0000
0110
0000
,  // measure 40
0000
0000
0000
0200
0000
0000
1300
0100
0000
0000
0000
0000
,  // measure 41
0000
0000
0000
0200
0000
0000
0301
0100
0000
0000
0000
0000
,  // measure 42
0000
0000
0000
0200
0000
0000
1300
0100
0000
0000
0000
0000
,  // measure 43
0000
0000
0000
0200
0000
0000
0301
0100
0000
0000
0000
0000
,  // measure 44
0110
0000
0000
0110
0000
0000
0000
0000
0000
1000
1000
0000
,  // measure 45
0100
0100
0000
0001
0001
0000
0100
0100
0000
0000
0000
0000
,  // measure 46
0000
0000
0000
0010
0000
0000
0110
0000
0000
0000
0100
0000
,  // measure 47
0000
0100
0000
0100
0000
0000
0110
0000
0000
0000
1000
0000
,  // measure 48
0000
1000
0000
1000
0000
0000
1001
0000
0000
0000
0001
0000
,  // measure 49
0000
0001
0000
0001
0000
0000
1001
0000
0000
0000
1000
0000
,  // measure 50
0000
1000
0000
1000
0000
0000
0100
0000
0000
0000
0001
0000
,  // measure 51
0000
0001
0000
0001
0000
0000
0010
0000
0000
0000
0100
0000
,  // measure 52
0000
0100
0000
0100
0000
0000
0010
0000
0000
0000
0000
0000
,  // measure 53
1000
1000
2002
0000
,  // measure 54
3003
0100
0100
0100
,  // measure 55
0100
0010
0010
0010
,  // measure 56
0010
0001
0001
0001
,  // measure 57
0001
1000
1000
1000
,  // measure 58
1000
0001
0001
0001
,  // measure 59
0001
0000
0000
0000
0000
0000
0110
0000
0000
0000
0100
0000
,  // measure 60
0100
0000
0000
0000
0000
0000
0110
0000
0000
0000
0010
0000
,  // measure 61
0010
0000
0000
0000
0000
0000
1001
0000
0000
0000
1000
0000
,  // measure 62
0000
1000
0000
1000
0000
0000
1000
0000
0000
0000
0010
0000
,  // measure 63
0000
0010
0000
0010
0000
0000
0010
0000
0000
0000
0100
0000
,  // measure 64
0000
0100
0000
0100
0000
0000
0100
0000
0000
0000
0100
0000
,  // measure 65
0000
0110
0110
0000
,  // measure 66
0000
0000
0000
2000
0001
0000
0000
0000
0000
3001
0000
0000
,  // measure 67
0000
0000
0000
0200
0010
0000
0000
0000
0000
0310
0000
0000
,  // measure 68
0000
0000
0000
0200
0010
0000
0000
0000
0000
0310
0000
0000
,  // measure 69
0000
0000
0000
0000
1000
0000
0000
1000
0000
0000
1000
0000
,  // measure 70
0000
0001
0000
1000
0000
0000
1000
0000
1000
0001
0000
0010
,  // measure 71
0000
0010
0000
0010
0000
0000
0010
0000
0000
0100
0100
0000
,  // measure 72
0000
0100
0000
0100
0000
0000
0100
0001
0000
0001
0000
0000
,  // measure 73
0000
0000
0000
0001
0001
0000
0001
0000
0010
0010
0000
0000
,  // measure 74
0000
1000
0000
1000
0000
0000
1000
0000
0000
0100
0000
0000
,  // measure 75
0000
0100
0000
0010
0000
0000
0010
0000
0000
1000
0000
0000
,  // measure 76
0000
0000
0000
0220
0000
0000
0330
0000
0000
0000
0110
0000
,  // measure 77
0000
0110
0000
0000
0110
0000
0000
1001
0000
0000
1001
0000
,  // measure 78
0000
1001
0000
0000
2002
0000
0000
0000
0000
0000
0000
0000
,  // measure 79
0000
0000
3003
0000
0000
0000
0000
0000
0000
0000
0000
0000
;

//---------------dance-single - ----------------
#NOTES:
     dance-single:
     :
     Beginner:
     1:
     0.091022,0.132042,0.100603,0.083836,0.000000,114.000000,96.000000,18.000000,15.000000,0.000000,0.000000,0.091022,0.132042,0.100603,0.083836,0.000000,114.000000,96.000000,18.000000,15.000000,0.000000,0.000000:
// measure 0
0000
0000
0000
0000
,  // measure 1
0000
0000
1000
0000
,  // measure 2
0000
0000
1000
0000
,  // measure 3
0000
0000
0001
0000
,  // measure 4
0000
0000
0010
0000
,  // measure 5
0000
0000
0100
0000
,  // measure 6
0000
0000
0010
0000
,  // measure 7
0000
0000
1000
0000
,  // measure 8
0000
0000
0010
0000
,  // measure 9
0000
0000
1001
0000
,  // measure 10
0000
0000
0100
0000
,  // measure 11
0000
0000
1000
0000
,  // measure 12
0000
0000
0001
0000
,  // measure 13
0000
0000
0110
0000
,  // measure 14
0000
0000
1000
1000
,  // measure 15
0000
0000
0001
0001
,  // measure 16
0000
0000
0100
0100
,  // measure 17
0000
0000
0010
0010
,  // measure 18
0000
0000
0100
1000
,  // measure 19
0000
0000
0100
1000
,  // measure 20
0000
0000
0010
0100
,  // measure 21
0000
0000
0010
0100
,  // measure 22
0000
0000
0001
0010
,  // measure 23
0000
0000
0001
0010
,  // measure 24
0000
0000
0100
0000
,  // measure 25
0000
0000
0100
0000
,  // measure 26
0000
0000
0100
0000
,  // measure 27
0000
0000
1000
0000
,  // measure 28
0000
0000
0001
0000
,  // measure 29
0000
0000
1000
0000
,  // measure 30
0000
0000
0001
0000
,  // measure 31
0000
0000
1000
0000
,  // measure 32
0000
0000
1001
0000
,  // measure 33
0000
0000
1001
0000
,  // measure 34
0000
0000
1001
0000
,  // measure 35
0000
0000
1001
0000
,  // measure 36
0000
0000
1001
0000
,  // measure 37
0000
0000
0100
0010
,  // measure 38
0000
0000
0100
0010
,  // measure 39
0000
0000
0100
0010
,  // measure 40
0000
0000
2000
3000
,  // measure 41
0000
0000
2000
3000
,  // measure 42
0000
0000
0200
0300
,  // measure 43
0000
0000
0200
0300
,  // measure 44
0000
0000
0110
0000
,  // measure 45
0000
0000
0100
0000
,  // measure 46
0000
0000
0110
0000
,  // measure 47
0000
0000
0010
0000
,  // measure 48
0000
0000
0110
0000
,  // measure 49
0000
0000
0001
0000
,  // measure 50
0000
0000
1000
0000
,  // measure 51
0000
0000
0001
0000
,  // measure 52
0000
0000
1000
0000
,  // measure 53
0000
0000
2002
0000
,  // measure 54
3003
0000
0100
0000
,  // measure 55
0000
0000
0010
0000
,  // measure 56
0000
0000
0001
0000
,  // measure 57
0000
0000
1000
0000
,  // measure 58
0000
0000
0001
0000
,  // measure 59
0000
0000
0110
0000
,  // measure 60
0000
0000
0110
0000
,  // measure 61
0000
0000
1001
0000
,  // measure 62
0000
0000
1000
0000
,  // measure 63
0000
0000
0010
0000
,  // measure 64
0000
0000
0100
0000
,  // measure 65
0000
0000
0110
0000
,  // measure 66
0000
0000
2000
0000
,  // measure 67
3000
0000
0200
0000
,  // measure 68
0300
0000
0200
0000
,  // measure 69
0300
0000
0000
0000
,  // measure 70
0000
1000
1000
0000
,  // measure 71
0000
0010
0010
0000
,  // measure 72
0000
0100
0100
0000
,  // measure 73
0000
0001
0001
0000
,  // measure 74
0000
1000
1000
0000
,  // measure 75
0000
0010
0010
0000
,  // measure 76
0000
0220
0330
0000
,  // measure 77
0220
0330
0000
0000
,  // measure 78
2002
0000
0000
3003
;

//---------------dance-single - ----------------
#NOTES:
     dance-single:
     :
     Hard:
     8:
     0.328158,0.309727,0.178850,0.078247,0.312987,411.000000,379.000000,32.000000,14.000000,0.000000,0.000000,0.328158,0.309727,0.178850,0.078247,0.312987,411.000000,379.000000,32.000000,14.000000,0.000000,0.000000:
// measure 0
0000
0000
0000
0000
,  // measure 1
0000
0000
1000
1000
0000
0000
1000
0000
0000
1000
0000
0000
,  // measure 2
0000
0000
1000
1000
0000
0000
1000
0000
0000
1000
0000
0001
,  // measure 3
0000
0000
0001
0001
0000
0000
0001
0000
0000
0010
0000
0000
,  // measure 4
0010
0000
0010
0010
0000
0000
0010
0000
0000
0100
0000
0000
,  // measure 5
0100
0000
0100
0100
0000
0000
0100
0000
0000
0100
0000
0000
,  // measure 6
0010
0000
0010
0010
0000
0000
0010
0000
0000
0010
0000
0000
,  // measure 7
1000
0000
1000
1000
0000
0000
1000
0000
0000
1000
0000
0000
,  // measure 8
0010
0000
0010
0010
0000
0000
0010
0000
0000
0010
0000
0000
,  // measure 9
0100
0000
0100
0100
0000
0000
1001
0000
0000
0100
0000
0000
,  // measure 10
0100
0000
0100
0100
0000
0000
0100
0000
0000
0100
0000
0000
,  // measure 11
1000
0000
1000
1000
0000
0000
1000
0000
0000
1000
0000
0000
,  // measure 12
0001
0000
0001
0001
0000
0000
0001
0000
0000
0001
0000
0000
,  // measure 13
0100
0000
0100
0100
0000
0000
0110
0000
0000
0100
0000
0000
,  // measure 14
0100
0000
0100
0100
0000
0000
1001
0000
0000
1000
0000
0000
,  // measure 15
0100
0000
0100
0100
0000
0000
1001
0000
0000
0001
0000
0000
,  // measure 16
0100
0000
0100
0100
0000
0000
0100
0000
0000
1100
0000
0000
,  // measure 17
0010
0000
0010
0010
0000
0000
0011
0000
0000
0010
0000
0000
,  // measure 18
0100
0000
0100
0100
0000
0000
0100
0001
0000
1000
0000
0000
,  // measure 19
0100
0000
0100
0100
0000
0000
0100
0001
0000
1000
0000
0000
,  // measure 20
0100
0000
0100
0100
0000
0000
0010
1000
0000
0100
0000
0000
,  // measure 21
0010
0000
0010
0010
0000
0000
0010
0001
0000
0100
0000
0000
,  // measure 22
0010
0000
0001
0001
0000
0000
0001
1000
0000
0010
0000
0000
,  // measure 23
0001
0000
1000
1000
0000
0000
0001
1000
0000
0010
0000
0000
,  // measure 24
0001
0000
0100
1000
0000
0000
0100
1000
0000
0010
0000
0000
,  // measure 25
0001
0000
0100
0010
0000
0000
0100
0001
0000
1000
0000
0000
,  // measure 26
0100
0000
0001
0010
0000
0000
0001
0000
0000
1000
0000
0000
,  // measure 27
1000
0000
0100
1000
0000
0000
1000
0000
0001
0100
0000
0000
,  // measure 28
0010
0000
0010
0001
0000
0000
0001
0000
0000
0010
1000
0000
,  // measure 29
0100
0000
0000
1000
0001
0000
1000
0000
0000
1000
0000
0000
,  // measure 30
1000
0000
0001
0001
0000
0000
0001
1000
0000
0001
0000
0000
,  // measure 31
1000
0100
0000
1000
0000
0000
1000
0001
0000
1000
0000
0000
,  // measure 32
0000
0100
0100
0000
0000
0100
0000
0000
1000
0000
1000
0000
,  // measure 33
0110
0000
0010
0001
0000
0010
0000
0000
0001
0000
0001
0000
,  // measure 34
0000
0000
0110
0000
0000
0100
0000
0000
0000
0100
0000
0000
,  // measure 35
0100
0000
1000
0000
0000
0000
1001
0000
0000
0010
0000
0000
,  // measure 36
0110
0000
0100
0000
0000
0100
1001
0000
0100
0000
0000
0100
,  // measure 37
0000
0000
0000
0100
0010
0000
0100
0000
0000
0010
0100
0000
,  // measure 38
0010
0000
0000
0100
0010
0000
0100
0000
0000
0010
0100
0000
,  // measure 39
0010
0000
0010
0010
0000
0000
0110
0000
0000
0100
0000
0000
,  // measure 40
0000
0000
0100
0200
0000
0000
1300
0000
0000
0100
0000
0100
,  // measure 41
0000
0000
0100
0200
0000
0000
0301
0000
0000
0100
0000
0100
,  // measure 42
0000
0000
0100
0200
0000
0000
1300
0000
0000
0100
0000
0000
,  // measure 43
0100
0000
0100
0200
0000
0000
0301
0000
0000
0000
0000
0000
,  // measure 44
0110
0000
0000
0110
0000
0000
1000
0000
0000
1000
1000
0000
,  // measure 45
0000
0100
0000
0020
0000
0000
0000
0000
0000
0030
0000
0000
,  // measure 46
0000
0010
0010
0000
0000
0000
0110
0000
0000
0100
0000
0000
,  // measure 47
0000
0000
0100
0100
0000
0000
0110
0000
0000
1000
0000
0000
,  // measure 48
1000
0000
1000
1000
0000
0000
1001
0000
0000
0001
0000
0000
,  // measure 49
0001
0000
0001
0001
0000
0000
1001
0000
0000
1000
0000
0000
,  // measure 50
1000
0000
1000
1000
0000
0000
0100
0000
0000
0001
0000
0000
,  // measure 51
0001
0000
0001
0001
0000
0000
0010
0000
0000
0100
0000
0000
,  // measure 52
0100
0000
0100
0100
0000
0000
0010
0000
0000
1000
0000
0000
,  // measure 53
1000
0000
1000
1000
0000
0000
2002
0000
0000
0000
0000
0000
,  // measure 54
3003
0100
0100
0100
,  // measure 55
0100
0000
1000
0010
0000
0000
0010
0000
0000
0010
0000
0000
,  // measure 56
0010
0000
0100
0001
0000
0000
0001
0000
0000
0001
0000
0000
,  // measure 57
0001
0000
0010
1000
0000
0000
1000
0000
0000
1000
0000
0000
,  // measure 58
1000
0000
0100
0001
0000
0000
0001
0000
0000
0001
0000
0000
,  // measure 59
0001
0000
0100
0100
0000
0000
0110
0000
0000
0100
0000
0000
,  // measure 60
0100
0000
0100
0100
0000
0000
0110
0000
0000
0010
0000
0000
,  // measure 61
0010
0000
0010
0010
0000
0000
1001
0000
0000
1000
0000
0000
,  // measure 62
1000
0000
1000
1000
0000
0000
1000
0000
0000
0010
0000
0000
,  // measure 63
0010
0000
0010
0010
0000
0000
0010
0000
0000
0100
0000
0000
,  // measure 64
0100
0000
0100
0100
0000
0000
0100
0000
0000
0100
0000
0000
,  // measure 65
0100
0000
0100
0110
0000
0000
0110
0000
0000
0000
0000
0000
,  // measure 66
0000
0000
1000
2000
0000
0000
0001
0000
0000
3001
0000
0000
,  // measure 67
0000
0000
0100
0200
0000
0000
0010
0000
0000
0010
0300
0000
,  // measure 68
0000
0000
0100
0200
0000
0000
0010
0000
0000
0310
0000
0000
,  // measure 69
0000
0000
1000
1000
0000
0000
1000
0000
0000
1000
0000
0000
,  // measure 70
0001
0000
0000
0000
1000
0000
1000
0000
0000
0000
0000
0000
1000
0000
0000
0000
0000
0000
1000
0000
0000
0010
0000
0000
,  // measure 71
0010
0000
0010
0000
0010
0000
0100
0100
,  // measure 72
0000
0100
0000
0100
0000
0000
0100
0001
0000
0001
0000
0000
,  // measure 73
0000
0000
0001
0001
0000
0000
0001
0000
0000
0010
0000
0000
,  // measure 74
1000
0000
1000
1000
0000
0000
1000
0000
0000
0100
0000
0000
,  // measure 75
0100
0000
0010
0010
0000
0000
0010
0000
0000
1000
0000
0000
,  // measure 76
0100
0000
0000
0220
0000
0000
0330
0000
0000
0000
0110
0000
,  // measure 77
0000
0110
0000
0000
0110
0000
0000
1001
0000
0000
1001
0000
,  // measure 78
0000
1001
0000
0000
2002
0000
0000
0000
0000
0000
0000
0000
,  // measure 79
0000
0000
3003
0000
0000
0000
0000
0000
0000
0000
0000
0000
;
